osu file format v14

[General]
AudioFilename: audio.mp3
AudioLeadIn: 0
PreviewTime: 57332
Countdown: 0
SampleSet: Soft
StackLeniency: 0.7
Mode: 0
LetterboxInBreaks: 0
WidescreenStoryboard: 1

[Editor]
Bookmarks: 23132,38492,57692,73052,88412,103772,119132,134492,149852,167132,182492,197852
DistanceSpacing: 1.3
BeatDivisor: 8
GridSize: 32
TimelineZoom: 1.4

[Metadata]
Title:In Hell We Live, Lament feat. KIHOW from MYTH & ROID
TitleUnicode:In Hell We Live, Lament feat. KIHOW from MYTH & ROID
Artist:Mili
ArtistUnicode:Mili
Creator:Hinsvar
Version:Hard
Source:Limbus Company
Tags:Cassie Wei momocashew 葛西大和 Yamato Kasai HAMO 行人 Yukihito 吉田翔人 Shoto Yoshida 藤森蒼 Ao Fujimori English Pop Classical contemporary art ambient Video Game opening theme song 림버스 リンバス Project Moon Featured Artist FA Mappers' Guild MG MPG
BeatmapID:4187659
BeatmapSetID:2011507

[Difficulty]
HPDrainRate:4
CircleSize:3.5
OverallDifficulty:5.5
ApproachRate:7
SliderMultiplier:1.6
SliderTickRate:1

[Events]
//Background and Video events
0,0,"BG.jpg",0,0
//Break Periods
2,88611,101432
//Storyboard Layer 0 (Background)
//Storyboard Layer 1 (Fail)
//Storyboard Layer 2 (Pass)
//Storyboard Layer 3 (Foreground)
//Storyboard Layer 4 (Overlay)
//Storyboard Sound Samples

[TimingPoints]
23132,480,4,2,1,40,1,0
23132,-142.857142857143,4,2,1,40,0,0
38492,-111.111111111111,4,2,1,60,0,0
55772,-142.857142857143,4,2,1,60,0,0
57452,-100,4,2,1,50,0,0
57692,480,4,2,1,70,1,1
57692,-100,4,2,1,70,0,1
57812,-100,4,2,1,70,0,0
73052,-90.9090909090909,4,2,1,80,0,1
88412,-125,4,2,1,50,0,0
103772,-111.111111111111,4,2,1,50,0,0
119132,-166.666666666667,4,2,1,30,0,0
134492,-142.857142857143,4,2,1,40,0,0
148412,-125,4,2,1,50,0,0
149852,-111.111111111111,4,2,1,60,0,0
164012,-100,4,2,1,70,0,0
164972,-111.111111111111,4,2,1,70,0,0
166892,-100,4,2,1,50,0,0
167132,480,4,2,1,70,1,1
167132,-100,4,2,1,70,0,1
167252,-100,4,2,1,70,0,0
182492,-90.9090909090909,4,2,1,80,0,1
197852,-90.9090909090909,4,2,1,60,0,0

[Colours]
Combo1 : 243,163,12
Combo2 : 97,168,226
Combo3 : 230,65,47
Combo4 : 142,136,221

[HitObjects]
69,79,23132,5,2,3:2:0:0:
69,79,23852,2,0,P|51:48|33:31,2,55.9999982910157
88,160,24572,1,0,0:0:0:0:
110,326,25052,1,2,0:0:0:0:
443,305,26972,5,2,0:0:0:0:
443,305,27692,2,0,P|461:336|479:353,2,55.9999982910157
424,224,28412,1,0,0:0:0:0:
402,58,28892,5,2,0:0:0:0:
256,360,29852,1,2,0:0:0:0:
110,58,30812,1,2,0:0:0:0:
297,226,31532,6,0,L|350:211,2,55.9999982910157
215,226,32252,1,0,0:0:0:0:
95,108,32732,5,2,0:0:0:0:
424,46,33692,1,2,0:0:0:0:
313,361,34652,1,2,0:0:0:0:
270,112,35372,6,0,L|258:42,2,55.9999982910157
284,195,36092,1,0,0:0:0:0:
159,307,36572,2,0,P|59:279|42:217,1,167.999994873047,2|0,0:0|0:0,0:0:0:0:
43,142,37532,2,0,P|109:160|120:201,1,111.999996582031
197,229,38252,1,0,0:0:0:0:
275,254,38492,6,0,P|360:264|489:224,1,215.999993408203,2|0,3:2|0:0,0:0:0:0:
490,149,39452,2,0,P|482:111|482:65,1,71.9999978027344,2|0,0:0|0:0,0:0:0:0:
395,92,39932,2,0,P|403:130|403:176,1,71.9999978027344
324,170,40412,2,0,P|219:128|194:17,1,215.999993408203,2|0,3:2|0:0,0:0:0:0:
113,17,41372,2,0,P|75:11|50:39,2,71.9999978027344,2|0|0,3:2|0:0|0:0,0:0:0:0:
118,100,42092,5,0,0:0:0:0:
118,100,42332,2,0,P|65:133|11:212,1,143.999995605469,2|0,3:2|0:0,0:0:0:0:
52,268,43052,2,0,P|105:235|159:156,1,143.999995605469,2|0,0:0|0:0,0:0:0:0:
271,64,44012,2,0,B|329:52|376:91|377:97|421:137|493:128,1,215.999993408203
472,208,44972,2,0,B|439:229|435:270|437:273|435:313|397:342,1,143.999995605469,2|2,0:0|0:0,0:0:0:0:
150,364,46172,6,0,P|122:289|38:161,1,215.999993408203,2|0,3:2|0:0,0:0:0:0:
30,97,47132,1,2,0:0:0:0:
77,33,47372,2,0,P|103:37|154:34,1,71.9999978027344
188,103,47852,2,0,P|240:111|342:106,1,143.999995605469,2|0,0:0|0:0,0:0:0:0:
463,21,48812,1,2,0:0:0:0:
448,178,49292,2,0,P|398:239|329:376,1,215.999993408203,2|2,0:0|0:0,0:0:0:0:
334,360,50732,5,0,0:0:0:0:
258,335,50972,1,2,0:0:0:0:
258,256,51212,1,0,0:0:0:0:
334,231,51452,1,0,0:0:0:0:
380,295,51692,2,0,B|419:284|432:249|425:245|442:213|488:189,1,143.999995605469,2|0,0:0|0:0,0:0:0:0:
327,145,52652,2,0,B|288:134|275:99|282:95|265:63|219:39,2,143.999995605469,2|0|0,0:0|0:0|0:0,0:0:0:0:
327,145,53732,1,0,0:0:0:0:
327,145,53852,1,2,3:2:0:0:
335,152,55772,6,0,B|282:108|160:118|196:262|80:250|24:190,1,335.999989746094
12,101,57452,1,0,0:0:0:0:
91,33,57692,6,0,P|166:56|239:-1,1,160,2|2,3:2|3:2,0:0:0:0:
333,30,58412,1,2,0:0:0:0:
328,41,58532,2,0,P|309:101|355:159,1,120,2|2,0:0|0:0,0:0:0:0:
441,189,59132,1,0,3:0:0:0:
441,189,59252,1,0,0:0:0:0:
441,189,59372,1,2,0:0:0:0:
351,260,59612,6,0,L|190:312,1,160,2|2,3:2|3:2,0:0:0:0:
116,373,60332,1,2,0:0:0:0:
121,383,60452,2,0,L|0:344,1,120,2|2,0:0|0:0,0:0:0:0:
17,242,61052,1,0,3:0:0:0:
17,242,61172,1,0,0:0:0:0:
17,242,61292,1,2,0:0:0:0:
115,274,61532,6,0,P|128:210|132:88,1,160,2|2,3:2|3:2,0:0:0:0:
54,47,62252,1,2,0:0:0:0:
42,51,62372,2,0,P|32:99|29:190,1,120,2|2,0:0|0:0,0:0:0:0:
138,200,62972,1,2,3:2:0:0:
138,200,63092,1,0,0:0:0:0:
138,200,63212,1,0,0:0:0:0:
225,144,63452,6,0,B|275:136|301:163|290:168|323:200|378:184,1,160,2|0,3:2|3:0,0:0:0:0:
472,155,64172,1,2,0:0:0:0:
449,256,64412,2,0,B|472:285|465:312|457:307|449:340|480:370,2,120,2|2|2,3:2|0:0|0:0,0:0:0:0:
350,289,65372,6,0,P|277:298|213:245,1,160,2|0,3:2|3:0,0:0:0:0:
134,196,66092,1,0,0:0:0:0:
134,196,66212,1,0,0:0:0:0:
134,196,66332,2,0,P|90:183|48:180,2,80,0|2|0,3:0|0:0|3:0,0:0:0:0:
183,117,67052,1,0,0:0:0:0:
183,117,67172,1,0,0:0:0:0:
183,117,67292,2,0,P|196:73|199:31,2,80,0|2|0,3:0|0:0|3:0,0:0:0:0:
270,174,68012,5,0,0:0:0:0:
270,174,68132,1,0,0:0:0:0:
270,174,68252,2,0,P|314:187|356:190,1,80,0|2,3:0|0:0,0:0:0:0:
414,110,68732,1,0,3:0:0:0:
355,25,68972,2,0,B|325:17|273:45|289:51|236:79|203:61,1,160,2|2,0:0|0:0,0:0:0:0:
105,30,69692,1,0,3:0:0:0:
35,107,69932,5,0,0:0:0:0:
35,107,70052,1,0,0:0:0:0:
35,107,70172,2,0,P|31:147|16:190,2,80,0|2|0,3:0|0:0|3:0,0:0:0:0:
134,138,70892,2,0,P|142:161|149:303,1,160,2|2,0:0|0:0,0:0:0:0:
256,274,71612,1,0,3:0:0:0:
362,295,71852,1,2,0:0:0:0:
362,295,71972,1,2,0:0:0:0:
362,295,72092,2,0,P|360:255|370:216,1,80,0|0,3:0|0:0,0:0:0:0:
398,116,72572,1,0,3:0:0:0:
417,113,72692,1,0,3:0:0:0:
437,111,72812,1,0,3:0:0:0:
457,108,72932,1,0,3:0:0:0:
477,106,73052,5,2,3:2:0:0:
385,36,73292,1,0,3:0:0:0:
316,127,73532,1,2,3:2:0:0:
404,199,73772,1,0,3:0:0:0:
407,211,73892,2,0,P|408:248|388:367,1,132.00000402832,2|0,0:0|3:0,0:0:0:0:
280,339,74492,2,0,P|272:296|272:252,1,88.000002685547,2|0,0:0|3:0,0:0:0:0:
175,191,74972,5,2,3:2:0:0:
91,116,75212,1,0,3:0:0:0:
184,51,75452,1,2,3:2:0:0:
267,127,75692,1,0,3:0:0:0:
279,132,75812,2,0,P|328:124|384:41,1,132.00000402832,2|0,0:0|3:0,0:0:0:0:
485,101,76412,2,0,P|474:146|479:196,1,88.000002685547,2|0,0:0|3:2,3:2:0:0:
369,231,76892,5,2,3:2:0:0:
256,213,77132,1,0,3:0:0:0:
264,326,77372,1,2,3:2:0:0:
377,343,77612,1,0,3:0:0:0:
388,351,77732,2,0,P|386:279|373:197,1,132.00000402832,2|0,0:0|3:0,0:0:0:0:
448,128,78332,2,0,P|426:94|380:69,1,88.000002685547,2|0,0:0|3:0,0:0:0:0:
290,134,78812,5,2,3:2:0:0:
176,147,79052,1,0,3:0:0:0:
178,32,79292,2,0,P|222:22|271:25,1,88.000002685547,2|0,0:0|3:0,0:0:0:0:
290,134,79772,2,0,B|306:168|282:196|281:204|259:227|281:264,2,132.00000402832,2|2|2,3:2|0:0|3:2,0:0:0:0:
340,30,80732,2,0,P|430:53|463:127,1,176.000005371094,2|0,3:2|3:0,0:0:0:0:
475,244,81452,5,2,0:0:0:0:
475,244,81572,1,2,0:0:0:0:
475,244,81692,2,0,L|384:267,1,88.000002685547,2|0,3:2|3:0,0:0:0:0:
280,301,82172,2,0,L|144:336,2,132.00000402832,2|2|0,3:2|0:0|3:0,0:0:0:0:
305,189,83132,2,0,L|440:153,2,132.00000402832,2|2|2,3:2|0:0|3:2,0:0:0:0:
195,223,84092,2,0,L|110:246,1,88.000002685547,0|2,3:0|3:2,0:0:0:0:
127,131,84572,5,2,3:2:0:0:
196,38,84812,1,0,0:0:0:0:
304,73,85052,1,2,3:2:0:0:
303,188,85292,1,0,3:0:0:0:
195,223,85532,1,2,3:2:0:0:
178,337,85772,6,0,P|216:316|259:315,1,88.000002685547,2|0,3:2|3:0,0:0:0:0:
375,304,86252,2,0,P|397:340|433:364,2,88.000002685547,2|0|0,3:2|3:0|3:0,0:0:0:0:
307,211,86972,2,0,P|328:172|330:129,1,88.000002685547,2|0,3:2|3:0,0:0:0:0:
242,59,87452,1,2,3:2:0:0:
242,59,87932,2,0,P|198:135|194:222,1,176.000005371094,2|0,3:2|0:0,0:0:0:0:
251,240,102332,6,0,P|250:298|263:366,2,128,2|0|0,0:0|0:0|0:0,0:0:0:0:
258,160,103532,1,0,0:0:0:0:
279,83,103772,6,0,B|243:35|190:51|176:74|120:86|79:38,1,215.999993408203,2|0,0:0|0:0,0:0:0:0:
18,88,104732,2,0,P|26:125|28:175,1,71.9999978027344
43,236,105212,2,0,P|80:228|130:226,1,71.9999978027344
169,282,105692,2,0,P|270:280|367:373,1,215.999993408203,2|0,0:0|0:0,0:0:0:0:
432,328,106652,2,0,P|459:350|494:350,2,71.9999978027344
388,261,107372,5,0,0:0:0:0:
388,261,107612,2,0,P|388:186|380:99,1,143.999995605469,2|0,0:0|0:0,0:0:0:0:
302,119,108332,2,0,P|302:194|310:281,1,143.999995605469
188,366,109292,2,0,B|187:306|131:274|118:309|66:272|73:199,1,215.999993408203,2|0,0:0|0:0,0:0:0:0:
108,131,110252,2,0,B|108:91|145:70|154:93|188:68|184:22,1,143.999995605469
184,22,111452,2,0,P|247:44|319:16,1,143.999995605469,2|0,0:0|0:0,0:0:0:0:
395,17,112172,6,0,P|435:35|469:64,1,71.9999978027344
419,122,112652,2,0,P|378:103|344:74,1,71.9999978027344
314,156,113132,2,0,B|296:193|319:227|324:222|352:260|305:333,2,143.999995605469,2|0|0,0:0|0:0|0:0,0:0:0:0:
256,101,114332,1,2,0:0:0:0:
198,156,114572,2,0,B|225:211|190:262|183:255|140:312|211:421,1,215.999993408203,2|0,0:0|0:0,0:0:0:0:
40,294,115772,6,0,P|42:225|0:142,1,143.999995605469,2|0,0:0|0:0,0:0:0:0:
64,97,116492,2,0,P|98:98|140:77,1,71.9999978027344
200,41,116972,2,0,B|227:16|267:37|265:44|305:75|340:54,2,143.999995605469,2|0|0,0:0|0:0|0:0,0:0:0:0:
202,120,118172,1,2,0:0:0:0:
226,195,118412,2,0,B|238:248|180:285|173:277|103:305|104:367,1,215.999993408203,2|0,0:0|0:0,0:0:0:0:
104,358,120092,6,0,P|104:307|99:258,1,95.9999970703126,2|0,0:0|0:0,0:0:0:0:
85,181,120812,1,0,0:0:0:0:
189,25,121532,1,0,0:0:0:0:
312,39,122012,1,0,0:0:0:0:
297,162,122492,1,0,0:0:0:0:
174,148,122972,1,2,0:0:0:0:
174,148,123932,6,0,P|171:192|206:236,1,95.9999970703126,2|0,0:0|0:0,0:0:0:0:
281,232,124652,2,0,P|285:165|232:98,1,143.999995605469
342,30,125852,2,0,P|386:32|430:-2,1,95.9999970703126
501,103,126812,1,2,0:0:0:0:
501,103,127772,6,0,P|493:150|487:206,1,95.9999970703126,2|0,0:0|0:0,0:0:0:0:
406,205,128492,2,0,P|418:134|427:50,1,143.999995605469
304,33,129692,2,0,P|256:27|208:19,1,95.9999970703126
179,141,130652,1,2,0:0:0:0:
179,141,131612,6,0,P|128:137|106:173,1,95.9999970703126,2|0,0:0|0:0,0:0:0:0:
111,247,132332,2,0,P|67:310|97:365,1,143.999995605469
219,358,133532,2,0,P|247:315|227:278,1,95.9999970703126
204,136,134492,1,2,0:0:0:0:
204,136,135452,2,0,P|261:136|330:112,1,111.999996582031,2|0,0:0|0:0,0:0:0:0:
327,37,136172,2,0,P|241:37|137:73,1,167.999994873047
48,183,137372,2,0,P|91:257|174:329,1,167.999994873047
230,352,138332,1,2,0:0:0:0:
230,352,138932,6,0,P|264:292|281:205,1,139.999995727539,2|0,0:0|0:0,0:0:0:0:
367,203,139772,1,0,0:0:0:0:
367,203,140012,1,0,0:0:0:0:
367,203,140252,2,0,P|385:284|427:357,1,167.999994873047
495,308,141212,2,0,P|482:253|454:205,1,111.999996582031
291,165,142172,1,2,0:0:0:0:
291,165,143132,6,0,P|228:171|180:147,1,111.999996582031,2|0,0:0|0:0,0:0:0:0:
185,151,143972,2,0,P|177:75|206:17,1,139.999995727539
373,15,145052,2,0,P|378:75|355:121,1,111.999996582031
293,276,146012,1,2,0:0:0:0:
293,276,146732,6,0,L|227:269,2,55.9999982910157,2|0|0,0:0|0:0|0:0,0:0:0:0:
283,359,147452,2,0,L|227:353,1,55.9999982910157
159,303,147932,1,2,0:0:0:0:
54,181,148412,2,0,P|49:115|31:50,2,128,2|0|0,0:0|0:0|0:0,0:0:0:0:
212,151,149852,6,0,B|218:58|271:5|360:40|424:120|348:221|356:289|529:300|500:181,1,503.999984619141,2|0,0:0|0:0,0:0:0:0:
484,111,151772,2,0,B|414:105|367:175|381:205|334:278|262:267,1,287.999991210938,2|0,0:0|0:0,0:0:0:0:
140,367,153212,1,2,0:0:0:0:
12,272,153692,6,0,B|-19:233|-23:126|72:81|125:233|316:202|289:34|205:-7|130:9|104:62|109:109|153:127,1,503.999984619141,2|0,0:0|0:0,0:0:0:0:
171,194,155612,2,0,B|245:209|278:279|269:297|309:377|387:379,1,287.999991210938,2|0,0:0|0:0,0:0:0:0:
466,74,157532,6,0,B|386:116|252:69|252:55|121:2|44:37,1,431.999986816407,2|0,0:0|0:0,0:0:0:0:
19,192,159452,2,0,P|61:244|65:349,1,143.999995605469,2|0,0:0|0:0,0:0:0:0:
224,273,160412,2,0,P|161:195|155:37,1,215.999993408203,2|0,0:0|0:0,0:0:0:0:
212,43,161372,6,0,P|404:155|378:260,1,359.999989013672,2|0,0:0|0:0,0:0:0:0:
315,299,162812,2,0,P|277:308|236:307,1,71.9999978027344
237,233,163292,1,2,0:0:0:0:
237,233,163532,2,0,P|275:224|316:225,1,71.9999978027344,2|0,0:0|0:0,0:0:0:0:
381,255,164012,6,0,L|405:177,1,80,2|0,0:0|0:0,0:0:0:0:
367,80,164492,2,0,L|289:56,1,80,2|0,0:0|0:0,0:0:0:0:
192,94,164972,6,0,B|110:17|23:30|1:135|27:191|89:209|173:131|238:185|196:289|132:322|80:247,1,503.999984619141,2|0,0:0|0:0,0:0:0:0:
49,349,166892,1,2,0:0:0:0:
147,384,167132,6,0,P|228:374|300:346,1,160,2|2,3:2|3:2,0:0:0:0:
400,375,167852,1,2,0:0:0:0:
411,379,167972,2,0,P|403:318|382:264,1,120,2|2,0:0|0:0,0:0:0:0:
289,242,168572,1,0,3:0:0:0:
289,242,168692,1,0,0:0:0:0:
289,242,168812,1,2,0:0:0:0:
223,160,169052,6,0,P|203:91|249:0,1,160,2|2,3:2|3:2,0:0:0:0:
335,39,169772,1,2,0:0:0:0:
345,43,169892,2,0,P|359:94|325:163,1,120,2|2,0:0|0:0,0:0:0:0:
425,225,170492,1,0,3:0:0:0:
425,225,170612,1,0,0:0:0:0:
425,225,170732,1,2,0:0:0:0:
483,310,170972,6,0,P|408:317|325:331,1,160,2|2,3:2|3:2,0:0:0:0:
225,361,171692,1,2,0:0:0:0:
215,368,171812,2,0,P|158:362|96:352,1,120,2|2,0:0|0:0,0:0:0:0:
29,287,172412,1,2,3:2:0:0:
29,287,172532,1,0,0:0:0:0:
29,287,172652,1,0,0:0:0:0:
6,185,172892,6,0,P|20:152|31:94,2,80,2|0|0,3:2|0:0|3:0,0:0:0:0:
108,199,173612,1,2,0:0:0:0:
204,244,173852,1,2,3:2:0:0:
216,242,173972,1,2,0:0:0:0:
293,173,174212,2,0,P|262:132|200:79,1,120,2|0,0:0|0:0,0:0:0:0:
297,29,174812,6,0,B|334:11|374:47|368:60|406:94|446:66,1,160,2|0,3:2|3:0,0:0:0:0:
489,172,175532,1,0,0:0:0:0:
489,172,175652,1,0,0:0:0:0:
489,172,175772,2,0,L|484:258,2,80,0|2|0,3:0|0:0|3:0,0:0:0:0:
392,178,176492,1,0,0:0:0:0:
392,178,176612,1,0,0:0:0:0:
392,178,176732,2,0,L|344:249,2,80,0|2|0,3:0|0:0|3:0,0:0:0:0:
304,134,177452,5,0,0:0:0:0:
304,134,177572,1,0,0:0:0:0:
304,134,177692,2,0,L|227:172,1,80,0|2,3:0|0:0,0:0:0:0:
161,245,178172,1,0,3:0:0:0:
76,184,178412,2,0,P|45:115|81:30,1,160,2|2,0:0|0:0,0:0:0:0:
171,69,179132,1,0,3:0:0:0:
280,54,179372,5,0,0:0:0:0:
280,54,179492,1,0,0:0:0:0:
280,54,179612,2,0,P|295:88|277:131,1,80,0|2,3:0|0:0,0:0:0:0:
181,153,180092,1,0,3:0:0:0:
255,225,180332,2,0,L|408:302,1,160,2|2,0:0|0:0,0:0:0:0:
501,283,181052,1,0,3:0:0:0:
488,179,181292,1,2,0:0:0:0:
488,179,181412,1,2,0:0:0:0:
488,179,181532,2,0,P|471:140|479:97,1,80,0|0,3:0|0:0,0:0:0:0:
394,38,182012,1,0,3:0:0:0:
384,55,182132,1,0,3:0:0:0:
371,70,182252,1,0,3:0:0:0:
354,80,182372,1,0,3:0:0:0:
334,86,182492,5,2,3:2:0:0:
221,64,182732,1,0,3:0:0:0:
254,174,182972,1,2,3:2:0:0:
366,202,183212,1,0,3:0:0:0:
376,194,183332,2,0,P|392:261|394:334,1,132.00000402832,2|0,0:0|3:0,0:0:0:0:
280,307,183932,2,0,P|236:293|193:270,1,88.000002685547,2|0,0:0|3:0,0:0:0:0:
161,168,184412,5,2,3:2:0:0:
49,144,184652,1,0,3:0:0:0:
112,49,184892,1,2,3:2:0:0:
225,73,185132,1,0,3:0:0:0:
234,82,185252,2,0,P|297:76|370:47,1,132.00000402832,2|0,0:0|3:0,0:0:0:0:
471,83,185852,2,0,P|455:124|453:175,1,88.000002685547,2|0,0:0|3:0,0:0:0:0:
338,165,186332,5,2,3:2:0:0:
227,195,186572,1,0,3:0:0:0:
193,303,186812,1,2,3:2:0:0:
305,275,187052,1,0,3:0:0:0:
312,285,187172,2,0,P|379:318|437:291,1,132.00000402832,2|0,0:0|3:0,0:0:0:0:
475,195,187772,2,0,P|472:145|437:120,1,88.000002685547,2|0,0:0|3:0,0:0:0:0:
346,62,188252,5,2,3:2:0:0:
330,176,188492,1,0,3:0:0:0:
223,219,188732,2,0,P|181:204|142:164,1,88.000002685547,2|0,0:0|3:0,0:0:0:0:
114,66,189212,2,0,B|140:34|173:34|172:42|202:45|241:13,2,132.00000402832,2|2|2,3:2|0:0|0:0,0:0:0:0:
24,138,190172,2,0,P|6:225|56:311,1,176.000005371094,2|2,3:2|3:2,0:0:0:0:
165,290,190892,5,2,0:0:0:0:
165,290,191012,1,2,0:0:0:0:
165,290,191132,2,0,P|180:265|156:197,1,88.000002685547,2|0,3:2|3:0,0:0:0:0:
256,133,191612,2,0,P|235:71|263:12,2,132.00000402832,2|2|0,3:2|0:0|3:0,0:0:0:0:
265,247,192572,2,0,P|285:308|257:367,2,132.00000402832,2|2|2,3:2|0:0|3:2,0:0:0:0:
350,171,193532,2,0,P|337:129|355:90,1,88.000002685547,0|2,3:0|3:2,0:0:0:0:
459,140,194012,5,2,3:2:0:0:
447,254,194252,1,0,0:0:0:0:
382,349,194492,1,2,3:2:0:0:
268,337,194732,1,0,3:0:0:0:
173,271,194972,1,2,3:2:0:0:
185,157,195212,1,0,3:0:0:0:
250,62,195452,1,0,3:0:0:0:
364,74,195692,1,2,3:2:0:0:
307,174,195932,6,0,P|308:216|327:264,1,88.000002685547,0|0,3:0|3:0,0:0:0:0:
243,339,196412,2,0,P|205:318|154:311,1,88.000002685547,2|0,3:2|3:0,0:0:0:0:
74,235,196892,2,0,P|146:189|209:108,2,176.000005371094,2|2|0,3:2|3:2|0:0,0:0:0:0:
