osu file format v14

[General]
AudioFilename: audio.mp3
AudioLeadIn: 0
PreviewTime: 146027
Countdown: 0
SampleSet: None
StackLeniency: 0.5
Mode: 0
LetterboxInBreaks: 0
WidescreenStoryboard: 0

[Editor]
Bookmarks: 9475,17751,26027,42579,54993,63268,71544,73613,81889,90165,98441,106717,114993,123268,131544,148096
DistanceSpacing: 1.2
BeatDivisor: 6
GridSize: 4
TimelineZoom: 2.999999

[Metadata]
Title:Imagined Flight
TitleUnicode:Imagined Flight
Artist:Mili
ArtistUnicode:Mili
Creator:Dementation
Version:Broken Wings
Source:
Tags:
BeatmapID:2038920
BeatmapSetID:974028

[Difficulty]
HPDrainRate:4.5
CircleSize:5.3
OverallDifficulty:7.8
ApproachRate:8.3
SliderMultiplier:1.7
SliderTickRate:1

[Events]
//Background and Video events
0,0,"million_miles_away_from_home_by_nanomortis_dd0ltnx-pre (1).png",0,0
//Break Periods
2,63468,70840
//Storyboard Layer 0 (Background)
//Storyboard Layer 1 (Fail)
//Storyboard Layer 2 (Pass)
//Storyboard Layer 3 (Foreground)
//Storyboard Sound Samples

[TimingPoints]
1200,517.241379310345,4,3,0,100,1,0
1200,-333.333333333333,4,3,0,100,0,0
9475,-83.3333333333333,4,3,0,100,0,0
9993,-166.666666666667,4,3,0,100,0,0
10510,-111.111111111111,4,3,0,100,0,0
11027,-66.6666666666667,4,3,0,100,0,0
11544,-55.5555555555556,4,3,0,100,0,0
12062,-166.666666666667,4,3,0,100,0,0
16717,-83.3333333333333,4,3,0,100,0,0
17751,-166.666666666667,4,3,0,100,0,0
18786,-55.5555555555556,4,3,0,100,0,0
19820,-111.111111111111,4,3,0,100,0,0
21889,-83.3333333333333,4,3,0,100,0,0
23268,-41.6666666666667,4,3,0,100,0,0
23958,-66.6666666666667,4,3,0,100,0,0
26803,-133.333333333333,4,3,0,100,0,0
27320,-50,4,3,0,100,0,0
27579,-200,4,3,0,100,0,0
30165,-133.333333333333,4,3,0,100,0,0
34044,-66.6666666666667,4,3,0,100,0,0
34303,-200,4,3,0,100,0,0
38441,-90.9090909090909,4,3,0,100,0,0
40510,-200,4,3,0,100,0,0
42579,-133.333333333333,4,3,0,100,0,0
44648,-250,4,3,0,100,0,0
45682,-133.333333333333,4,3,0,100,0,0
47751,-250,4,3,0,100,0,0
48786,-166.666666666667,4,3,0,100,0,0
49562,-125,4,3,0,100,0,0
50855,-166.666666666667,4,3,0,100,0,0
51372,-111.111111111111,4,3,0,100,0,0
51889,-166.666666666667,4,3,0,100,0,0
52406,-111.111111111111,4,3,0,100,0,0
54475,-333.333333333333,4,3,0,100,0,0
54993,-83.3333333333333,4,3,0,100,0,0
55337,-55.5555555555556,4,3,0,100,0,0
56027,-166.666666666667,4,3,0,100,0,0
57406,-55.5555555555556,4,3,0,100,0,0
60165,-100,4,3,0,100,0,0
61544,-55.5555555555556,4,3,0,100,0,0
62234,-100,4,3,0,100,0,0
62751,-66.6666666666667,4,3,0,100,0,0
63268,-166.666666666667,4,3,0,100,0,0
73613,-111.111111111111,4,3,0,100,0,0
75682,-166.666666666667,4,3,0,100,0,0
79820,-111.111111111111,4,3,0,100,0,0
81889,-250,4,3,0,100,0,0
82924,-62.5,4,3,0,100,0,0
83268,-100,4,3,0,100,0,0
83958,-250,4,3,0,100,0,0
89648,-100,4,3,0,100,0,0
90165,-166.666666666667,4,3,0,100,0,0
90682,-55.5555555555556,4,3,0,100,0,0
91200,-100,4,3,0,100,0,0
92234,-166.666666666667,4,3,0,100,0,0
92751,-55.5555555555556,4,3,0,100,0,0
93268,-100,4,3,0,100,0,0
94303,-166.666666666667,4,3,0,100,0,0
94820,-55.5555555555556,4,3,0,100,0,0
95337,-100,4,3,0,100,0,0
96372,-166.666666666667,4,3,0,100,0,0
96889,-55.5555555555556,4,3,0,100,0,0
97406,-100,4,3,0,100,0,0
98441,-166.666666666667,4,3,0,100,0,0
106717,-333.333333333333,4,3,0,100,0,0
114475,-66.6666666666667,4,3,0,100,0,0
114993,-100,4,3,0,100,0,0
115510,-55.5555555555556,4,3,0,100,0,0
116027,-100,4,3,0,100,0,0
116544,-55.5555555555556,4,3,0,100,0,0
117062,-100,4,3,0,100,0,0
117579,-55.5555555555556,4,3,0,100,0,0
117924,-100,4,3,0,100,0,0
118613,-55.5555555555556,4,3,0,100,0,0
119131,-100,4,3,0,100,0,0
119648,-55.5555555555556,4,3,0,100,0,0
120165,-100,4,3,0,100,0,0
120682,-55.5555555555556,4,3,0,100,0,0
121200,-100,4,3,0,100,0,0
121717,-55.5555555555556,4,3,0,100,0,0
122234,-100,4,3,0,100,0,0
122751,-55.5555555555556,4,3,0,100,0,0

[HitObjects]
84,0,9475,6,0,P|82:69|78:140,1,135.99999584961
23,337,9993,1,0,0:0:0:0:
25,326,10079,1,0,0:0:0:0:
48,312,10165,1,0,0:0:0:0:
78,316,10251,2,0,P|91:315|103:309,2,16.9999994812012
146,278,10510,5,0,0:0:0:0:
213,308,10682,2,0,P|227:332|225:354,1,50.9999984436036
185,194,11027,6,0,B|221:176|221:176|280:185,1,85.0000032424928
493,154,11544,6,0,L|479:-3,1,152.999995330811
374,270,12062,1,0,0:0:0:0:
367,275,12148,1,0,0:0:0:0:
380,280,12234,1,0,0:0:0:0:
374,285,12320,2,0,L|371:305,2,16.9999994812012
358,362,12579,5,0,0:0:0:0:
325,215,12837,1,0,0:0:0:0:
129,363,13096,6,0,P|143:348|162:340,2,33.9999989624024
184,333,13613,5,0,0:0:0:0:
193,284,13786,1,0,0:0:0:0:
176,256,13958,1,0,0:0:0:0:
97,222,14131,5,0,0:0:0:0:
126,147,14303,1,0,0:0:0:0:
164,129,14475,1,0,0:0:0:0:
191,127,14648,1,0,0:0:0:0:
241,84,14820,5,0,0:0:0:0:
262,93,14993,1,0,0:0:0:0:
291,234,15165,6,0,P|299:206|310:197,2,38.2499988327027
504,349,15682,6,0,P|503:368|501:389,1,33.9999989624024
507,283,16070,5,0,0:0:0:0:
507,283,16135,1,0,0:0:0:0:
507,283,16200,1,0,0:0:0:0:
23,241,16587,5,0,0:0:0:0:
14,174,16717,2,0,P|8:113|2:47,1,101.999996887207
16,95,17234,1,0,0:0:0:0:
289,217,17751,6,0,B|316:169|349:156|349:156|390:145|440:157,1,169.999994812012
282,310,18786,6,0,P|268:188|255:2,1,305.999990661621
55,153,19648,5,0,0:0:0:0:
10,212,19820,2,0,P|47:218|96:260,1,101.999996887207
99,282,20337,1,0,0:0:0:0:
111,316,20510,1,0,0:0:0:0:
166,340,20682,1,0,0:0:0:0:
358,262,20855,5,0,0:0:0:0:
380,108,21200,5,0,0:0:0:0:
385,135,21372,1,0,0:0:0:0:
37,114,21717,5,0,0:0:0:0:
71,59,21889,2,0,B|129:-14|259:-18|259:-18|337:-10|387:39|387:44|454:72|520:29,1,475.999985473633
377,314,23268,6,0,P|365:152|351:42,1,271.999991699219
142,213,23786,5,0,0:0:0:0:
75,299,23958,2,0,B|129:293|159:313|159:313|191:340|210:388,1,169.999994812012
0,324,24475,5,0,0:0:0:0:
215,79,24820,5,0,0:0:0:0:
159,129,24993,5,0,0:0:0:0:
211,96,25165,1,0,0:0:0:0:
339,108,25337,1,0,0:0:0:0:
418,292,25510,1,0,0:0:0:0:
412,299,26027,5,0,0:0:0:0:
346,290,26803,2,0,L|343:258,2,31.8750012159348
171,323,27320,6,0,P|133:340|99:376,1,85
60,247,27579,6,0,P|46:286|47:335,1,85
198,144,28355,5,0,0:0:0:0:
198,144,28613,1,0,0:0:0:0:
257,117,28872,2,0,L|255:97,2,14.1666666666667
267,128,29131,5,0,0:0:0:0:
332,136,29303,1,0,0:0:0:0:
378,211,29475,1,0,0:0:0:0:
512,314,29648,1,0,0:0:0:0:
292,0,30165,5,0,0:0:0:0:
292,0,30424,1,0,0:0:0:0:
254,252,30941,5,0,0:0:0:0:
254,252,31027,1,0,0:0:0:0:
254,252,31113,1,0,0:0:0:0:
254,252,31200,1,0,0:0:0:0:
211,380,31458,1,0,0:0:0:0:
171,323,31717,1,0,0:0:0:0:
454,302,31975,5,0,0:0:0:0:
483,295,32105,1,0,0:0:0:0:
452,308,32234,2,0,P|419:306|378:301,1,63.7500024318696
315,196,32751,1,0,0:0:0:0:
370,99,33010,1,0,0:0:0:0:
374,89,33139,1,0,0:0:0:0:
370,62,33268,1,0,0:0:0:0:
124,118,33527,5,0,0:0:0:0:
140,43,33656,1,0,0:0:0:0:
170,16,33785,1,0,0:0:0:0:
246,290,34044,6,0,L|238:362,1,63.7500024318696
254,279,34303,6,0,B|283:295|336:308|431:289|480:199|404:161|335:178|312:208,1,318.75
306,222,36372,5,0,0:0:0:0:
478,247,36631,2,0,B|486:214|473:187,2,42.5
151,0,37406,5,0,0:0:0:0:
309,18,37665,1,0,0:0:0:0:
351,66,37924,1,0,0:0:0:0:
354,98,38182,1,0,0:0:0:0:
181,258,38441,6,0,P|190:200|227:172,1,93.5000028533936
275,383,38958,1,0,0:0:0:0:
435,91,39217,5,0,0:0:0:0:
481,130,39346,1,0,0:0:0:0:
457,186,39475,1,0,0:0:0:0:
396,292,39734,1,0,0:0:0:0:
433,348,39993,2,0,L|423:240,1,93.5000028533936
262,38,40510,6,0,P|179:46|80:238,1,311.666666666667
39,354,42579,6,0,B|93:303|181:341|155:356|209:399|282:354,1,255.000009727478
461,231,44389,1,0,0:0:0:0:
441,219,44648,2,0,P|413:238|390:301,1,102
482,53,45682,6,0,P|454:62|421:64,2,42.5000016212464
377,43,46200,1,0,0:0:0:0:
293,34,46372,1,0,0:0:0:0:
181,70,46544,1,0,0:0:0:0:
100,246,46717,5,0,0:0:0:0:
512,0,47062,1,0,0:0:0:0:
512,0,47148,1,0,0:0:0:0:
512,0,47234,1,0,0:0:0:0:
384,175,47493,5,0,0:0:0:0:
442,211,47751,2,0,P|459:238|467:281,1,68
223,384,48528,5,0,0:0:0:0:
305,335,48786,2,0,P|327:297|339:238,1,101.999996887207
296,47,49562,6,0,L|220:53,2,68
338,240,50337,5,0,0:0:0:0:
313,149,50596,1,0,0:0:0:0:
292,162,50855,6,0,P|289:183|288:206,2,33.9999989624024
189,322,51372,2,0,P|182:263|179:210,1,101.999996887207
137,134,51889,6,0,P|134:154|133:178,2,33.9999989624024
51,333,52406,5,0,0:0:0:0:
57,349,52579,1,0,0:0:0:0:
63,250,52751,5,0,0:0:0:0:
33,189,52924,1,0,0:0:0:0:
53,111,53096,1,0,0:0:0:0:
139,80,53268,1,0,0:0:0:0:
257,202,53441,5,0,0:0:0:0:
259,189,53613,1,0,0:0:0:0:
255,178,53786,1,0,0:0:0:0:
194,175,53958,1,0,0:0:0:0:
173,244,54131,1,0,0:0:0:0:
236,312,54303,1,0,0:0:0:0:
383,274,54475,6,0,P|397:271|427:278,1,33.9999989624024
163,331,54993,6,0,P|215:329|247:366,1,101.999996887207
125,384,55337,6,0,B|158:274|158:274|106:145,1,254.999992218018
263,6,56027,6,0,P|256:30|245:53,1,50.9999984436036
331,110,56544,2,0,P|320:87|314:63,1,50.9999984436036
434,3,57062,5,0,0:0:0:0:
125,384,57406,6,0,B|158:274|158:274|106:145,1,254.999992218018
105,21,58096,5,0,0:0:0:0:
172,8,58268,1,0,0:0:0:0:
282,52,58441,1,0,0:0:0:0:
346,228,58613,1,0,0:0:0:0:
429,267,58786,1,0,0:0:0:0:
493,244,58958,1,0,0:0:0:0:
512,179,59131,5,0,0:0:0:0:
125,384,59475,6,0,B|158:274|158:274|106:145,1,254.999992218018
310,0,60165,2,0,L|302:107,1,85
295,167,60682,1,0,0:0:0:0:
0,0,61200,5,0,0:0:0:0:
125,384,61544,6,0,B|158:274|158:274|106:145,1,254.999992218018
432,230,62234,6,0,P|377:201|298:205,1,141.666666666667
490,136,62751,2,0,P|422:143|370:174,1,127.500004863739
125,384,63268,5,0,0:0:0:0:
109,73,71544,5,0,0:0:0:0:
114,65,71717,1,0,0:0:0:0:
131,60,71889,1,0,0:0:0:0:
156,67,72062,1,0,0:0:0:0:
180,95,72234,1,0,0:0:0:0:
187,139,72406,1,0,0:0:0:0:
169,192,72579,1,0,0:0:0:0:
162,256,72751,1,0,0:0:0:0:
198,313,72924,1,0,0:0:0:0:
270,298,73096,5,0,0:0:0:0:
230,238,73268,1,0,0:0:0:0:
162,256,73441,1,0,0:0:0:0:
422,352,73613,6,0,B|417:325|417:325|436:296,2,50.9999984436036
512,158,74131,5,0,0:0:0:0:
418,138,74303,1,0,0:0:0:0:
349,196,74475,1,0,0:0:0:0:
255,170,74648,6,0,B|259:144|259:144|242:117,2,50.9999984436036
297,381,75165,5,0,0:0:0:0:
307,384,75337,1,0,0:0:0:0:
56,105,75682,6,0,L|61:56,2,33.9999989624024
130,115,76200,2,0,L|122:29,1,67.9999979248048
189,17,76717,1,0,0:0:0:0:
209,12,76889,1,0,0:0:0:0:
229,18,77062,1,0,0:0:0:0:
250,78,77234,5,0,0:0:0:0:
0,384,77751,5,0,0:0:0:0:
40,338,77924,1,0,0:0:0:0:
18,281,78096,1,0,0:0:0:0:
95,232,78268,6,0,B|123:224|123:224|156:241,1,67.9999979248048
202,290,78786,1,0,0:0:0:0:
203,304,78958,1,0,0:0:0:0:
204,319,79131,1,0,0:0:0:0:
206,384,79303,5,0,0:0:0:0:
439,101,79820,6,0,L|447:-8,1,101.999996887207
368,25,80337,1,0,0:0:0:0:
496,282,80682,1,0,0:0:0:0:
503,274,80855,5,0,0:0:0:0:
461,205,81027,1,0,0:0:0:0:
335,182,81200,1,0,0:0:0:0:
198,253,81372,1,0,0:0:0:0:
399,384,81889,6,0,P|402:327|390:272,1,113.333333333333
350,225,82838,1,0,0:0:0:0:
346,231,82924,2,0,P|389:286|459:275,1,136
304,176,83268,2,0,P|284:205|272:253,1,85
324,111,83613,1,0,0:0:0:0:
0,50,83958,6,0,P|40:90|101:98,1,113.333333333333
156,70,84906,1,0,0:0:0:0:
159,62,84993,5,0,0:0:0:0:
279,79,85165,1,0,0:0:0:0:
304,176,85337,1,0,0:0:0:0:
202,283,85510,5,0,0:0:0:0:
148,315,85682,1,0,0:0:0:0:
143,342,85854,1,0,0:0:0:0:
151,360,86027,6,0,P|154:303|142:248,1,113.333333333333
96,197,87062,1,0,0:0:0:0:
71,195,87234,1,0,0:0:0:0:
36,212,87406,1,0,0:0:0:0:
13,277,87579,1,0,0:0:0:0:
34,365,87751,1,0,0:0:0:0:
220,374,87924,5,0,0:0:0:0:
235,363,88096,6,0,P|209:312|153:288,1,113.333333333333
96,293,89131,1,0,0:0:0:0:
411,380,89648,6,0,P|418:321|421:263,1,113.333333333333
384,0,90165,6,0,P|386:43|406:64,1,67.9999979248048
465,116,90682,2,0,P|424:94|363:97,1,101.999996887207
243,185,91027,1,0,0:0:0:0:
221,261,91200,2,0,P|217:193|209:135,1,113.333333333333
49,0,91717,1,0,0:0:0:0:
118,258,92234,6,0,P|94:294|66:302,1,67.9999979248048
9,317,92751,2,0,P|60:316|105:340,1,101.999996887207
250,384,93096,1,0,0:0:0:0:
336,348,93269,2,0,P|332:280|324:222,1,113.333333333333
497,379,93786,1,0,0:0:0:0:
501,360,93958,1,0,0:0:0:0:
296,0,94303,6,0,P|277:27|279:61,1,67.9999979248048
333,110,94820,2,0,P|292:87|231:90,1,101.999996887207
335,253,95165,1,0,0:0:0:0:
434,205,95338,2,0,P|430:137|422:79,1,113.333333333333
187,2,95855,1,0,0:0:0:0:
141,231,96372,6,0,P|117:267|89:275,1,67.9999979248048
86,201,96889,2,0,P|136:199|181:223,1,101.999996887207
307,308,97234,1,0,0:0:0:0:
330,384,97407,2,0,P|333:316|341:258,1,113.333333333333
397,221,97924,1,0,0:0:0:0:
420,149,98096,1,0,0:0:0:0:
371,51,98268,1,0,0:0:0:0:
233,32,98441,6,0,L|238:98,1,67.9999979248048
271,220,98958,2,0,L|276:153,1,67.9999979248048
169,77,99475,1,0,0:0:0:0:
105,286,99820,1,0,0:0:0:0:
111,276,99992,1,0,0:0:0:0:
138,262,100164,1,0,0:0:0:0:
179,259,100336,1,0,0:0:0:0:
230,301,100509,5,0,0:0:0:0:
24,283,100855,1,0,0:0:0:0:
24,283,101027,1,0,0:0:0:0:
339,34,101544,5,0,0:0:0:0:
334,52,101717,1,0,0:0:0:0:
354,81,101889,1,0,0:0:0:0:
367,141,102062,5,0,0:0:0:0:
320,183,102234,1,0,0:0:0:0:
318,260,102406,1,0,0:0:0:0:
265,350,102579,5,0,0:0:0:0:
179,200,102924,1,0,0:0:0:0:
179,200,103096,2,0,L|245:193,1,67.9999979248048
110,207,103613,1,0,0:0:0:0:
330,6,103958,1,0,0:0:0:0:
341,5,104130,1,0,0:0:0:0:
370,19,104302,1,0,0:0:0:0:
389,55,104474,1,0,0:0:0:0:
379,120,104648,6,0,L|313:125,1,67.9999979248048
303,188,105165,2,0,L|370:193,1,67.9999979248048
441,208,105682,1,0,0:0:0:0:
358,354,106027,1,0,0:0:0:0:
286,359,106200,1,0,0:0:0:0:
200,291,106372,1,0,0:0:0:0:
191,153,106544,1,0,0:0:0:0:
311,32,106717,6,0,B|322:10|364:15|372:46|330:78|271:78|241:62|217:30,1,186.999994293213
95,167,108786,6,0,B|91:143|104:128|104:128|123:158|121:188|105:218,1,135.99999584961
82,244,110337,1,0,0:0:0:0:
512,311,110855,6,0,B|413:287|442:381|347:372,1,186.999994293213
299,193,112924,6,0,P|343:220|357:305,1,135.99999584961
217,230,114475,6,0,P|232:166|232:56,1,170.000006484986
39,14,114993,6,0,P|31:63|45:131,1,113.333333333333
96,197,115510,2,0,P|51:150|3:143,1,101.999996887207
66,317,115855,5,0,0:0:0:0:
66,317,115941,1,0,0:0:0:0:
66,317,116027,2,0,P|111:306|158:300,1,85
481,306,116544,2,0,P|405:289|327:278,1,152.999995330811
431,17,117062,6,0,P|399:56|378:122,1,113.333333333333
487,132,117579,2,0,P|438:89|389:86,1,101.999996887207
283,123,117924,5,0,0:0:0:0:
283,123,118010,1,0,0:0:0:0:
283,123,118096,2,0,P|293:168|299:215,1,85
50,153,118613,2,0,P|60:77|76:2,1,152.999995330811
83,17,118958,1,0,0:0:0:0:
35,285,119131,6,0,P|81:268|151:270,1,113.333333333333
206,307,119648,2,0,P|169:252|123:237,1,101.999996887207
222,384,119993,5,0,0:0:0:0:
222,384,120079,1,0,0:0:0:0:
222,384,120165,2,0,P|267:373|314:367,1,85
512,283,120682,2,0,P|436:266|358:255,1,152.999995330811
165,27,121200,6,0,P|197:66|218:132,1,113.333333333333
107,150,121717,2,0,P|156:107|205:104,1,101.999996887207
372,272,121975,1,0,0:0:0:0:
377,278,122234,6,0,L|367:170,1,85
490,324,122751,6,0,L|503:171,1,152.999995330811
418,4,123268,5,0,0:0:0:0:
