osu file format v14

[General]
AudioFilename: audio.mp3
AudioLeadIn: 0
PreviewTime: -1
Countdown: 1
SampleSet: None
StackLeniency: 0.7
Mode: 0
LetterboxInBreaks: 0
WidescreenStoryboard: 0

[Editor]
DistanceSpacing: 1.1
BeatDivisor: 6
GridSize: 32
TimelineZoom: 1

[Metadata]
Title:Gertrauda
TitleUnicode:Gertrauda
Artist:Mili
ArtistUnicode:Mili
Creator:quanhitter39
Version:XD
Source:
Tags:
BeatmapID:1735512
BeatmapSetID:828342

[Difficulty]
HPDrainRate:7
CircleSize:5
OverallDifficulty:8
ApproachRate:8.5
SliderMultiplier:2.7
SliderTickRate:1

[Events]
//Background and Video events
//Break Periods
//Storyboard Layer 0 (Background)
//Storyboard Layer 1 (Fail)
//Storyboard Layer 2 (Pass)
//Storyboard Layer 3 (Foreground)
//Storyboard Sound Samples

[TimingPoints]
1060,517.241379310345,4,2,1,45,1,0
1060,-125,4,2,1,45,0,0
1318,-125,4,2,1,15,0,0
1577,-125,4,2,1,45,0,0
1835,-125,4,2,1,15,0,0
2094,-125,4,2,1,45,0,0
2353,-125,4,2,1,15,0,0
2612,-125,4,2,1,45,0,0
2870,-125,4,2,1,15,0,0
3128,-125,4,2,1,45,0,0
4163,-125,4,2,1,45,0,0
5197,-125,4,2,1,45,0,0
5455,-125,4,2,1,15,0,0
5715,-125,4,2,1,45,0,0
5973,-125,4,2,1,15,0,0
6232,-125,4,2,1,45,0,0
6490,-125,4,2,1,15,0,0
6749,-125,4,2,1,45,0,0
7007,-125,4,2,1,15,0,0
7266,-100,4,2,1,65,0,0
8128,-125,4,2,1,15,0,0
8301,-125,4,2,1,15,0,0
9335,777.20207253886,4,2,1,45,1,0
9335,-100,4,2,1,45,0,0
11666,-71.4285714285714,4,2,1,45,0,0
12443,-58.8235294117647,4,2,1,45,0,0
14775,-71.4285714285714,4,2,1,45,0,0
15552,-100,4,2,1,45,0,0
18661,-58.8235294117647,4,2,1,45,0,0
20993,-71.4285714285714,4,2,1,45,0,0
21770,-71.4285714285714,4,2,1,45,0,0
22547,-71.4285714285714,4,2,1,45,0,0
25656,-71.4285714285714,4,2,1,45,0,0
26433,-71.4285714285714,4,2,1,45,0,0
27210,-71.4285714285714,4,2,1,45,0,0
27970,517.241379310345,4,2,1,45,1,0
27970,-222.222222222221,4,2,1,45,0,0
35728,-90.9090909090909,4,2,1,45,0,0
36245,-222.222222222222,4,2,1,45,0,0
42194,-125,4,2,1,15,0,0
42452,-90.9090909090909,4,2,1,45,0,0
42711,-125,4,2,1,15,0,0
42970,-125,4,2,1,45,0,0
43229,-125,4,2,1,15,0,0
43487,-76.9230769230769,4,2,1,45,0,0
44004,-125,4,2,1,15,0,0
44517,777.20207253886,4,2,1,45,1,0
44517,-71.4285714285714,4,2,1,45,0,0
50731,517.241379310345,3,2,1,45,1,0
50731,-166.666666666667,3,2,1,45,0,0
61593,-83.3333333333333,3,2,1,45,0,0
62110,-125,3,2,1,15,0,0
62368,-125,3,2,1,45,0,0
62886,-125,3,2,1,15,0,0
63102,517.241379310345,4,2,1,45,1,0
63102,-125,4,2,1,45,0,0
63360,-125,4,2,1,15,0,0
63619,-125,4,2,1,45,0,0
63877,-125,4,2,1,15,0,0
64136,-125,4,2,1,45,0,0
64394,-125,4,2,1,15,0,0
64653,-125,4,2,1,45,0,0
64911,-125,4,2,1,15,0,0
65170,-100,4,2,1,45,0,0
66205,-125,4,2,1,45,0,0
67239,-125,4,2,1,45,0,0
67497,-125,4,2,1,15,0,0
67757,-125,4,2,1,45,0,0
68015,-125,4,2,1,15,0,0
68274,-125,4,2,1,45,0,0
68532,-125,4,2,1,15,0,0
68791,-125,4,2,1,45,0,0
69049,-125,4,2,1,15,0,0
69308,-100,4,2,1,45,0,0
70343,-90.9090909090909,4,2,1,45,0,0
71636,-125,4,2,1,15,0,0
71895,-100,4,2,1,45,0,0
72153,-100,4,2,1,15,0,0
72412,-100,4,2,1,45,0,0
72670,-100,4,2,1,15,0,0
72929,-100,4,2,1,45,0,0
73188,-100,4,2,1,15,0,0
73446,-76.9230769230769,4,2,1,45,0,0
73705,-100,4,2,1,15,0,0
73964,-76.9230769230769,4,2,1,45,0,0
74222,-100,4,2,1,15,0,0
74481,-66.6666666666667,4,2,1,45,0,0
74739,-100,4,2,1,15,0,0
74998,-66.6666666666667,4,2,1,45,0,0
75257,-125,4,2,1,15,0,0
75515,-222.222222222222,4,2,1,45,0,0
81722,-83.3333333333333,4,2,1,45,0,0
83791,-222.222222222222,4,2,1,45,0,0
89739,-125,4,2,1,45,0,0
89869,-125,4,2,1,15,0,0
89998,-125,4,2,1,45,0,0
90257,-125,4,2,1,15,0,0
90515,-125,4,2,1,45,0,0
90774,-125,4,2,1,15,0,0
91033,-83.3333333333333,4,2,1,45,0,0
91550,-125,4,2,1,15,0,0
92067,779.220779220779,4,2,1,45,1,0
92067,-71.4285714285714,4,2,1,45,0,0
98300,517.241379310345,3,2,1,45,1,0
98300,-166.666666666667,3,2,1,45,0,0
109162,-76.9230769230769,3,2,1,45,0,0
109679,-125,3,2,1,15,0,0
109937,-125,3,2,1,45,0,0
110455,-125,3,2,1,15,0,0
110713,779.220779220779,4,2,1,45,1,0
110713,-100,4,2,1,45,0,0
122920,-71.4285714285714,4,2,1,45,0,0
123310,-125,4,2,1,15,0,0

[Colours]
Combo1 : 0,142,210
Combo2 : 192,192,192

[HitObjects]
185,72,1060,6,0,L|178:190,1,108
65,218,1577,2,0,L|71:325,1,108
168,72,2094,2,0,L|161:190,1,108
48,218,2611,2,0,L|54:325,1,108
392,342,3128,6,0,B|329:316|273:355|273:355|206:399|145:378|119:312|142:243|203:216|249:245,1,432
330,216,4422,1,0,0:0:0:0:
371,146,4680,1,0,0:0:0:0:
362,66,4939,1,0,0:0:0:0:
290,23,5197,6,0,L|168:36,1,108
25,124,5715,2,0,L|147:137,1,108
292,37,6232,6,0,L|170:50,1,108
27,138,6750,2,0,L|149:151,1,108
316,363,7266,6,0,B|252:216|395:215|302:37|302:37|285:166,1,450
287,146,8301,1,0,0:0:0:0:
465,34,9335,5,0,0:0:0:0:
392,127,9594,1,0,0:0:0:0:
387,220,9723,1,0,0:0:0:0:
458,177,9853,1,0,0:0:0:0:
270,171,10112,5,0,0:0:0:0:
205,289,10371,1,0,0:0:0:0:
142,234,10500,1,0,0:0:0:0:
112,314,10630,1,0,0:0:0:0:
33,193,10889,5,0,0:0:0:0:
115,103,11148,1,0,0:0:0:0:
181,38,11278,1,0,0:0:0:0:
216,120,11407,1,0,0:0:0:0:
368,6,11666,6,0,P|347:82|372:155,2,125.999996154785
414,215,12443,6,0,P|335:194|278:246,1,153.000002918243
283,233,12961,1,0,0:0:0:0:
40,0,13221,2,0,P|59:73|49:149,1,153.000002918243
49,149,13739,1,0,0:0:0:0:
383,309,13998,6,0,P|327:357|256:340,1,153.000002918243
256,340,14516,1,0,0:0:0:0:
257,87,14775,5,0,0:0:0:0:
255,167,15034,1,0,0:0:0:0:
254,249,15293,1,0,0:0:0:0:
127,353,15552,5,0,0:0:0:0:
45,270,15811,1,0,0:0:0:0:
81,190,15941,1,0,0:0:0:0:
133,257,16070,1,0,0:0:0:0:
255,167,16329,5,0,0:0:0:0:
153,90,16588,1,0,0:0:0:0:
86,51,16718,1,0,0:0:0:0:
152,9,16847,1,0,0:0:0:0:
308,50,17107,5,0,0:0:0:0:
395,155,17366,1,0,0:0:0:0:
456,203,17495,1,0,0:0:0:0:
465,120,17625,1,0,0:0:0:0:
296,169,17884,5,0,0:0:0:0:
164,166,18143,1,0,0:0:0:0:
128,244,18272,1,0,0:0:0:0:
211,238,18402,1,0,0:0:0:0:
383,368,18661,5,0,0:0:0:0:
358,251,18920,1,0,0:0:0:0:
406,123,19179,1,0,0:0:0:0:
363,368,19438,5,0,0:0:0:0:
338,251,19697,1,0,0:0:0:0:
386,123,19956,1,0,0:0:0:0:
336,369,20215,5,0,0:0:0:0:
293,198,20474,1,0,0:0:0:0:
357,59,20733,1,0,0:0:0:0:
317,371,20993,5,0,0:0:0:0:
252,145,21252,1,0,0:0:0:0:
329,0,21511,1,0,0:0:0:0:
228,44,21770,6,0,B|124:-4|83:88|-18:38,1,251.999992309571
155,98,22547,2,0,P|185:219|139:344,1,251.999992309571
202,373,23324,6,0,P|332:365|462:365,1,251.999992309571
408,291,23972,1,0,0:0:0:0:
494,254,24101,2,0,P|485:128|512:0,1,251.999992309571
384,16,24879,5,0,0:0:0:0:
320,123,25138,1,0,0:0:0:0:
384,229,25397,1,0,0:0:0:0:
312,309,25656,2,0,P|192:307|83:378,1,251.999992309571
24,310,26433,5,0,0:0:0:0:
59,242,26692,1,0,0:0:0:0:
78,133,26951,1,0,0:0:0:0:
28,30,27210,2,0,P|126:65|267:-13,1,251.999992309571
455,148,27970,6,0,B|313:104|374:238|220:192,1,242.999992584229
270,97,29521,1,0,0:0:0:0:
14,328,30038,6,0,P|112:329|163:196,1,242.999992584229
54,189,31590,1,0,0:0:0:0:
228,289,32107,6,0,B|372:282|310:361|468:362,1,242.999992584229
475,217,33659,1,0,0:0:0:0:
392,153,34176,5,0,0:0:0:0:
370,72,34435,1,0,0:0:0:0:
399,1,34694,1,0,0:0:0:0:
386,152,34952,5,0,0:0:0:0:
364,71,35211,1,0,0:0:0:0:
393,0,35470,1,0,0:0:0:0:
377,152,35728,5,0,0:0:0:0:
384,0,35987,1,0,0:0:0:0:
269,87,36245,6,0,B|121:62|199:183|35:154,1,242.999992584229
91,70,37797,1,0,0:0:0:0:
209,261,38314,6,0,B|305:264|333:175|344:135|344:135|364:179,1,242.999992584229
401,308,39866,1,0,0:0:0:0:
290,353,40383,6,0,P|165:345|50:372,1,242.999992584229
118,266,41935,1,0,0:0:0:0:
352,15,42452,6,0,P|319:71|332:153,1,148.50000453186
146,16,42970,2,0,P|179:72|169:125,1,108
41,190,43487,2,0,B|94:167|150:206|150:206|217:250|278:229|304:163|281:94|230:87,1,350.999983932496
487,309,44517,5,0,0:0:0:0:
396,269,44776,1,0,0:0:0:0:
300,351,45035,1,0,0:0:0:0:
485,290,45294,5,0,0:0:0:0:
394,250,45553,1,0,0:0:0:0:
298,332,45812,1,0,0:0:0:0:
295,316,46071,5,0,0:0:0:0:
327,201,46330,1,0,0:0:0:0:
290,121,46589,1,0,0:0:0:0:
304,316,46848,5,0,0:0:0:0:
336,201,47107,1,0,0:0:0:0:
299,121,47366,1,0,0:0:0:0:
310,116,47625,5,0,0:0:0:0:
448,66,47884,1,0,0:0:0:0:
512,144,48143,1,0,0:0:0:0:
310,106,48403,5,0,0:0:0:0:
448,56,48662,1,0,0:0:0:0:
512,134,48921,1,0,0:0:0:0:
512,123,49180,5,0,0:0:0:0:
415,234,49439,1,0,0:0:0:0:
319,343,49698,1,0,0:0:0:0:
502,114,49957,5,0,0:0:0:0:
405,225,50216,1,0,0:0:0:0:
309,334,50475,1,0,0:0:0:0:
239,255,50731,6,0,P|234:213|245:168,1,80.9999975280763
139,188,51248,2,0,P|149:97|129:29,1,161.999995056153
211,17,52024,1,0,0:0:0:0:
77,94,52282,6,0,P|34:107|-3:100,1,80.9999975280763
121,160,52799,2,0,P|133:244|114:328,1,161.999995056153
43,355,53575,1,0,0:0:0:0:
191,335,53834,6,0,P|237:333|285:355,1,80.9999975280763
334,314,54351,2,0,P|319:237|339:158,1,161.999995056153
249,174,55127,1,0,0:0:0:0:
419,123,55386,5,0,0:0:0:0:
458,213,55644,1,0,0:0:0:0:
422,304,55903,1,0,0:0:0:0:
430,124,56162,5,0,0:0:0:0:
469,214,56420,1,0,0:0:0:0:
433,305,56679,1,0,0:0:0:0:
328,360,56937,6,0,P|292:353|245:364,1,80.9999975280763
175,326,57455,2,0,P|172:240|182:160,1,161.999995056153
95,217,58231,1,0,0:0:0:0:
144,109,58489,6,0,P|146:65|141:29,1,80.9999975280763
57,91,59006,2,0,P|43:172|54:258,1,161.999995056153
126,303,59782,1,0,0:0:0:0:
270,230,60041,6,0,P|227:222|191:238,1,80.9999975280763
298,320,60558,2,0,P|374:332|452:294,1,161.999995056153
388,226,61334,1,0,0:0:0:0:
477,39,61593,6,0,P|489:111|477:205,1,161.999995056153
188,37,62368,2,0,P|180:99|188:177,1,108
347,366,63102,6,0,L|358:252,1,108
275,183,63619,2,0,L|264:75,1,108
361,364,64136,6,0,L|372:250,1,108
289,181,64653,2,0,L|278:73,1,108
182,343,65170,6,0,B|201:290|166:241|166:241|199:209|199:209|169:157|201:110|234:59|171:18|114:-5|39:24|12:88|37:160,1,540
67,236,66464,1,0,0:0:0:0:
153,286,66722,1,0,0:0:0:0:
257,263,66981,1,0,0:0:0:0:
330,185,67239,6,0,L|338:72,1,108
416,359,67757,2,0,L|408:246,1,108
342,182,68274,6,0,L|350:69,1,108
428,356,68792,2,0,L|420:243,1,108
301,355,69308,6,0,B|242:335|212:365|212:365|169:340|169:340|111:377|74:367|31:302|71:291|115:280|30:250|71:237|71:237|116:224|28:189|116:177|76:149|76:149|55:135|78:40,1,540
137,20,70602,1,0,0:0:0:0:
217,28,70860,1,0,0:0:0:0:
291,71,71119,1,0,0:0:0:0:
396,12,71377,6,0,L|414:166,1,148.50000453186
116,12,71895,2,0,L|100:157,1,135
396,12,72412,2,0,L|412:145,1,135
116,12,72929,2,0,L|99:145,1,135
396,12,73446,6,0,L|420:193,1,175.499991966248
116,12,73964,2,0,L|92:193,1,175.499991966248
396,12,74481,6,0,L|424:218,1,202.500007724762
116,12,74998,2,0,L|88:218,1,202.500007724762
164,329,75515,6,0,B|289:305|265:415|397:379,1,242.999992584229
354,257,77067,1,0,0:0:0:0:
291,150,77584,6,0,P|184:101|69:155,1,242.999992584229
11,262,79136,1,0,0:0:0:0:
373,292,79653,6,0,B|248:316|272:206|140:242,1,242.999992584229
185,322,81205,1,0,0:0:0:0:
262,212,81722,5,0,0:0:0:0:
240,131,81981,1,0,0:0:0:0:
269,60,82240,1,0,0:0:0:0:
256,211,82498,5,0,0:0:0:0:
234,130,82757,1,0,0:0:0:0:
263,59,83016,1,0,0:0:0:0:
247,211,83274,5,0,0:0:0:0:
254,59,83533,1,0,0:0:0:0:
346,162,83791,6,0,B|423:146|439:82|450:40|450:40|467:75|484:113,1,242.999992584229
511,206,85343,1,0,0:0:0:0:
382,300,85860,6,0,B|249:248|278:357|141:314,1,242.999992584229
192,250,87412,1,0,0:0:0:0:
59,353,87929,2,0,P|69:232|50:112,1,242.999992584229
118,46,89481,1,0,0:0:0:0:
340,23,89998,6,0,P|326:90|344:148,1,108
185,17,90515,2,0,P|199:84|181:142,1,108
161,270,91033,2,0,B|240:249|250:199|261:157|261:157|264:200|268:254|337:298,1,323.999990112305
59,344,92067,5,0,0:0:0:0:
45,229,92326,1,0,0:0:0:0:
92,139,92586,1,0,0:0:0:0:
44,341,92846,5,0,0:0:0:0:
30,226,93105,1,0,0:0:0:0:
77,136,93365,1,0,0:0:0:0:
65,132,93625,5,0,0:0:0:0:
185,68,93885,1,0,0:0:0:0:
272,118,94144,1,0,0:0:0:0:
64,118,94404,5,0,0:0:0:0:
184,54,94664,1,0,0:0:0:0:
271,104,94923,1,0,0:0:0:0:
271,91,95183,5,0,0:0:0:0:
345,236,95443,1,0,0:0:0:0:
290,345,95703,1,0,0:0:0:0:
283,91,95963,5,0,0:0:0:0:
357,236,96223,1,0,0:0:0:0:
302,345,96483,1,0,0:0:0:0:
317,347,96742,5,0,0:0:0:0:
253,219,97002,1,0,0:0:0:0:
187,93,97261,1,0,0:0:0:0:
326,342,97521,5,0,0:0:0:0:
262,214,97781,1,0,0:0:0:0:
196,88,98040,1,0,0:0:0:0:
114,126,98300,6,0,P|70:131|31:124,1,80.9999975280763
146,194,98817,2,0,P|158:270|144:357,1,161.999995056153
75,337,99593,1,0,0:0:0:0:
220,319,99851,6,0,P|260:317|305:328,1,80.9999975280763
366,288,100368,2,0,P|351:213|369:118,1,161.999995056153
436,152,101144,1,0,0:0:0:0:
296,112,101403,6,0,P|251:112|211:128,1,80.9999975280763
141,108,101920,2,0,P|161:180|154:268,1,161.999995056153
118,338,102696,1,0,0:0:0:0:
255,254,102955,5,0,0:0:0:0:
345,215,103213,1,0,0:0:0:0:
436,251,103472,1,0,0:0:0:0:
256,243,103731,5,0,0:0:0:0:
346,204,103989,1,0,0:0:0:0:
437,240,104248,1,0,0:0:0:0:
485,148,104506,6,0,P|490:106|486:59,1,80.9999975280763
343,1,105024,2,0,P|336:66|348:173,1,161.999995056153
414,192,105800,1,0,0:0:0:0:
253,123,106058,6,0,P|209:122|178:140,1,80.9999975280763
90,257,106575,2,0,P|169:261|240:217,1,161.999995056153
290,294,107351,1,0,0:0:0:0:
384,369,107610,6,0,P|382:320|386:283,1,80.9999975280763
472,242,108127,2,0,P|480:177|467:78,1,161.999995056153
413,13,108903,1,0,0:0:0:0:
332,252,109162,6,0,P|321:168|334:60,1,175.499991966248
221,258,109937,2,0,P|230:190|221:147,1,108
42,24,110713,5,0,0:0:0:0:
121,132,110972,1,0,0:0:0:0:
203,116,111102,1,0,0:0:0:0:
150,56,111232,1,0,0:0:0:0:
94,225,111492,5,0,0:0:0:0:
225,230,111751,1,0,0:0:0:0:
254,306,111881,1,0,0:0:0:0:
177,292,112011,1,0,0:0:0:0:
370,228,112271,5,0,0:0:0:0:
317,97,112531,1,0,0:0:0:0:
398,69,112661,1,0,0:0:0:0:
333,15,112790,1,0,0:0:0:0:
491,166,113050,5,0,0:0:0:0:
357,303,113310,1,0,0:0:0:0:
439,287,113440,1,0,0:0:0:0:
386,227,113570,1,0,0:0:0:0:
235,271,113829,5,0,0:0:0:0:
126,169,114089,1,0,0:0:0:0:
31,186,114219,1,0,0:0:0:0:
91,257,114349,1,0,0:0:0:0:
64,80,114609,5,0,0:0:0:0:
255,101,114868,1,0,0:0:0:0:
238,6,114998,1,0,0:0:0:0:
167,66,115128,1,0,0:0:0:0:
270,207,115388,5,0,0:0:0:0:
457,101,115648,1,0,0:0:0:0:
362,118,115778,1,0,0:0:0:0:
422,189,115908,1,0,0:0:0:0:
334,313,116167,5,0,0:0:0:0:
131,285,116427,1,0,0:0:0:0:
226,268,116557,1,0,0:0:0:0:
166,197,116687,1,0,0:0:0:0:
11,123,116946,5,0,0:0:0:0:
314,24,117206,1,0,0:0:0:0:
199,45,117336,1,0,0:0:0:0:
276,133,117466,1,0,0:0:0:0:
93,209,117725,5,0,0:0:0:0:
323,375,117985,1,0,0:0:0:0:
302,260,118115,1,0,0:0:0:0:
214,337,118245,1,0,0:0:0:0:
205,174,118505,5,0,0:0:0:0:
497,167,118764,1,0,0:0:0:0:
382,188,118894,1,0,0:0:0:0:
459,276,119024,1,0,0:0:0:0:
298,78,119284,5,0,0:0:0:0:
32,182,119544,1,0,0:0:0:0:
147,161,119674,1,0,0:0:0:0:
70,73,119804,1,0,0:0:0:0:
282,327,120063,5,0,0:0:0:0:
474,134,120323,1,0,0:0:0:0:
346,156,120453,1,0,0:0:0:0:
430,255,120583,1,0,0:0:0:0:
253,16,120842,5,0,0:0:0:0:
176,236,121102,1,0,0:0:0:0:
154,108,121232,1,0,0:0:0:0:
55,192,121362,1,0,0:0:0:0:
303,304,121622,5,0,0:0:0:0:
325,85,121881,1,0,0:0:0:0:
347,213,122011,1,0,0:0:0:0:
446,129,122141,1,0,0:0:0:0:
199,23,122401,5,0,0:0:0:0:
7,234,122661,1,0,0:0:0:0:
184,222,122791,1,0,0:0:0:0:
85,78,122921,1,0,0:0:0:0:
512,377,123440,5,0,0:0:0:0:
