osu file format v14

[General]
AudioFilename: audio.mp3
AudioLeadIn: 0
PreviewTime: 63152
Countdown: 1
SampleSet: Soft
StackLeniency: 0.7
Mode: 2
LetterboxInBreaks: 0
WidescreenStoryboard: 1

[Editor]
Bookmarks: 116946
DistanceSpacing: 1
BeatDivisor: 6
GridSize: 32
TimelineZoom: 1.3

[Metadata]
Title:Gertrauda
TitleUnicode:Gertrauda
Artist:Mili
ArtistUnicode:Mili
Creator:JeirYagtama
Version:Platter
Source:
Tags:millenium mother acapella momocashew latin
BeatmapID:1694087
BeatmapSetID:807114

[Difficulty]
HPDrainRate:6
CircleSize:4
OverallDifficulty:7.8
ApproachRate:7.8
SliderMultiplier:2.7
SliderTickRate:0.5

[Events]
//Background and Video events
0,0,"gertra.jpg",0,0
//Break Periods
//Storyboard Layer 0 (Background)
//Storyboard Layer 1 (Fail)
//Storyboard Layer 2 (Pass)
//Storyboard Layer 3 (Foreground)
//Storyboard Sound Samples

[TimingPoints]
1060,517.241379310345,4,2,1,45,1,0
1060,-125,4,2,1,45,0,0
1318,-125,4,2,1,15,0,0
1577,-125,4,2,1,45,0,0
1835,-125,4,2,1,15,0,0
2094,-125,4,2,1,45,0,0
2353,-125,4,2,1,15,0,0
2612,-125,4,2,1,45,0,0
2870,-125,4,2,1,15,0,0
3128,-125,4,2,1,45,0,0
4163,-125,4,2,1,45,0,0
5197,-125,4,2,1,45,0,0
5455,-125,4,2,1,15,0,0
5715,-125,4,2,1,45,0,0
5973,-125,4,2,1,15,0,0
6232,-125,4,2,1,45,0,0
6490,-125,4,2,1,15,0,0
6749,-125,4,2,1,45,0,0
7007,-125,4,2,1,15,0,0
7266,-100,4,2,1,65,0,0
8128,-125,4,2,1,15,0,0
8301,-125,4,2,1,15,0,0
9335,777.20207253886,4,2,1,45,1,0
9335,-100,4,2,1,45,0,0
11666,-71.4285714285714,4,2,1,45,0,0
12443,-58.8235294117647,4,2,1,45,0,0
14775,-71.4285714285714,4,2,1,45,0,0
15552,-100,4,2,1,45,0,0
18661,-58.8235294117647,4,2,1,45,0,0
20993,-71.4285714285714,4,2,1,45,0,0
21770,-71.4285714285714,4,2,1,45,0,0
22547,-71.4285714285714,4,2,1,45,0,0
25656,-71.4285714285714,4,2,1,45,0,0
26433,-71.4285714285714,4,2,1,45,0,0
27210,-71.4285714285714,4,2,1,45,0,0
27970,517.241379310345,4,2,1,45,1,0
27970,-83.3333333333333,4,2,1,45,0,0
35728,-90.9090909090909,4,2,1,45,0,0
36245,-83.3333333333333,4,2,1,45,0,0
42194,-125,4,2,1,15,0,0
42452,-90.9090909090909,4,2,1,45,0,0
42711,-125,4,2,1,15,0,0
42970,-125,4,2,1,45,0,0
43229,-125,4,2,1,15,0,0
43487,-76.9230769230769,4,2,1,45,0,0
44004,-125,4,2,1,15,0,0
44517,777.20207253886,4,2,1,45,1,0
44517,-71.4285714285714,4,2,1,45,0,0
50731,517.241379310345,3,2,1,45,1,0
50731,-125,3,2,1,45,0,0
61593,-83.3333333333333,3,2,1,45,0,0
62110,-125,3,2,1,15,0,0
62368,-125,3,2,1,45,0,0
62886,-125,3,2,1,15,0,0
63152,517.241379310345,4,2,1,45,1,0
63152,-125,4,2,1,45,0,0
63410,-125,4,2,1,15,0,0
63669,-125,4,2,1,45,0,0
63927,-125,4,2,1,15,0,0
64186,-125,4,2,1,45,0,0
64444,-125,4,2,1,15,0,0
64703,-125,4,2,1,45,0,0
64961,-125,4,2,1,15,0,0
65220,-100,4,2,1,45,0,0
66255,-125,4,2,1,45,0,0
67289,-125,4,2,1,45,0,0
67547,-125,4,2,1,15,0,0
67807,-125,4,2,1,45,0,0
68065,-125,4,2,1,15,0,0
68324,-125,4,2,1,45,0,0
68582,-125,4,2,1,15,0,0
68841,-125,4,2,1,45,0,0
69099,-125,4,2,1,15,0,0
69358,-100,4,2,1,45,0,0
70393,-90.9090909090909,4,2,1,45,0,0
71686,-125,4,2,1,15,0,0
71945,-100,4,2,1,45,0,0
72203,-100,4,2,1,15,0,0
72462,-100,4,2,1,45,0,0
72720,-100,4,2,1,15,0,0
72979,-100,4,2,1,45,0,0
73238,-100,4,2,1,15,0,0
73496,-100,4,2,1,45,0,0
73755,-100,4,2,1,15,0,0
74014,-100,4,2,1,45,0,0
74272,-100,4,2,1,15,0,0
74531,-100,4,2,1,45,0,0
74789,-100,4,2,1,15,0,0
75048,-100,4,2,1,45,0,0
75307,-125,4,2,1,15,0,0
75565,-83.3333333333333,4,2,1,45,0,0
81772,-83.3333333333333,4,2,1,45,0,0
83841,-100,4,2,1,45,0,0
89789,-125,4,2,1,45,0,0
89919,-125,4,2,1,15,0,0
90048,-125,4,2,1,45,0,0
90307,-125,4,2,1,15,0,0
90565,-125,4,2,1,45,0,0
90824,-125,4,2,1,15,0,0
91083,-83.3333333333333,4,2,1,45,0,0
91600,-125,4,2,1,15,0,0
92109,777.20207253886,4,2,1,45,1,0
92109,-71.4285714285714,4,2,1,45,0,0
98326,517.241379310345,3,2,1,45,1,0
98326,-125,3,2,1,45,0,0
109188,-76.9230769230769,3,2,1,45,0,0
109705,-125,3,2,1,15,0,0
109963,-125,3,2,1,45,0,0
110481,-125,3,2,1,15,0,0
110713,779.220779220779,4,2,1,45,1,0
110713,-100,4,2,1,45,0,0
120051,777.20207253886,4,2,1,45,1,0
122900,-71.4285714285714,4,2,1,45,0,0
123289,-125,4,2,1,15,0,0

[Colours]
Combo1 : 255,53,53
Combo2 : 192,192,192
Combo3 : 128,128,225

[HitObjects]
162,193,1060,6,0,L|33:182,1,108,2|0,0:0|0:0,0:0:0:0:
194,170,1577,2,0,L|328:161,1,108,2|0,0:0|0:0,0:0:0:0:
159,181,2094,2,0,P|89:174|80:33,1,216,2|2,0:0|0:0,0:0:0:0:
431,241,3128,6,0,P|471:192|299:129,1,324,6|0,0:0|0:0,0:0:0:0:
180,104,4163,2,0,L|310:104,2,108,2|0|2,0:0|0:0|0:0,0:0:0:0:
50,104,4939,1,0,0:0:0:0:
382,174,5197,6,0,L|524:175,1,108,2|0,0:0|0:0,0:0:0:0:
274,143,5715,2,0,L|148:146,1,108,2|0,0:0|0:0,0:0:0:0:
385,102,6232,2,0,L|160:101,1,216,2|2,0:0|0:0,0:0:0:0:
33,107,7008,1,0,0:0:0:0:
360,257,7266,6,0,B|635:231|160:214|295:113|506:125,1,405,4|0,0:0|0:0,0:0:0:0:
167,123,8301,1,8,0:0:0:0:
167,123,9335,6,0,L|57:127,1,90,8|0,0:0|0:0,0:0:0:0:
135,120,9723,1,0,0:0:0:0:
193,118,9853,1,0,0:0:0:0:
416,114,10112,1,8,0:0:0:0:
299,108,10371,1,0,0:0:0:0:
357,108,10500,1,0,0:0:0:0:
416,114,10630,1,0,0:0:0:0:
213,194,10889,6,0,L|210:90,1,90,8|0,0:0|0:0,0:0:0:0:
268,108,11278,1,0,0:0:0:0:
326,106,11407,1,0,0:0:0:0:
96,87,11666,2,0,L|234:88,2,125.999996154785,8|8|8,0:0|0:0|0:0,0:0:0:0:
427,240,12443,6,0,P|497:187|357:144,1,306.000005836487,8|0,0:0|0:0,0:0:0:0:
225,128,13221,1,8,0:0:0:0:
362,130,13480,1,0,0:0:0:0:
499,123,13739,1,0,0:0:0:0:
239,245,13998,2,0,P|115:230|71:57,1,306.000005836487,8|0,0:0|0:0,0:0:0:0:
387,76,14775,2,0,L|513:78,2,125.999996154785,12|0|0,0:0|0:0|0:0,0:0:0:0:
116,192,15552,6,0,L|119:84,1,90,8|0,0:0|0:0,0:0:0:0:
177,102,15941,1,0,0:0:0:0:
235,99,16070,1,0,0:0:0:0:
33,110,16329,1,8,0:0:0:0:
158,104,16588,1,0,0:0:0:0:
158,104,16718,1,0,0:0:0:0:
95,104,16847,1,0,0:0:0:0:
319,129,17107,6,0,L|434:128,1,90,8|0,0:0|0:0,0:0:0:0:
471,132,17495,1,0,0:0:0:0:
471,68,17625,1,0,0:0:0:0:
220,159,17884,2,0,L|223:32,1,90,8|8,0:0|0:0,0:0:0:0:
393,69,18402,1,8,0:0:0:0:
57,162,18661,6,0,P|29:114|205:66,1,306.000005836487,8|0,0:0|0:0,0:0:0:0:
360,38,19438,1,8,0:0:0:0:
223,40,19697,1,0,0:0:0:0:
86,33,19956,1,0,0:0:0:0:
342,240,20215,2,0,P|448:216|414:7,1,306.000005836487,8|0,0:0|0:0,0:0:0:0:
127,53,20993,2,0,L|2:53,2,125.999996154785,12|0|0,0:0|0:0|0:0,0:0:0:0:
418,246,21770,6,0,P|491:167|374:163,1,251.999992309571,4|0,0:0|0:0,0:0:0:0:
253,139,22547,2,0,B|129:146|129:146|265:140,1,251.999992309571,2|0,0:0|0:0,0:0:0:0:
4,165,23324,6,0,P|40:87|196:87,1,251.999992309571,12|0,0:0|0:0,0:0:0:0:
259,91,23972,1,0,0:0:0:0:
327,101,24101,2,0,L|62:106,1,251.999992309571,2|0,0:0|0:0,0:0:0:0:
331,124,24879,2,0,L|200:125,2,125.999996154785,2|0|0,0:0|0:0|0:0,0:0:0:0:
181,113,25656,2,0,P|147:171|300:210,1,251.999992309571,2|0,0:0|0:0,0:0:0:0:
121,246,26433,2,0,L|384:253,1,251.999992309571,2|0,0:0|0:0,0:0:0:0:
126,251,27210,2,0,P|25:193|39:71,1,251.999992309571,2|0,0:0|0:0,0:0:0:0:
350,292,27970,6,0,B|525:283|282:217|217:203|217:203|450:180|450:180|410:44,1,647.99998022461,6|0,0:0|0:0,0:0:0:0:
152,42,29521,1,0,0:0:0:0:
410,52,30038,6,0,B|217:48|217:48|369:77|369:77|51:79,1,647.99998022461,2|2,0:0|0:0,0:0:0:0:
328,89,31590,1,0,0:0:0:0:
68,83,32107,6,0,B|428:80|428:80|114:77,1,647.99998022461,6|0,0:0|0:0,0:0:0:0:
399,85,33659,2,0,L|405:257,1,161.999995056153,2|0,0:0|0:0,0:0:0:0:
155,244,34176,6,0,L|316:116,2,161.999995056153,4|0|0,0:0|0:0|0:0,0:0:0:0:
333,246,34952,2,0,L|334:75,1,161.999995056153,2|0,0:0|0:0,0:0:0:0:
187,86,35470,1,0,0:0:0:0:
429,190,35728,2,0,L|433:24,1,148.50000453186,2|0,0:0|0:0,0:0:0:0:
88,256,36245,6,0,B|18:255|18:255|283:58|283:58|32:41,1,647.99998022461,4|0,0:0|0:0,0:0:0:0:
295,49,37797,1,0,0:0:0:0:
36,51,38314,6,0,B|324:32|324:32|182:90|182:90|411:44,1,647.99998022461,2|0,0:0|0:0,0:0:0:0:
124,53,39866,1,0,0:0:0:0:
382,62,40383,6,0,B|494:62|494:62|280:64|280:64|381:81|381:81|496:292,1,647.99998022461,2|0,0:0|0:0,0:0:0:0:
226,279,41935,2,0,L|62:277,1,161.999995056153,2|0,0:0|0:0,0:0:0:0:
386,283,42452,6,0,P|477:245|359:168,1,297.000009063721,8|8,0:0|0:0,0:0:0:0:
122,163,43487,2,0,L|487:161,1,350.999983932496,12|0,0:0|0:0,0:0:0:0:
79,215,44517,6,0,P|24:167|146:90,1,251.999992309571,8|0,0:0|0:0,0:0:0:0:
278,76,45294,2,0,L|-18:70,1,251.999992309571,8|0,0:0|0:0,0:0:0:0:
177,76,46071,2,0,L|345:71,2,125.999996154785,8|0|0,0:0|0:0|0:0,0:0:0:0:
448,74,46848,2,0,L|280:69,2,125.999996154785,8|0|0,0:0|0:0|0:0,0:0:0:0:
114,182,47625,6,0,P|48:136|182:94,1,251.999992309571,12|0,0:0|0:0,0:0:0:0:
295,63,48403,2,0,P|393:110|517:32,1,251.999992309571,8|0,0:0|0:0,0:0:0:0:
358,43,49180,2,0,L|496:43,2,125.999996154785,8|0|0,0:0|0:0|0:0,0:0:0:0:
82,44,49957,2,0,L|220:44,2,125.999996154785,8|0|0,0:0|0:0|0:0,0:0:0:0:
313,190,50731,6,0,L|449:179,1,108,2|0,0:0|0:0,0:0:0:0:
295,165,51248,1,0,0:0:0:0:
435,169,51765,2,0,L|437:46,1,108
175,182,52282,6,0,L|51:180,1,108,2|0,0:0|0:0,0:0:0:0:
186,156,52799,1,0,0:0:0:0:
58,158,53317,2,0,L|55:28,1,108
318,48,53834,6,0,L|185:49,1,108,2|0,0:0|0:0,0:0:0:0:
328,98,54351,1,0,0:0:0:0:
494,97,54868,2,0,L|496:233,1,108
239,220,55386,2,0,P|157:210|147:67,1,216,2|0,0:0|0:0,0:0:0:0:
374,88,56162,2,0,L|139:86,1,216,2|0,0:0|0:0,0:0:0:0:
403,176,56937,6,0,L|409:53,1,108,2|0,0:0|0:0,0:0:0:0:
308,69,57455,2,0,B|489:68|489:68|489:16,1,216
380,35,58231,1,0,0:0:0:0:
125,86,58489,6,0,L|12:84,1,108,2|0,0:0|0:0,0:0:0:0:
117,116,59006,2,0,B|30:120|30:120|30:43|30:43|100:42,1,216
191,41,59782,1,0,0:0:0:0:
443,113,60041,6,0,L|330:111,1,108,2|0,0:0|0:0,0:0:0:0:
226,113,60558,2,0,P|110:127|65:36,1,216
161,51,61334,1,0,0:0:0:0:
485,205,61593,6,0,P|460:111|244:102,1,323.999990112305,2|0,0:0|0:0,0:0:0:0:
491,60,62368,2,0,L|490:280,1,216,2|0,0:0|0:0,0:0:0:0:
174,223,63152,6,0,L|172:96,1,108,2|0,0:0|0:0,0:0:0:0:
318,123,63669,2,0,L|315:1,1,108,2|0,0:0|0:0,0:0:0:0:
163,179,64186,2,0,P|84:176|61:35,1,216,2|2,0:0|0:0,0:0:0:0:
431,241,65220,6,0,P|497:191|320:71,1,405,4|0,0:0|0:0,0:0:0:0:
171,93,66255,2,0,L|301:93,2,108,2|0|2,0:0|0:0|0:0,0:0:0:0:
50,104,67031,1,0,0:0:0:0:
382,174,67289,6,0,L|524:175,1,108,2|0,0:0|0:0,0:0:0:0:
251,143,67807,2,0,L|358:140,1,108,2|0,0:0|0:0,0:0:0:0:
119,103,68324,2,0,L|334:103,1,216,2|2,0:0|0:0,0:0:0:0:
475,110,69100,1,0,0:0:0:0:
160,253,69358,6,0,B|-110:227|364:210|229:109|33:120,1,405,2|0,0:0|0:0,0:0:0:0:
205,119,70393,2,0,L|379:117,2,148.50000453186,2|0|2,0:0|0:0|0:0,0:0:0:0:
56,121,71169,1,0,0:0:0:0:
401,282,71427,6,0,P|471:226|336:127,2,297.000009063721,2|2|2,0:0|0:0|0:0,0:0:0:0:
130,284,72979,1,2,0:0:0:0:
405,277,73496,2,0,L|402:142,1,135,8|0,0:0|0:0,0:0:0:0:
253,146,74014,2,0,L|390:144,1,135,8|0,0:0|0:0,0:0:0:0:
107,170,74531,2,0,L|106:19,1,135,8|0,0:0|0:0,0:0:0:0:
374,50,75048,2,0,L|508:18,1,135,8|0,0:0|0:0,0:0:0:0:
153,292,75565,6,0,B|-22:283|221:217|286:203|286:203|29:178|29:178|186:159,1,647.99998022461,4|0,0:0|0:0,0:0:0:0:
398,171,77117,1,0,0:0:0:0:
139,181,77634,6,0,B|144:121|399:46|399:46|4:51,1,647.99998022461,2|0,0:0|0:0,0:0:0:0:
312,44,79186,1,0,0:0:0:0:
52,49,79703,6,0,B|267:115|267:115|128:52|128:52|268:49|268:49|95:54,1,647.99998022461,2|0,0:0|0:0,0:0:0:0:
399,85,81255,2,0,L|405:257,1,161.999995056153,2|0,0:0|0:0,0:0:0:0:
155,244,81772,6,0,L|316:116,2,161.999995056153,2|0|0,0:0|0:0|0:0,0:0:0:0:
333,246,82548,2,0,L|159:242,1,161.999995056153,2|0,0:0|0:0,0:0:0:0:
333,251,83066,1,0,0:0:0:0:
68,235,83324,2,0,L|72:68,1,161.999995056153,2|0,0:0|0:0,0:0:0:0:
402,285,83841,6,0,B|492:277|492:277|259:266|259:266|374:246|374:246|506:233,1,540,4|0,0:0|0:0,0:0:0:0:
229,234,85393,1,0,0:0:0:0:
471,223,85910,6,0,B|266:222|266:222|397:198|397:198|303:190|303:190|167:191,1,540,2|0,0:0|0:0,0:0:0:0:
438,174,87462,1,0,0:0:0:0:
198,212,87979,6,0,B|75:211|75:211|250:191|250:191|392:178|392:178|272:185,1,540,2|0,0:0|0:0,0:0:0:0:
50,188,89531,2,0,L|50:37,1,135,2|0,0:0|0:0,0:0:0:0:
325,189,90048,2,0,P|430:177|447:69,1,216,8|8,0:0|0:0,0:0:0:0:
149,85,91083,2,0,L|483:81,1,323.999990112305,12|0,0:0|0:0,0:0:0:0:
56,209,92109,6,0,P|70:143|242:129,1,251.999992309571,8|0,0:0|0:0,0:0:0:0:
391,116,92886,2,0,L|95:110,1,251.999992309571,8|0,0:0|0:0,0:0:0:0:
301,104,93663,2,0,L|175:107,2,125.999996154785,8|0|0,0:0|0:0|0:0,0:0:0:0:
28,74,94440,2,0,L|153:77,2,125.999996154785,8|0|0,0:0|0:0|0:0,0:0:0:0:
361,204,95217,6,0,P|469:194|468:60,1,251.999992309571,8|0,0:0|0:0,0:0:0:0:
304,66,95995,2,0,B|488:62|488:62|410:59,1,251.999992309571,8|0,0:0|0:0,0:0:0:0:
281,53,96772,2,0,L|143:53,2,125.999996154785,8|0|0,0:0|0:0|0:0,0:0:0:0:
29,53,97549,2,0,L|155:53,2,125.999996154785,8|0|0,0:0|0:0|0:0,0:0:0:0:
348,212,98326,6,0,L|350:84,1,108,2|0,0:0|0:0,0:0:0:0:
241,112,98843,1,0,0:0:0:0:
357,109,99360,2,0,B|438:105|438:105|428:44,1,108
175,182,99877,6,0,L|172:295,1,108,2|0,0:0|0:0,0:0:0:0:
280,286,100394,1,0,0:0:0:0:
172,289,100912,2,0,L|62:292,1,108
322,107,101429,6,0,L|189:108,1,108,2|0,0:0|0:0,0:0:0:0:
322,106,101946,1,0,0:0:0:0:
493,110,102463,2,0,L|495:246,1,108
239,220,102981,2,0,P|157:210|147:67,1,216,2|0,0:0|0:0,0:0:0:0:
374,88,103757,2,0,L|139:86,1,216,2|0,0:0|0:0,0:0:0:0:
403,176,104532,6,0,L|409:53,1,108,2|0,0:0|0:0,0:0:0:0:
300,146,105050,2,0,P|263:99|373:79,1,216
394,167,105826,1,0,0:0:0:0:
129,103,106084,6,0,L|16:101,1,108,2|0,0:0|0:0,0:0:0:0:
129,103,106601,2,0,L|344:102,1,216
453,100,107377,1,0,0:0:0:0:
189,155,107636,6,0,L|296:156,1,108,2|0,0:0|0:0,0:0:0:0:
28,113,108153,2,0,L|272:111,1,216
362,106,108929,1,0,0:0:0:0:
21,236,109188,6,0,P|29:129|241:53,1,350.999983932496,2|0,0:0|0:0,0:0:0:0:
26,61,109963,2,0,L|32:298,1,216,2|0,0:0|0:0,0:0:0:0:
356,298,110713,6,0,L|356:209,1,90,2|0,0:0|0:0,0:0:0:0:
293,202,111102,1,0,0:0:0:0:
229,203,111232,1,0,0:0:0:0:
436,204,111492,2,0,L|496:116,1,90,2|0,0:0|0:0,0:0:0:0:
423,123,111881,1,0,0:0:0:0:
360,127,112011,1,0,0:0:0:0:
128,131,112271,5,2,0:0:0:0:
245,130,112531,1,0,0:0:0:0:
308,131,112661,1,0,0:0:0:0:
245,130,112790,1,0,0:0:0:0:
453,131,113050,1,2,0:0:0:0:
344,132,113310,1,0,0:0:0:0:
410,130,113440,1,0,0:0:0:0:
481,123,113569,1,0,0:0:0:0:
162,149,113829,5,2,0:0:0:0:
62,150,114089,1,0,0:0:0:0:
12,150,114219,1,0,0:0:0:0:
13,100,114349,1,0,0:0:0:0:
241,148,114609,5,2,0:0:0:0:
358,146,114869,1,0,0:0:0:0:
267,142,114999,1,0,0:0:0:0:
176,138,115129,1,0,0:0:0:0:
421,115,115388,5,2,0:0:0:0:
312,110,115648,1,0,0:0:0:0:
375,111,115778,1,0,0:0:0:0:
373,57,115907,1,0,0:0:0:0:
133,108,116167,5,2,0:0:0:0:
242,103,116427,1,0,0:0:0:0:
179,104,116557,1,0,0:0:0:0:
174,50,116686,1,0,0:0:0:0:
492,108,116946,5,8,0:0:0:0:
384,104,117206,1,0,0:0:0:0:
320,103,117336,1,0,0:0:0:0:
256,100,117466,1,0,0:0:0:0:
480,209,117725,6,0,L|477:91,1,90,8|0,0:0|0:0,0:0:0:0:
413,116,118115,1,0,0:0:0:0:
349,117,118245,1,0,0:0:0:0:
28,196,118505,5,8,0:0:0:0:
153,193,118764,1,0,0:0:0:0:
155,129,118894,1,0,0:0:0:0:
87,127,119024,1,0,0:0:0:0:
331,131,119284,5,8,0:0:0:0:
206,128,119543,1,0,0:0:0:0:
138,126,119673,1,0,0:0:0:0:
70,122,119803,1,0,0:0:0:0:
390,140,120051,6,0,L|494:141,1,90,12|0,0:0|0:0,0:0:0:0:
483,72,120439,1,0,0:0:0:0:
417,72,120569,1,0,0:0:0:0:
204,119,120828,6,0,L|308:120,1,90,8|0,0:0|0:0,0:0:0:0:
365,117,121216,1,0,0:0:0:0:
437,115,121346,1,0,0:0:0:0:
121,210,121605,6,0,L|28:205,1,90,8|0,0:0|0:0,0:0:0:0:
33,155,121994,1,0,0:0:0:0:
82,158,122123,1,0,0:0:0:0:
398,239,122382,6,0,L|399:136,1,90,8|0,0:0|0:0,0:0:0:0:
326,148,122771,1,0,0:0:0:0:
398,149,122900,2,0,B|416:59|416:59|287:53,1,188.999994232178
114,58,123418,5,4,0:0:0:0:
