osu file format v14

[General]
AudioFilename: Mili - Ga1ahad and Scientific Witchery.mp3
AudioLeadIn: 0
PreviewTime: 156464
Countdown: 0
SampleSet: Soft
StackLeniency: 0.7
Mode: 0
LetterboxInBreaks: 0
WidescreenStoryboard: 1

[Editor]
Bookmarks: 11947,17730,35079,40862,46646,52429,69778,81344,87127,101585,113152,123272,134838,146405,152188,157971,169537,175320,186887,198453,207127,215441
DistanceSpacing: 1.1
BeatDivisor: 2
GridSize: 32
TimelineZoom: 2.2

[Metadata]
Title:Ga1ahad and Scientific Witchery
TitleUnicode:Ga1ahad and Scientific Witchery
Artist:Mili
ArtistUnicode:Mili
Creator:frozz
Version:Easy
Source:DEEMO
Tags:featured artist fa miracle milk 02 mpg mappers' guild Video Game Pop English -keqing chills gazimal
BeatmapID:4040993
BeatmapSetID:1940007

[Difficulty]
HPDrainRate:2
CircleSize:3
OverallDifficulty:3
ApproachRate:3
SliderMultiplier:0.8
SliderTickRate:1

[Events]
//Background and Video events
0,0,"Mili - Ga1ahad and Scientific Witchery.jpg",0,0
//Break Periods
2,35279,39061
//Storyboard Layer 0 (Background)
//Storyboard Layer 1 (Fail)
//Storyboard Layer 2 (Pass)
//Storyboard Layer 3 (Foreground)
//Storyboard Layer 4 (Overlay)
//Storyboard Sound Samples

[TimingPoints]
381,361.44578313253,4,2,1,50,1,0
17730,-100,4,2,1,65,0,0
35079,-100,4,2,1,50,0,0
40501,-100,4,2,2,50,0,0
40862,-100,4,2,1,60,0,0
52429,-100,4,2,1,65,0,0
69778,-100,4,2,1,75,0,0
87127,-100,4,2,1,40,0,0
90019,-100,4,2,1,55,0,0
93995,-100,4,2,2,55,0,0
94356,-100,4,2,1,55,0,0
99778,-100,4,2,2,55,0,0
100140,-100,4,2,1,55,0,0
105561,-100,4,2,2,55,0,0
105923,-100,4,2,1,55,0,0
111344,-100,4,2,2,55,0,0
111706,-100,4,2,1,55,0,0
113152,361.44578313253,3,2,2,65,1,0
116405,361.44578313253,5,2,2,65,1,0
118212,361.44578313253,3,2,2,65,1,0
121465,361.44578313253,5,2,2,65,1,0
123272,361.44578313253,4,2,1,75,1,0
146404,-100,4,2,2,65,0,0
150922,-100,4,2,1,65,0,0
151103,-100,4,2,2,65,0,0
152187,-100,4,2,2,55,0,0
156525,-100,4,2,2,65,0,0
156705,-100,4,2,1,65,0,0
157247,-100,4,2,1,75,0,0
158151,-100,4,2,1,85,0,0
169537,-100,4,2,1,55,0,0
172428,-100,4,2,1,75,0,0
175320,-100,4,2,1,65,0,0
198452,361.44578313253,3,2,2,55,1,0
202066,-100,3,2,1,55,0,0
202789,-100,3,2,2,55,0,0
206403,-100,3,2,1,55,0,0
207126,-100,3,2,2,55,0,0
210741,-100,3,2,1,55,0,0
211464,-100,3,2,2,55,0,0
215078,-100,3,2,1,55,0,0

[Colours]
Combo1 : 255,170,149
Combo2 : 149,152,255
Combo3 : 149,255,255
Combo4 : 255,200,149

[HitObjects]
459,235,381,6,0,P|385:221|350:217,1,80,0|2,1:2|0:0,0:0:0:0:
312,276,1103,2,0,P|294:230|305:182,1,80,2|2,0:0|0:0,0:0:0:0:
356,135,1826,1,2,1:2:0:0:
302,64,2188,2,0,P|344:45|380:44,2,80,2|2|2,0:0|0:0|0:0,0:0:0:0:
238,124,3272,6,0,P|158:118|136:107,1,80,0|2,1:2|0:0,0:0:0:0:
102,50,3995,2,0,P|72:112|84:157,1,80,2|2,0:0|0:0,0:0:0:0:
117,196,4718,2,0,P|104:255|81:288,2,80,2|2|2,1:2|0:0|0:0,0:0:0:0:
238,324,6164,6,0,P|302:307|338:304,1,80,0|2,1:2|0:0,0:0:0:0:
384,360,6887,2,0,P|405:298|393:257,1,80,2|2,0:0|0:0,0:0:0:0:
344,220,7609,1,2,1:2:0:0:
411,163,7971,2,0,P|470:177|501:186,2,80,2|2|2,0:0|0:0|0:0,0:0:0:0:
350,99,9055,6,0,P|274:115|242:121,1,80,2|2,1:2|0:0,0:0:0:0:
207,176,9778,2,0,P|184:127|191:87,1,80,2|2,0:0|0:0,0:0:0:0:
239,32,10501,2,0,P|315:16|347:10,2,80,0|0|2,1:2|0:0|0:0,0:0:0:0:
63,21,11947,6,0,P|51:128|42:204,1,160,4|2,1:2|0:0,0:0:0:0:
39,267,13031,1,2,0:0:0:0:
92,337,13393,2,0,P|162:310|173:227,1,160,0|2,1:2|0:0,0:0:0:0:
292,101,14838,6,0,P|361:88|389:84,1,80,0|2,1:2|0:0,0:0:0:0:
436,27,15561,2,0,P|461:78|451:122,1,80,2|2,0:0|0:0,0:0:0:0:
403,167,16284,2,0,P|386:238|378:282,2,80,0|2|2,1:2|0:0|0:0,0:0:0:0:
447,337,17730,6,0,P|391:359|353:355,1,80,6|2,1:2|0:0,0:0:0:0:
297,312,18453,2,0,P|227:291|199:291,1,80,2|0,0:0|0:0,0:0:0:0:
152,346,19176,2,0,P|131:290|147:249,1,80,2|2,1:2|0:0,0:0:0:0:
196,208,19899,2,0,P|204:157|215:99,1,80,2|2,0:0|0:0,0:0:0:0:
132,85,20621,6,0,P|204:41|287:87,2,160,2|2|2,1:2|0:0|1:2,0:0:0:0:
2,205,22790,2,0,P|17:273|24:311,1,80,2|2,0:0|0:0,0:0:0:0:
25,371,23513,6,0,P|85:349|101:319,1,80,2|2,1:2|0:0,0:0:0:0:
102,250,24236,2,0,P|166:247|202:263,1,80,2|2,0:0|0:0,0:0:0:0:
221,329,24959,2,0,P|260:292|267:238,1,80,2|2,1:2|0:0,0:0:0:0:
241,184,25682,1,2,0:0:0:0:
345,42,26405,6,0,P|390:53|428:59,1,80,2|2,1:2|0:0,0:0:0:0:
500,17,27127,2,0,P|510:66|495:112,1,80,2|2,0:0|0:0,0:0:0:0:
433,148,27850,2,0,P|411:197|415:238,1,80,2|2,1:2|0:0,0:0:0:0:
469,288,28573,2,0,P|411:310|369:298,1,80,2|2,0:0|0:0,0:0:0:0:
326,252,29296,6,0,P|241:277|206:290,2,120,2|2|2,1:2|0:0|0:0,0:0:0:0:
297,168,30742,2,0,P|240:187|182:203,2,120,2|2|2,1:2|0:0|0:0,0:0:0:0:
269,84,32188,2,0,P|204:103|180:109,1,80,2|2,1:2|0:0,0:0:0:0:
131,42,32911,2,0,P|105:87|108:133,1,80,2|0,0:0|0:0,0:0:0:0:
40,175,33634,2,0,P|63:230|65:266,1,80,2|0,1:2|0:0,0:0:0:0:
50,336,34356,1,0,0:0:0:0:
222,369,35079,1,4,1:0:0:0:
222,369,40501,5,10,0:0:0:0:
309,369,40862,2,0,P|384:315|398:250,1,160,4|8,1:0|3:2,0:0:0:0:
252,153,42308,2,0,P|177:207|163:272,1,160,2|10,1:2|3:2,0:0:0:0:
117,345,43393,1,2,3:2:0:0:
38,306,43754,6,0,P|28:217|14:140,1,160,2|10,1:2|3:2,0:0:0:0:
28,60,44838,1,2,3:2:0:0:
115,70,45200,2,0,B|197:86|170:25|265:36,1,160,2|10,1:2|3:2,0:0:0:0:
438,4,46646,6,0,P|415:106|399:189,1,160,6|10,1:2|3:2,0:0:0:0:
447,237,47730,1,2,3:2:0:0:
381,295,48091,2,0,P|326:277|274:184,1,160,2|8,1:2|3:2,0:0:0:0:
317,115,49176,1,2,3:2:0:0:
268,41,49537,6,0,P|122:30|78:24,1,160,2|8,1:2|3:2,0:0:0:0:
34,76,50621,1,2,3:2:0:0:
87,145,50983,2,0,P|72:211|67:249,1,80,2|2,1:2|3:2,0:0:0:0:
10,287,51706,2,0,P|56:314|105:297,1,80,10|2,3:2|0:0,0:0:0:0:
154,358,52429,6,0,B|192:348|192:348|247:344,1,80,4|0,1:0|1:2,0:0:0:0:
281,271,53152,2,0,B|271:233|271:233|267:178,1,80,2|0,1:2|1:2,0:0:0:0:
322,123,53874,2,0,B|360:133|360:133|415:137,1,80,2|0,1:2|1:2,0:0:0:0:
449,210,54597,2,0,B|439:248|439:248|435:303,1,80,2|8,1:2|1:2,0:0:0:0:
381,357,55320,6,0,P|434:375|468:367,2,80,2|0|2,1:2|1:2|1:2,0:0:0:0:
348,274,56405,1,0,1:2:0:0:
315,191,56766,2,0,P|262:173|228:181,2,80,2|0|2,1:2|1:2|1:2,0:0:0:0:
272,362,58212,6,0,P|209:370|180:374,1,80,2|0,1:2|1:2,0:0:0:0:
112,336,58935,2,0,P|103:273|99:244,1,80,2|0,1:2|1:2,0:0:0:0:
168,199,59658,2,0,P|230:207|259:211,1,80,2|0,1:2|1:2,0:0:0:0:
328,173,60381,2,0,P|336:110|340:81,1,80,2|10,1:2|1:2,0:0:0:0:
271,36,61103,6,0,P|312:7|360:6,2,80,2|0|2,1:2|1:2|1:2,0:0:0:0:
239,118,62188,1,0,1:2:0:0:
161,76,62549,2,0,P|156:25|179:-16,2,80,2|0|2,1:2|1:2|1:2,0:0:0:0:
239,118,63634,1,10,1:2:0:0:
194,193,63995,6,0,P|72:171|27:166,1,160,2|2,1:2|1:2,0:0:0:0:
5,340,65441,2,0,P|127:362|172:367,1,160,2|2,1:2|1:2,0:0:0:0:
225,304,66525,1,8,1:2:0:0:
299,350,66887,6,0,B|338:286|295:221|274:253|223:202|263:127,1,240,2|2,1:2|1:2,0:0:0:0:
301,56,68332,2,0,P|374:31|445:90,1,160,2|2,1:2|1:2,0:0:0:0:
494,241,69778,6,0,P|405:259|314:283,1,160,4|2,1:1|1:2,0:0:0:0:
278,341,70862,1,10,0:0:0:0:
203,293,71224,2,0,P|188:348|198:379,2,80,2|2|2,1:2|1:2|1:2,0:0:0:0:
258,224,72308,2,0,P|273:169|263:138,1,80,10|2,0:0|1:2,0:0:0:0:
146,20,73393,6,0,P|82:31|45:34,1,80,2|8,1:2|0:0,0:0:0:0:
26,110,74115,2,0,P|37:174|40:211,1,80,0|2,1:2|1:2,0:0:0:0:
5,270,74838,2,0,P|60:280|101:256,1,80,2|10,1:2|0:0,0:0:0:0:
142,208,75561,6,0,P|212:219|265:316,1,160,4|2,1:2|1:2,0:0:0:0:
332,341,76646,1,10,0:0:0:0:
408,297,77007,2,0,P|421:341|406:381,2,80,2|2|2,1:2|1:2|1:2,0:0:0:0:
352,228,78091,2,0,P|339:184|354:144,1,80,10|2,0:0|1:2,0:0:0:0:
482,38,79176,6,0,P|495:111|497:129,1,80,2|8,1:2|0:0,0:0:0:0:
480,203,79899,2,0,P|485:242|493:281,1,80,2|2,1:2|1:2,0:0:0:0:
465,365,80621,2,0,P|408:346|372:343,1,80,2|8,1:2|0:0,0:0:0:0:
304,369,81344,6,0,P|283:312|301:262,1,80,4|2,1:0|1:2,0:0:0:0:
251,213,82067,2,0,P|276:162|272:112,1,80,2|10,1:2|0:2,0:0:0:0:
214,78,82790,2,0,P|250:55|297:54,2,80,2|2|2,1:2|1:2|1:2,0:0:0:0:
175,157,83874,1,10,0:0:0:0:
94,120,84236,6,0,P|84:170|94:202,1,80,2|2,1:2|1:2,0:0:0:0:
165,245,84959,2,0,P|175:295|165:327,1,80,2|8,1:2|0:0,0:0:0:0:
237,375,85682,2,0,P|304:362|332:355,1,80,2|2,1:2|1:2,0:0:0:0:
358,282,86405,2,0,P|345:215|338:187,1,80,2|10,1:2|0:0,0:0:0:0:
396,134,87127,5,0,1:2:0:0:
294,49,87670,2,0,L|240:59,1,40,0|0,1:2|1:2,0:0:0:0:
171,27,88212,1,8,0:3:0:0:
84,13,88573,2,0,P|88:68|125:102,1,80,0|4,1:2|1:3,0:0:0:0:
162,150,89296,2,0,P|181:184|179:223,1,80,8|0,0:0|1:0,0:0:0:0:
147,305,90019,6,0,B|218:337|284:273|240:263|285:201|348:224|348:224|353:275|391:303,1,320,6|2,1:2|1:2,0:0:0:0:
450,39,92549,2,0,P|373:25|345:19,2,80,2|2|0,0:0|1:2|0:0,0:0:0:0:
295,124,93995,1,10,0:0:0:0:
228,67,94356,2,0,P|206:122|219:163,2,80,2|0|2,1:2|0:0|0:0,0:0:0:0:
365,177,95802,6,0,B|443:135|521:175|508:264|508:264|443:282|440:351,1,320,2|2,1:2|1:2,0:0:0:0:
179,366,98332,2,0,P|112:348|82:344,1,80,2|2,0:0|1:2,0:0:0:0:
16,96,99778,1,8,0:0:0:0:
68,25,100140,2,0,P|99:70|98:121,1,80,2|0,1:2|0:0,0:0:0:0:
108,181,100862,2,0,P|154:168|182:127,1,80,2|2,0:0|3:2,0:0:0:0:
185,57,101585,6,0,B|270:41|270:41|319:72|319:72|419:52,1,240,6|0,1:2|0:0,0:0:0:0:
497,29,103031,1,2,1:2:0:0:
412,183,103754,2,0,P|395:253|390:285,1,80,2|0,3:2|0:0,0:0:0:0:
342,332,104477,2,0,P|383:352|432:341,2,80,2|0|0,1:2|0:0|0:0,0:0:0:0:
306,251,105561,1,8,0:0:0:0:
270,170,105923,2,0,P|229:150|180:161,2,80,2|2|0,1:2|0:0|0:0,0:0:0:0:
163,310,107368,6,0,P|86:284|53:189,1,160,2|2,1:2|0:0,0:0:0:0:
159,77,108814,2,0,P|236:103|269:198,1,160,2|0,1:2|3:0,0:0:0:0:
257,257,109899,1,2,3:2:0:0:
256,344,110260,2,0,B|348:342|343:244|343:244|376:203|445:223,1,240,2|10,1:2|0:0,0:0:0:0:
461,296,111706,2,0,P|502:252|484:155,1,160,0|2,1:2|0:0,0:0:0:0:
325,91,113152,6,0,P|335:41|341:9,2,80,0|8|8,1:2|0:0|0:0,0:0:0:0:
251,139,114236,2,0,P|184:123|150:118,1,80,0|8,1:2|0:0,0:0:0:0:
104,65,114959,1,8,0:0:0:0:
37,121,115320,6,0,P|16:90|24:40,2,80,0|8|8,1:2|0:0|0:0,0:0:0:0:
103,179,116405,2,0,P|133:234|132:272,1,80,0|8,1:2|0:0,0:0:0:0:
95,328,117127,1,8,0:0:0:0:
175,364,117489,2,0,P|230:353|270:349,1,80,8|4,0:3|0:3,0:0:0:0:
322,295,118212,6,0,P|343:348|334:387,2,80,0|8|8,1:2|0:0|0:0,0:0:0:0:
241,259,119296,2,0,P|220:206|229:167,2,80,0|8|8,1:2|0:0|0:0,0:0:0:0:
308,202,120380,2,0,P|363:187|401:177,1,80,0|8,1:2|0:0,0:0:0:0:
471,199,121103,1,8,0:0:0:0:
507,118,121465,2,0,P|489:50|484:6,2,80,0|8|8,1:2|0:0|0:0,0:0:0:0:
471,199,122549,2,0,P|489:267|494:311,1,80,8|8,0:3|0:0,0:0:0:0:
444,351,123272,6,0,P|381:337|341:333,1,80,2|2,1:2|1:2,0:0:0:0:
277,339,123994,2,0,P|237:345|198:354,1,80,2|2,1:2|1:2,0:0:0:0:
111,367,124717,2,0,P|86:321|90:276,1,80,2|2,1:2|1:2,0:0:0:0:
129,218,125440,1,2,1:2:0:0:
33,69,126163,6,0,P|90:51|119:42,1,80,2|2,1:2|1:2,0:0:0:0:
197,50,126886,2,0,P|235:61|273:74,1,80,2|2,1:2|1:2,0:0:0:0:
325,145,127609,2,0,P|356:108|358:62,1,80,2|2,1:2|1:2,0:0:0:0:
421,14,128332,1,2,1:2:0:0:
483,76,128693,1,2,1:2:0:0:
457,160,129055,6,0,P|443:234|439:270,1,80,2|2,1:2|1:2,0:0:0:0:
473,321,129778,2,0,P|423:328|382:296,1,80,2|2,1:2|1:2,0:0:0:0:
338,250,130500,2,0,P|301:235|263:244,1,80,2|2,1:2|1:2,0:0:0:0:
188,291,131223,1,2,1:2:0:0:
192,115,131946,6,0,P|215:60|200:13,2,80,2|2|2,1:2|1:2|1:2,0:0:0:0:
104,104,133031,1,2,1:2:0:0:
38,45,133392,2,0,P|12:97|16:137,1,80,2|2,1:2|1:2,0:0:0:0:
64,188,134115,2,0,P|90:240|86:280,1,80,2|2,1:2|1:2,0:0:0:0:
47,338,134838,6,0,P|111:351|181:265,1,160,6|2,1:2|1:2,0:0:0:0:
239,127,136284,2,0,P|219:64|213:21,2,80,2|2|2,1:2|1:2|1:2,0:0:0:0:
325,146,137368,1,2,1:2:0:0:
378,76,137729,6,0,P|412:121|363:225,1,160,2|2,1:2|1:2,0:0:0:0:
207,209,139175,2,0,P|148:192|124:190,1,80,8|8,0:0|1:3,0:0:0:0:
56,239,139898,2,0,P|40:176|61:138,1,80,0|8,1:2|1:2,0:0:0:0:
109,105,140621,5,2,1:2:0:0:
142,23,140982,1,2,1:2:0:0:
227,44,141344,2,0,P|294:34|324:29,1,80,2|2,1:2|1:2,0:0:0:0:
382,76,142067,2,0,P|376:115|370:155,1,80,2|2,1:2|1:2,0:0:0:0:
297,205,142790,2,0,P|336:240|390:238,1,80,2|2,1:2|1:2,0:0:0:0:
448,227,143512,6,0,P|431:309|336:333,1,160,2|2,1:2|1:2,0:0:0:0:
211,254,144958,2,0,P|145:239|46:225,1,160,10|2,0:0|1:2,0:0:0:0:
12,303,146043,1,10,1:2:0:0:
66,371,146404,6,0,B|121:349|121:349|206:366,1,120,6|8,1:2|0:0,0:0:0:0:
295,295,147488,2,0,B|273:240|273:240|290:155,2,120,8|8|0,0:0|0:0|1:2,0:0:0:0:
448,382,149296,6,0,P|485:323|468:251,1,120,2|8,1:2|0:0,0:0:0:0:
453,146,150380,2,0,P|394:109|322:126,1,120,8|4,1:2|0:3,0:0:0:0:
240,192,151464,1,2,1:2:0:0:
110,72,152187,6,0,P|28:55|-14:24,2,120,2|8|8,1:2|0:0|0:0,0:0:0:0:
178,16,153633,2,0,P|198:64|189:109,1,80,0|8,1:2|0:0,0:0:0:0:
137,156,154356,1,8,0:0:0:0:
130,331,155079,6,0,P|53:325|8:359,2,120,2|8|8,1:2|0:0|0:0,0:0:0:0:
207,372,156525,2,0,P|272:369|305:345,1,80,0|0,1:2|1:2,0:0:0:0:
333,289,157247,1,0,1:2:0:0:
304,205,157609,1,0,3:0:0:0:
343,126,157970,6,0,P|416:144|439:150,1,80,4|0,1:0|1:2,0:0:0:0:
486,203,158693,2,0,P|509:156|499:101,1,80,8|0,0:3|1:2,0:0:0:0:
451,62,159416,2,0,P|378:44|355:38,1,80,2|2,1:0|1:2,0:0:0:0:
285,52,160139,2,0,P|252:97|257:147,1,80,2|2,1:2|1:2,0:0:0:0:
276,203,160862,5,4,1:3:0:0:
215,266,161223,2,0,P|161:257|123:248,2,80,2|0|2,1:2|1:2|1:2,0:0:0:0:
257,343,162308,2,0,P|308:333|357:323,1,80,2|2,1:0|1:2,0:0:0:0:
409,375,163031,2,0,P|424:324|407:274,1,80,0|8,1:2|0:0,0:0:0:0:
356,237,163753,6,0,P|352:197|366:160,1,80,6|2,1:2|1:2,0:0:0:0:
438,110,164476,2,0,P|391:72|349:74,1,80,2|0,1:2|1:2,0:0:0:0:
292,104,165199,2,0,P|230:117|202:121,1,80,2|2,1:0|1:2,0:0:0:0:
140,69,165922,1,2,1:2:0:0:
53,83,166284,1,2,1:2:0:0:
9,159,166645,6,0,P|23:229|32:272,1,80,4|8,1:3|0:3,0:0:0:0:
9,324,167368,2,0,P|67:314|97:282,1,80,0|8,1:2|0:0,0:0:0:0:
120,222,168091,2,0,P|106:152|97:109,2,80,2|2|2,1:2|1:2|1:2,0:0:0:0:
173,292,169175,1,2,1:2:0:0:
226,362,169537,6,0,P|292:317|397:315,2,160,6|2|2,1:2|0:0|0:0,0:0:0:0:
63,295,171705,2,0,P|77:230|80:196,1,80,2|2,0:0|0:0,0:0:0:0:
20,150,172428,6,0,P|67:131|106:136,1,80,6|0,1:2|1:2,0:0:0:0:
164,187,173151,2,0,P|203:187|239:169,1,80,2|2,1:2|1:2,0:0:0:0:
274,88,173874,2,0,P|253:30|241:-1,2,80,2|2|2,1:2|1:2|1:2,0:0:0:0:
325,159,174958,1,2,1:2:0:0:
408,130,175320,6,0,B|440:156|475:178|475:178|461:209|452:267,1,160,6|8,1:2|0:0,0:0:0:0:
283,294,176765,2,0,B|251:268|216:246|216:246|230:215|239:157,1,160,2|10,1:2|0:0,0:0:0:0:
274,88,177850,1,2,0:0:0:0:
218,20,178211,1,2,1:2:0:0:
65,107,178934,2,0,B|59:191|112:169|100:275,2,160,10|2|10,0:0|1:2|0:0,0:0:0:0:
218,20,181103,6,0,P|274:16|319:13,2,80,2|2|10,1:2|0:0|0:0,0:0:0:0:
65,107,182549,1,0,1:2:0:0:
178,241,183271,2,0,P|248:257|281:266,1,80,10|2,0:0|0:0,0:0:0:0:
280,343,183994,2,0,P|326:311|321:204,1,160,2|8,1:2|0:0,0:0:0:0:
160,162,185440,2,0,P|114:194|119:301,1,160,2|8,1:2|0:0,0:0:0:0:
280,343,186886,6,0,P|362:320|441:307,1,160,2|8,1:2|0:0,0:0:0:0:
509,147,188332,1,2,1:2:0:0:
366,43,189055,1,10,0:0:0:0:
198,97,189778,2,0,P|94:111|30:122,1,160,2|8,1:2|0:0,0:0:0:0:
1,291,191223,2,0,P|28:342|127:337,1,160,2|10,1:2|0:0,0:0:0:0:
247,218,192669,6,0,P|318:193|385:272,1,160,6|8,1:2|0:0,0:0:0:0:
495,374,194115,2,0,L|513:209,1,160,2|10,1:2|0:0,0:0:0:0:
409,72,195561,2,0,P|321:48|251:27,2,160,2|8|0,1:2|0:0|1:2,0:0:0:0:
512,214,197729,1,8,0:0:0:0:
356,296,198452,6,0,P|347:369|341:395,2,80,2|10|8,1:2|0:0|0:0,0:0:0:0:
320,215,199536,1,2,1:2:0:0:
451,98,200259,1,10,0:0:0:0:
392,32,200620,2,0,P|334:40|293:43,2,80,2|10|10,1:2|0:0|0:0,0:0:0:0:
451,98,201705,1,2,1:2:0:0:
393,164,202066,2,0,P|313:181|288:188,1,80,2|2,0:1|1:1,0:0:0:0:
231,152,202789,6,0,P|241:94|246:62,2,80,6|10|10,1:2|0:0|0:0,0:0:0:0:
147,181,203873,1,2,1:2:0:0:
50,328,204596,1,10,0:0:0:0:
133,356,204958,2,0,P|187:368|214:373,2,80,2|10|10,1:2|0:0|0:0,0:0:0:0:
50,328,206042,1,2,1:2:0:0:
72,243,206403,2,0,P|142:224|170:214,1,80,2|2,0:1|1:1,0:0:0:0:
212,159,207126,6,0,P|238:215|227:257,2,80,2|10|10,1:2|0:0|0:0,0:0:0:0:
127,133,208211,1,2,1:2:0:0:
261,19,208933,1,10,0:0:0:0:
330,72,209295,2,0,P|318:134|310:176,2,80,2|10|10,1:2|0:0|0:0,0:0:0:0:
406,28,210379,1,2,1:2:0:0:
456,100,210741,2,0,P|443:158|436:200,1,80,2|2,0:1|1:1,0:0:0:0:
420,264,211464,6,0,P|482:258|506:236,2,80,6|10|10,1:2|0:0|0:0,0:0:0:0:
350,209,212548,2,0,P|281:185|239:197,1,80,2|10,1:2|0:0,0:0:0:0:
197,226,213271,1,10,0:0:0:0:
228,308,213632,2,0,P|297:332|339:320,2,80,2|10|10,1:2|0:0|0:0,0:0:0:0:
197,226,214717,1,2,1:2:0:0:
115,259,215078,2,0,L|98:358,1,80,2|2,0:1|1:1,0:0:0:0:
