osu file format v14

[General]
AudioFilename: Mili - Ga1ahad and Scientific Witchery.mp3
AudioLeadIn: 0
PreviewTime: 156464
Countdown: 0
SampleSet: Soft
StackLeniency: 0.3
Mode: 0
LetterboxInBreaks: 0
WidescreenStoryboard: 1

[Editor]
Bookmarks: 11947,17730,35079,40862,46646,52429,69778,81344,87127,101585,113152,123272,134838,146405,152188,157971,169537,175320,186887,198453,207127,215441
DistanceSpacing: 1.4
BeatDivisor: 4
GridSize: 32
TimelineZoom: 2.2

[Metadata]
Title:Ga1ahad and Scientific Witchery
TitleUnicode:Ga1ahad and Scientific Witchery
Artist:Mili
ArtistUnicode:Mili
Creator:frozz
Version:Chills' Insane
Source:DEEMO
Tags:featured artist fa miracle milk 02 mpg mappers' guild Video Game Pop English -keqing chills gazimal
BeatmapID:4034299
BeatmapSetID:1940007

[Difficulty]
HPDrainRate:4.4
CircleSize:4
OverallDifficulty:7.4
ApproachRate:8.9
SliderMultiplier:1.2
SliderTickRate:1

[Events]
//Background and Video events
0,0,"Mili - Ga1ahad and Scientific Witchery.jpg",0,0
//Break Periods
//Storyboard Layer 0 (Background)
//Storyboard Layer 1 (Fail)
//Storyboard Layer 2 (Pass)
//Storyboard Layer 3 (Foreground)
//Storyboard Layer 4 (Overlay)
//Storyboard Sound Samples

[TimingPoints]
381,361.44578313253,4,2,1,50,1,0
381,-44.4444444444445,4,2,1,50,0,0
561,-66.6666666666667,4,2,1,50,0,0
2730,-100,4,2,1,50,0,0
3272,-66.6666666666667,4,2,1,50,0,0
5079,-100,4,2,1,50,0,0
5802,-66.6666666666667,4,2,1,50,0,0
8513,-100,4,2,1,50,0,0
9236,-66.6666666666667,4,2,1,50,0,0
10862,-100,4,2,1,50,0,0
11585,-66.6666666666667,4,2,1,50,0,0
11947,-66.6666666666667,4,2,1,50,0,1
12127,-66.6666666666667,4,2,1,50,0,0
13573,-100,4,2,1,50,0,0
15019,-80,4,2,1,50,0,0
15742,-66.6666666666667,4,2,1,50,0,0
17730,-66.6666666666667,4,2,1,65,0,0
18091,-62.5,4,2,1,65,0,0
21887,-80,4,2,1,65,0,0
23513,-60.6060606060606,4,2,1,65,0,0
23874,-57.1428571428571,4,2,1,65,0,0
24236,-54.054054054054,4,2,1,65,0,0
24597,-51.2820512820513,4,2,1,65,0,0
24959,-60.6060606060606,4,2,1,65,0,0
25320,-68.9655172413793,4,2,1,65,0,0
25682,-74.0740740740741,4,2,1,65,0,0
26043,-80,4,2,1,65,0,0
29296,-62.5,4,2,1,65,0,0
29477,-100,4,2,1,65,0,0
29838,-62.5,4,2,1,65,0,0
30019,-100,4,2,1,65,0,0
30380,-62.5,4,2,1,65,0,0
30561,-71.4285714285714,4,2,1,65,0,0
30742,-100,4,2,1,65,0,0
31826,-71.4285714285714,4,2,1,65,0,0
32007,-83.3333333333333,4,2,1,65,0,0
33091,-62.5,4,2,1,65,0,0
33814,-57.1428571428571,4,2,1,65,0,0
35079,-57.1428571428571,4,2,1,50,0,0
35260,-100,4,2,1,50,0,0
40501,-100,4,2,2,50,0,0
40862,-100,4,2,1,60,0,0
43031,-66.6666666666667,4,2,1,60,0,0
43754,-100,4,2,1,60,0,0
46284,-66.6666666666667,4,2,1,60,0,0
46646,-100,4,2,1,60,0,0
49176,-66.6666666666667,4,2,1,60,0,0
49537,-100,4,2,1,60,0,0
51706,-66.6666666666667,4,2,1,60,0,0
51887,-66.6666666666667,4,2,1,60,0,0
52429,-57.1428571428571,4,2,1,65,0,0
57670,-80,4,2,1,65,0,0
58212,-57.1428571428571,4,2,1,65,0,0
63453,-80,4,2,1,65,0,0
63995,-66.6666666666667,4,2,1,65,0,0
65441,-66.6666666666667,4,2,1,65,0,0
69778,-57.1428571428571,4,2,1,75,0,0
70682,-80,4,2,1,75,0,0
70862,-57.1428571428571,4,2,1,75,0,0
72489,-80,4,2,1,75,0,0
72670,-66.6666666666667,4,2,1,75,0,0
75380,-50,4,2,1,75,0,0
75561,-57.1428571428571,4,2,1,75,0,0
76465,-80,4,2,1,75,0,0
76646,-57.1428571428571,4,2,1,75,0,0
78272,-80,4,2,1,75,0,0
78453,-57.1428571428571,4,2,1,75,0,0
81706,-100,4,2,1,75,0,0
82609,-66.6666666666667,4,2,1,75,0,0
82790,-57.1428571428571,4,2,1,75,0,0
83152,-100,4,2,1,75,0,0
83874,-57.1428571428571,4,2,1,75,0,0
84055,-80,4,2,1,75,0,0
84236,-57.1428571428571,4,2,1,75,0,0
84597,-100,4,2,1,75,0,0
85320,-57.1428571428571,4,2,1,75,0,0
86043,-100,4,2,1,75,0,0
86405,-50,4,2,1,75,0,0
87127,-50,4,2,1,40,0,0
87850,-66.6666666666667,4,2,1,40,0,0
88573,-80,4,2,1,40,0,0
89658,-50,4,2,1,40,0,0
90019,-66.6666666666667,4,2,1,55,0,0
91826,-133.333333333333,4,2,1,55,0,0
92368,-66.6666666666667,4,2,1,55,0,0
93995,-66.6666666666667,4,2,2,55,0,0
94356,-66.6666666666667,4,2,1,55,0,0
97609,-133.333333333333,4,2,1,55,0,0
98152,-66.6666666666667,4,2,1,55,0,0
99778,-66.6666666666667,4,2,2,55,0,0
100140,-66.6666666666667,4,2,1,55,0,0
103393,-133.333333333333,4,2,1,55,0,0
103935,-66.6666666666667,4,2,1,55,0,0
105561,-66.6666666666667,4,2,2,55,0,0
105923,-66.6666666666667,4,2,1,55,0,0
109176,-133.333333333333,4,2,1,55,0,0
109718,-66.6666666666667,4,2,1,55,0,0
111344,-66.6666666666667,4,2,2,55,0,0
111706,-66.6666666666667,4,2,1,55,0,0
113152,361.44578313253,3,2,2,65,1,0
116405,361.44578313253,5,2,2,65,1,0
118212,361.44578313253,3,2,2,65,1,0
121465,361.44578313253,5,2,2,65,1,0
123272,361.44578313253,4,2,1,75,1,0
123272,-62.5,4,2,1,75,0,0
124717,-57.1428571428571,4,2,1,75,0,0
125079,-62.5,4,2,1,75,0,0
125440,-66.6666666666667,4,2,1,75,0,0
126886,-62.5,4,2,1,75,0,0
127609,-57.1428571428571,4,2,1,75,0,0
127970,-62.5,4,2,1,75,0,0
128332,-57.1428571428571,4,2,1,75,0,0
130139,-66.6666666666667,4,2,1,75,0,0
131404,-100,4,2,1,75,0,0
131946,-66.6666666666667,4,2,1,75,0,0
133031,-80,4,2,1,75,0,0
133211,-100,4,2,1,75,0,0
133392,-50,4,2,1,75,0,0
133753,-66.6666666666667,4,2,1,75,0,0
134476,-57.1428571428571,4,2,1,75,0,0
134838,-57.1428571428571,4,2,1,75,0,0
137729,-57.1428571428571,4,2,1,75,0,0
138994,-57.1428571428571,4,2,1,75,0,0
140621,-50,4,2,1,75,0,0
140982,-57.1428571428571,4,2,1,75,0,0
141344,-66.6666666666667,4,2,1,75,0,0
142067,-57.1428571428571,4,2,1,75,0,0
145681,-66.6666666666667,4,2,1,75,0,0
145862,-58.8235294117647,4,2,1,75,0,0
146043,-52.6315789473684,4,2,1,75,0,0
146223,-47.6190476190476,4,2,1,75,0,0
146404,-47.6190476190476,4,2,2,65,0,0
148753,-57.1428571428571,4,2,2,65,0,0
150922,-57.1428571428571,4,2,1,65,0,0
151103,-57.1428571428571,4,2,2,65,0,0
152187,-57.1428571428571,4,2,2,55,0,0
152368,-100,4,2,2,55,0,0
152910,-80,4,2,2,55,0,0
153452,-66.6666666666667,4,2,2,55,0,0
153994,-80,4,2,2,55,0,0
154537,-57.1428571428571,4,2,2,55,0,0
155259,-133.333333333333,4,2,2,55,0,0
156525,-133.333333333333,4,2,2,65,0,0
156705,-133.333333333333,4,2,1,65,0,0
157247,-133.333333333333,4,2,1,75,0,0
157970,-50,4,2,1,75,0,1
158152,-50,4,2,1,85,0,1
158693,-57.1428571428571,4,2,1,85,0,1
159416,-50,4,2,1,85,0,1
159597,-57.1428571428571,4,2,1,85,0,1
160139,-50,4,2,1,85,0,1
160862,-44.4444444444445,4,2,1,85,0,1
161043,-57.1428571428571,4,2,1,85,0,1
162308,-50,4,2,1,85,0,1
163031,-57.1428571428571,4,2,1,85,0,1
163392,-66.6666666666667,4,2,1,85,0,1
164657,-57.1428571428571,4,2,1,85,0,1
165199,-80,4,2,1,85,0,1
165561,-66.6666666666667,4,2,1,85,0,1
165922,-57.1428571428571,4,2,1,85,0,1
166284,-50,4,2,1,85,0,1
167006,-57.1428571428571,4,2,1,85,0,1
167729,-44.4444444444445,4,2,1,85,0,1
168633,-66.6666666666667,4,2,1,85,0,1
169537,-50,4,2,1,55,0,0
169898,-55.5555555555556,4,2,1,55,0,0
170259,-62.5,4,2,1,55,0,0
170621,-71.4285714285714,4,2,1,55,0,0
170982,-66.6666666666667,4,2,1,55,0,0
171163,-62.5,4,2,1,55,0,0
172428,-50,4,2,1,75,0,0
172790,-58.8235294117647,4,2,1,75,0,0
173151,-71.4285714285714,4,2,1,75,0,0
173512,-90.9090909090909,4,2,1,75,0,0
175320,-90.9090909090909,4,2,1,65,0,0
175500,-66.6666666666667,4,2,1,65,0,0
176765,-66.6666666666667,4,2,1,65,0,0
177127,-80,4,2,1,65,0,0
177488,-100,4,2,1,65,0,0
177850,-133.333333333333,4,2,1,65,0,0
178211,-66.6666666666667,4,2,1,65,0,0
180018,-80,4,2,1,65,0,0
180380,-100,4,2,1,65,0,0
180741,-133.333333333333,4,2,1,65,0,0
181103,-66.6666666666667,4,2,1,65,0,0
182910,-80,4,2,1,65,0,0
183271,-66.6666666666667,4,2,1,65,0,0
185802,-80,4,2,1,65,0,0
186163,-100,4,2,1,65,0,0
186525,-133.333333333333,4,2,1,65,0,0
186886,-66.6666666666667,4,2,1,65,0,0
188332,-66.6666666666667,4,2,1,65,0,0
188693,-80,4,2,1,65,0,0
189055,-100,4,2,1,65,0,0
189416,-133.333333333333,4,2,1,65,0,0
189778,-66.6666666666667,4,2,1,65,0,0
191223,-57.1428571428571,4,2,1,65,0,0
191585,-66.6666666666667,4,2,1,65,0,0
191946,-80,4,2,1,65,0,0
192308,-100,4,2,1,65,0,0
192669,-66.6666666666667,4,2,1,65,0,0
194476,-58.8235294117647,4,2,1,65,0,0
194838,-52.6315789473684,4,2,1,65,0,0
195199,-47.6190476190476,4,2,1,65,0,0
197006,-66.6666666666667,4,2,1,65,0,0
197368,-80,4,2,1,65,0,0
197729,-100,4,2,1,65,0,0
198091,-133.333333333333,4,2,1,65,0,0
198452,361.44578313253,3,2,2,55,1,0
198453,-66.6666666666667,3,2,2,55,0,0
202066,-66.6666666666667,3,2,1,55,0,1
202789,-66.6666666666667,3,2,2,55,0,0
206403,-66.6666666666667,3,2,1,55,0,0
207126,-66.6666666666667,3,2,2,55,0,0
210741,-66.6666666666667,3,2,1,55,0,1
211464,-66.6666666666667,3,2,2,55,0,0
215078,-66.6666666666667,3,2,1,55,0,0

[Colours]
Combo1 : 255,170,149
Combo2 : 149,152,255
Combo3 : 149,255,255
Combo4 : 255,200,149

[HitObjects]
232,282,381,5,0,1:2:0:0:
378,340,561,2,0,P|344:369|300:375,2,90.0000034332277,2|2|4,0:0|0:0|0:3,0:0:0:0:
386,197,1103,1,2,0:0:0:0:
442,274,1284,2,0,P|438:318|412:354,1,90.0000034332277,0|2,1:2|0:0,0:0:0:0:
311,237,1646,1,2,0:0:0:0:
461,156,1826,2,0,P|494:184|508:226,1,90.0000034332277,2|0,1:2|0:0,0:0:0:0:
402,80,2188,1,2,0:0:0:0:
406,68,2278,1,0,0:0:0:0:
410,57,2368,1,2,0:0:0:0:
414,46,2459,1,0,0:0:0:0:
419,35,2549,1,2,0:0:0:0:
280,102,2730,2,0,L|305:35,2,60,4|2|2,0:3|0:0|0:0,0:0:0:0:
275,113,3182,1,0,0:0:0:0:
271,122,3272,5,0,1:2:0:0:
134,44,3452,2,0,P|167:14|211:8,2,90.0000034332277,2|2|4,0:0|0:0|0:3,0:0:0:0:
124,186,3994,1,2,0:0:0:0:
70,110,4175,2,0,P|73:65|99:29,1,90.0000034332277,0|2,1:2|0:0,0:0:0:0:
201,147,4537,1,2,0:0:0:0:
51,228,4717,2,0,P|17:199|3:157,1,90.0000034332277,2|4,1:2|0:3,0:0:0:0:
150,314,5079,2,0,L|175:247,2,60,2|2|2,0:0|0:0|0:0,0:0:0:0:
62,348,5621,1,0,1:2:0:0:
215,377,5802,1,2,0:0:0:0:
223,373,5892,1,0,0:0:0:0:
232,369,5983,1,2,0:0:0:0:
463,274,6164,5,0,1:2:0:0:
320,316,6344,2,0,P|349:349|393:360,2,90.0000034332277,2|2|4,0:0|0:0|0:3,0:0:0:0:
351,179,6887,1,2,0:0:0:0:
264,233,7067,2,0,P|261:277|285:314,1,90.0000034332277,0|2,1:2|0:0,0:0:0:0:
339,76,7429,1,2,0:0:0:0:
245,117,7609,2,0,P|207:139|188:180,1,90.0000034332277,2|0,1:2|0:0,0:0:0:0:
430,48,7971,1,2,0:0:0:0:
441,43,8061,1,0,0:0:0:0:
452,39,8152,1,2,0:0:0:0:
463,35,8242,1,0,0:0:0:0:
475,31,8332,1,2,0:0:0:0:
245,117,8513,2,0,L|179:144,2,60,4|2|2,0:3|0:0|0:0,0:0:0:0:
258,111,8965,1,2,0:0:0:0:
271,106,9055,5,2,1:2:0:0:
388,187,9236,2,0,P|367:231|314:260,2,90.0000034332277,2|2|4,0:0|0:0|0:3,0:0:0:0:
188,359,9778,1,2,0:0:0:0:
344,287,9959,2,0,P|298:303|240:286,1,90.0000034332277,0|2,1:2|0:0,0:0:0:0:
185,214,10320,1,2,0:0:0:0:
188,359,10501,2,0,P|147:331|127:274,1,90.0000034332277,0|4,1:2|0:3,0:0:0:0:
59,175,10862,2,0,L|133:146,2,60,0|0|2,0:0|0:0|0:0,0:0:0:0:
18,245,11405,1,0,1:2:0:0:
83,76,11585,1,2,0:0:0:0:
87,67,11676,1,0,0:0:0:0:
91,59,11766,1,2,0:0:0:0:
320,0,11947,5,4,1:2:0:0:
237,24,12127,2,0,L|208:33,3,30.0000011444092,2|2|2|2,0:0|0:0|0:0|0:0,0:0:0:0:
166,163,12489,1,2,0:0:0:0:
256,192,12670,2,0,L|363:226,1,90.0000034332277,2|0,0:0|1:2,0:0:0:0:
177,346,13031,2,0,L|148:355,3,30.0000011444092,2|0|0|2,0:0|0:0|0:0|0:0,0:0:0:0:
1,237,13393,5,0,1:2:0:0:
88,292,13573,2,0,L|59:301,3,20,2|2|2|2,0:0|0:0|0:0|0:0,0:0:0:0:
248,247,13935,1,2,0:0:0:0:
260,243,14025,1,0,0:0:0:0:
272,239,14115,1,2,0:0:0:0:
285,235,14206,1,0,0:0:0:0:
297,232,14296,1,2,0:0:0:0:
478,362,14477,2,0,L|507:371,3,20,2|2|2|2,0:0|0:0|0:0|0:0,0:0:0:0:
306,320,14838,5,0,1:2:0:0:
414,276,15019,2,0,L|440:261,3,25,2|2|2|2,0:0|0:0|0:0|0:0,0:0:0:0:
430,181,15380,1,0,0:0:0:0:
302,324,15561,5,2,0:0:0:0:
297,232,15742,2,0,L|306:202,3,30.0000011444092,2|2|2|2,1:2|0:0|0:0|0:0,0:0:0:0:
225,161,16103,1,2,0:0:0:0:
298,328,16284,5,0,1:2:0:0:
224,379,16465,1,2,0:0:0:0:
138,352,16646,1,2,0:0:0:0:
98,271,16826,1,2,0:0:0:0:
133,184,17007,5,2,0:0:0:0:
133,184,17188,1,2,1:2:0:0:
78,81,17368,1,2,0:0:0:0:
78,81,17549,1,2,0:0:0:0:
198,80,17730,5,6,1:2:0:0:
290,24,17911,1,2,0:0:0:0:
298,27,18001,1,2,0:0:0:0:
306,30,18091,2,0,L|406:67,1,96,2|2,0:0|0:0,0:0:0:0:
512,153,18453,1,2,0:0:0:0:
504,156,18543,1,2,0:0:0:0:
496,159,18633,2,0,L|396:196,1,96,2|0,1:2|0:0,0:0:0:0:
457,281,18995,5,2,0:0:0:0:
457,281,19085,1,2,0:0:0:0:
457,281,19176,1,2,1:2:0:0:
307,186,19356,1,2,0:0:0:0:
306,351,19537,1,2,0:0:0:0:
300,364,19627,1,2,0:0:0:0:
293,377,19718,1,2,0:0:0:0:
406,351,19899,5,2,0:0:0:0:
255,255,20079,1,2,0:0:0:0:
413,172,20260,1,2,0:0:0:0:
361,259,20441,1,2,0:0:0:0:
245,128,20621,6,0,L|274:28,1,96,2|2,1:2|0:0,0:0:0:0:
276,21,20893,1,2,0:0:0:0:
282,3,20983,1,2,0:0:0:0:
347,90,21164,1,2,0:0:0:0:
170,155,21344,1,2,0:0:0:0:
158,160,21434,1,2,0:0:0:0:
146,165,21525,1,2,1:2:0:0:
64,128,21706,1,0,0:0:0:0:
117,282,21887,2,0,L|96:333,1,37.5,2|2,0:0|0:0,0:0:0:0:
36,370,22067,5,2,1:2:0:0:
198,315,22248,1,2,0:0:0:0:
205,311,22339,1,2,0:0:0:0:
212,308,22429,1,2,0:0:0:0:
290,378,22609,1,2,0:0:0:0:
401,320,22790,1,2,0:0:0:0:
408,316,22881,1,2,0:0:0:0:
415,313,22971,1,2,1:2:0:0:
422,309,23062,1,2,0:0:0:0:
429,306,23152,1,2,0:0:0:0:
496,357,23332,1,2,0:0:0:0:
487,195,23513,6,0,P|466:211|445:219,3,49.5000004720688,2|2|2|2,1:2|0:0|0:0|0:0,0:0:0:0:
484,93,23874,2,0,P|480:119|470:142,3,52.500000500679,2|2|2|2,0:0|0:0|0:0|0:0,0:0:0:0:
387,11,24236,2,0,P|404:33|412:58,3,55.4999997882843,2|2|2|2,0:0|0:0|1:2|0:0,0:0:0:0:
255,26,24597,2,0,P|288:28|315:41,1,58.5000002231598,2|2,0:0|0:0,0:0:0:0:
186,132,24778,2,0,P|209:111|236:102,1,58.5000002231598,2|2,0:0|0:0,0:0:0:0:
312,209,24959,6,0,P|316:184|312:160,3,49.5000004720688,2|2|2|2,1:2|0:0|0:0|0:0,0:0:0:0:
336,317,25320,2,0,P|354:300|368:280,3,43.5000013275147,2|2|2|2,0:0|0:0|0:0|0:0,0:0:0:0:
226,361,25682,2,0,P|250:365|274:361,3,40.5000001544952,2|2|2|2,0:0|0:0|0:0|0:0,0:0:0:0:
119,357,26043,2,0,P|136:374|159:384,3,37.5,2|2|2|2,0:0|0:0|0:0|0:0,0:0:0:0:
67,302,26405,6,0,P|67:326|75:349,1,37.5,2|0,1:2|0:0,0:0:0:0:
134,234,26585,1,2,0:0:0:0:
139,220,26676,1,2,0:0:0:0:
144,206,26766,1,2,0:0:0:0:
222,249,26947,1,2,0:0:0:0:
107,114,27127,1,2,0:0:0:0:
99,93,27218,1,2,0:0:0:0:
92,73,27308,1,2,1:2:0:0:
25,127,27489,1,2,0:0:0:0:
180,72,27670,1,2,0:0:0:0:
330,9,27850,5,2,1:2:0:0:
325,24,27940,1,2,0:0:0:0:
320,39,28031,1,2,0:0:0:0:
314,53,28120,1,2,0:0:0:0:
309,68,28211,1,2,0:0:0:0:
238,10,28393,1,2,0:0:0:0:
417,51,28573,1,2,0:0:0:0:
411,65,28664,1,2,0:0:0:0:
406,80,28753,1,2,1:2:0:0:
500,87,28935,1,2,0:0:0:0:
497,94,29026,1,2,0:0:0:0:
495,101,29116,1,2,0:0:0:0:
327,253,29296,6,0,P|321:225|302:194,1,48,2|2,1:2|0:0,0:0:0:0:
435,162,29477,2,0,L|417:202,3,30,2|2|0|0,0:0|0:0|0:0|0:0,0:0:0:0:
442,300,29838,6,0,P|466:284|501:275,1,48,2|2,0:0|0:0,0:0:0:0:
422,189,30019,2,0,L|404:229,3,30,2|2|0|0,0:0|0:0|1:2|0:0,0:0:0:0:
332,355,30380,6,0,P|353:335|370:303,1,48,2|2,0:0|0:0,0:0:0:0:
252,374,30561,2,0,P|279:382|315:381,1,41.9999987182618,2|2,0:0|0:0,0:0:0:0:
203,290,30742,6,0,L|190:317,1,30,2|2,1:2|0:0,0:0:0:0:
189,204,30923,2,0,L|171:179,3,30,2|2|0|0,0:0|0:0|0:0|0:0,0:0:0:0:
190,317,31284,6,0,L|177:344,1,30,2|2,0:0|0:0,0:0:0:0:
277,239,31465,2,0,L|306:235,3,30,2|2|0|0,0:0|0:0|0:0|0:0,0:0:0:0:
134,161,31826,6,0,P|153:168|171:179,1,41.9999987182618,2|2,0:0|0:0,0:0:0:0:
72,216,32007,2,0,P|88:202|106:192,1,35.9999989013672,2|2,0:0|0:0,0:0:0:0:
72,296,32188,5,2,1:2:0:0:
199,253,32368,1,2,0:0:0:0:
244,364,32549,1,2,0:0:0:0:
232,369,32640,1,0,0:0:0:0:
221,374,32730,1,0,0:0:0:0:
304,296,32911,1,2,0:0:0:0:
405,334,33091,2,0,L|537:382,1,96,2|0,1:2|0:0,0:0:0:0:
428,238,33362,1,0,0:0:0:0:
428,238,33453,2,0,L|368:260,1,48,2|0,0:0|0:0,0:0:0:0:
235,135,33634,5,2,1:2:0:0:
296,186,33814,2,0,B|320:138|274:117|278:114|208:99|232:49,1,157.500001502037
240,44,34176,1,0,0:0:0:0:
121,48,34356,1,0,0:0:0:0:
155,154,34537,1,2,1:2:0:0:
190,261,34718,1,2,0:0:0:0:
31,351,34899,5,0,0:0:0:0:
20,357,34990,1,0,0:0:0:0:
9,364,35080,1,4,1:0:0:0:
87,190,35260,2,0,L|108:130,2,60,0|2|2,0:0|0:0|0:0,0:0:0:0:
60,269,35802,1,8,0:3:0:0:
107,338,35983,2,0,L|147:386,2,60,2|2|2,0:0|0:0|0:0,0:0:0:0:
58,274,36525,5,8,0:3:0:0:
141,251,36706,2,0,L|201:230,1,60,2|2,0:0|0:0,0:0:0:0:
263,158,37067,1,2,0:0:0:0:
336,245,37248,2,0,L|396:224,1,60,8|2,0:3|0:0,0:0:0:0:
338,337,37609,2,0,L|281:356,1,60,8|2,0:3|0:0,0:0:0:0:
440,383,37971,5,8,0:3:0:0:
468,303,38152,1,2,0:0:0:0:
473,291,38243,1,2,0:0:0:0:
478,280,38333,1,2,0:0:0:0:
512,197,38513,1,2,0:0:0:0:
416,218,38694,2,0,L|394:148,1,60,8|2,0:3|0:0,0:0:0:0:
480,95,39055,2,0,L|458:25,1,60,2|2,0:0|0:0,0:0:0:0:
458,26,39326,1,2,0:0:0:0:
455,14,39417,5,8,0:3:0:0:
390,136,39597,1,2,0:0:0:0:
395,148,39687,1,2,0:0:0:0:
398,160,39778,1,2,0:0:0:0:
296,99,39959,1,2,0:0:0:0:
231,219,40140,1,8,0:3:0:0:
159,171,40320,1,8,0:3:0:0:
86,265,40501,1,10,0:0:0:0:
91,277,40591,1,8,0:0:0:0:
94,289,40682,1,8,0:0:0:0:
99,301,40771,1,8,0:0:0:0:
104,318,40862,6,0,L|82:364,3,30,4|0|0|0,1:0|3:2|3:2|3:2,0:0:0:0:
182,247,41224,2,0,L|232:243,1,30,0|0,3:2|3:2,0:0:0:0:
80,217,41405,5,0,3:2:0:0:
80,217,41495,1,0,3:2:0:0:
80,217,41585,2,0,L|51:174,1,30,8|0,3:2|3:0,0:0:0:0:
101,108,41766,1,0,3:2:0:0:
91,104,41856,1,0,3:2:0:0:
81,101,41947,2,0,L|52:58,3,30,0|0|0|0,3:2|3:2|3:2|3:2,0:0:0:0:
180,80,42308,5,2,1:2:0:0:
197,48,42399,1,0,3:2:0:0:
225,26,42489,1,0,3:2:0:0:
260,22,42579,1,0,3:2:0:0:
294,34,42670,1,0,3:2:0:0:
289,49,42760,1,0,3:2:0:0:
283,66,42850,2,0,L|302:117,1,30,0|0,3:2|3:2,0:0:0:0:
407,121,43031,6,0,P|450:116|485:73,1,90.0000034332277,10|0,3:2|3:2,0:0:0:0:
340,172,43302,1,0,3:2:0:0:
340,172,43393,2,0,P|357:191|391:199,3,45.0000017166138,2|0|0|0,3:2|3:2|3:2|3:2,0:0:0:0:
465,239,43754,6,0,L|494:196,3,30,2|0|0|0,1:2|3:2|3:2|3:2,0:0:0:0:
458,340,44115,2,0,L|480:386,1,30,0|0,3:2|3:2,0:0:0:0:
370,286,44296,5,0,3:2:0:0:
370,286,44387,1,0,3:2:0:0:
370,286,44477,2,0,L|318:282,1,30,10|0,3:2|3:0,0:0:0:0:
296,369,44658,1,0,3:0:0:0:
286,362,44748,1,0,3:0:0:0:
278,356,44838,2,0,L|230:334,3,30,2|0|0|0,3:2|3:2|3:2|3:2,0:0:0:0:
97,378,45200,5,2,1:2:0:0:
138,379,45290,1,0,3:2:0:0:
169,352,45380,1,0,3:2:0:0:
178,310,45471,1,0,3:2:0:0:
166,298,45561,1,0,3:2:0:0:
152,294,45652,1,0,3:2:0:0:
137,300,45742,2,0,L|152:334,1,30,0|0,3:2|3:2,0:0:0:0:
60,219,45923,6,0,L|23:215,1,30,10|0,3:2|3:2,0:0:0:0:
189,162,46103,2,0,L|211:131,1,30,0|0,3:2|3:2,0:0:0:0:
137,216,46284,2,0,L|16:267,1,90.0000034332277,2|0,3:2|3:2,0:0:0:0:
97,141,46555,5,0,3:2:0:0:
97,141,46646,2,0,L|62:124,1,30,6|0,1:2|3:2,0:0:0:0:
206,137,46826,2,0,L|184:105,1,30,0|0,3:2|3:2,0:0:0:0:
299,182,47007,2,0,L|296:144,1,30,0|0,3:2|3:2,0:0:0:0:
93,99,47188,5,0,3:2:0:0:
93,99,47278,1,0,3:2:0:0:
93,99,47368,2,0,L|64:74,1,30,10|0,3:2|3:0,0:0:0:0:
203,87,47549,2,0,L|190:51,1,30,0|0,3:0|3:0,0:0:0:0:
305,132,47730,2,0,L|311:94,3,30,2|0|0|0,3:2|3:2|3:2|3:2,0:0:0:0:
396,79,48091,5,2,1:2:0:0:
423,46,48182,1,0,3:2:0:0:
464,44,48272,1,0,3:2:0:0:
497,69,48362,1,0,3:2:0:0:
510,109,48453,1,0,3:2:0:0:
499,120,48543,1,0,3:2:0:0:
485,123,48634,2,0,L|465:168,1,30,0|0,3:2|3:2,0:0:0:0:
371,213,48814,6,0,L|419:207,1,30,8|0,3:2|3:2,0:0:0:0:
509,271,48995,2,0,L|480:231,1,30,0|0,3:2|3:2,0:0:0:0:
409,303,49176,2,0,L|315:330,1,90.0000034332277,2|0,3:2|3:2,0:0:0:0:
262,384,49447,5,0,3:2:0:0:
262,384,49537,2,0,L|227:368,3,30,2|0|0|0,1:2|3:0|3:0|3:0,0:0:0:0:
182,305,49899,2,0,L|146:318,1,30,0|0,3:0|3:0,0:0:0:0:
71,318,50079,5,0,3:0:0:0:
71,318,50170,1,0,3:0:0:0:
71,318,50260,2,0,L|55:352,1,30,8|0,3:2|3:2,0:0:0:0:
113,217,50441,1,0,3:2:0:0:
113,217,50532,1,0,3:2:0:0:
113,217,50622,2,0,L|129:183,3,30,2|0|0|0,3:2|3:2|3:2|3:2,0:0:0:0:
44,148,50983,5,2,1:2:0:0:
45,106,51073,1,0,3:2:0:0:
77,79,51164,1,0,3:2:0:0:
118,75,51254,1,0,3:2:0:0:
150,101,51344,2,0,L|177:113,3,30,2|0|0|0,3:2|3:2|3:2|3:2,0:0:0:0:
239,60,51706,2,0,L|280:42,1,45.0000017166138,10|0,3:2|0:0,0:0:0:0:
512,52,51887,6,0,B|447:18|417:81|413:76|393:172|324:138,1,225.000008583069,4|0,0:3|0:0,0:0:0:0:
327,145,52429,6,0,P|340:175|351:221,1,52.500000500679,4|0,1:0|0:0,0:0:0:0:
503,247,52609,2,0,P|443:262|384:291,1,105.000001001358,2|0,0:0|1:2,0:0:0:0:
427,175,52971,1,2,0:0:0:0:
478,342,53152,1,2,1:2:0:0:
340,375,53332,2,0,P|289:370|268:305,1,105.000001001358,2|0,0:0|1:2,0:0:0:0:
318,146,53694,5,2,0:0:0:0:
233,185,53874,1,2,1:2:0:0:
310,229,54055,2,0,P|329:164|363:95,1,105.000001001358,2|0,0:0|1:2,0:0:0:0:
435,42,54417,1,2,0:0:0:0:
435,42,54597,1,2,1:2:0:0:
315,0,54778,2,0,P|294:28|258:36,1,52.500000500679,2|0,0:0|0:0,0:0:0:0:
205,3,54959,1,8,1:2:0:0:
143,155,55140,2,0,P|111:140|94:109,1,52.500000500679,2|0,3:2|3:2,0:0:0:0:
99,93,55320,6,0,P|49:95|6:146,2,105.000001001358,2|2|0,1:2|0:0|1:2,0:0:0:0:
53,212,55862,1,2,0:0:0:0:
196,287,56043,1,2,1:2:0:0:
29,373,56224,2,0,P|79:341|138:325,1,105.000001001358,2|0,0:0|1:2,0:0:0:0:
307,268,56585,5,2,0:0:0:0:
272,367,56766,1,2,1:2:0:0:
375,347,56947,1,2,0:0:0:0:
238,190,57127,2,0,P|265:229|340:235,1,105.000001001358,0|2,1:2|0:0,0:0:0:0:
484,79,57489,5,2,1:2:0:0:
390,103,57670,2,0,L|352:116,3,25,2|2|2|10,0:0|0:0|0:0|1:2,0:0:0:0:
416,24,58031,1,0,0:0:0:0:
501,177,58212,6,0,L|444:158,1,52.500000500679,2|0,1:2|0:0,0:0:0:0:
231,2,58393,2,0,B|278:16|278:16|287:29|287:29|340:46,1,105.000001001358,2|0,0:0|1:2,0:0:0:0:
488,81,58754,1,2,0:0:0:0:
363,189,58935,1,2,1:2:0:0:
453,278,59115,2,0,P|392:293|333:317,1,105.000001001358,2|0,0:0|1:2,0:0:0:0:
178,230,59477,5,2,0:0:0:0:
95,278,59657,1,2,1:2:0:0:
148,362,59838,2,0,P|206:355|239:303,1,105.000001001358,2|0,0:0|1:2,0:0:0:0:
45,191,60200,1,2,0:0:0:0:
45,191,60380,1,2,1:2:0:0:
101,98,60561,2,0,P|85:72|73:24,1,52.500000500679,2|0,0:0|0:0,0:0:0:0:
12,11,60742,1,10,1:2:0:0:
214,110,60923,2,0,P|204:138|188:163,1,52.500000500679,2|0,3:2|3:2,0:0:0:0:
216,185,61103,6,0,B|276:197|263:136|333:159,2,105.000001001358,2|2|0,1:2|0:0|1:2,0:0:0:0:
270,47,61646,1,2,0:0:0:0:
390,4,61826,1,2,1:2:0:0:
433,134,62007,2,0,P|397:203|383:263,1,105.000001001358,2|0,0:0|1:2,0:0:0:0:
443,384,62368,5,2,0:0:0:0:
512,317,62549,1,2,1:2:0:0:
477,225,62730,1,2,0:0:0:0:
368,330,62911,2,0,B|311:330|331:280|269:281,1,105.000001001358,0|2,1:2|0:0,0:0:0:0:
127,353,63272,5,2,1:2:0:0:
104,275,63453,2,0,L|88:230,3,25,10|2|2|10,0:0|0:0|0:0|1:2,0:0:0:0:
37,342,63814,1,0,0:0:0:0:
194,292,63995,6,0,L|305:328,1,90.0000034332277,2|0,1:2|0:0,0:0:0:0:
495,204,64356,2,0,L|409:176,1,90.0000034332277,0|0,1:2|0:0,0:0:0:0:
279,319,64718,1,2,1:2:0:0:
364,292,64899,1,0,0:0:0:0:
337,207,65079,1,0,1:2:0:0:
252,234,65260,1,2,0:0:0:0:
415,368,65441,5,2,1:2:0:0:
473,237,65621,2,0,P|504:275|496:328,1,90.0000034332277,0|2,0:0|1:2,0:0:0:0:
430,117,65983,2,0,P|478:121|510:165,1,90.0000034332277,0|2,0:0|1:2,0:0:0:0:
250,58,66344,2,0,P|262:38|290:20,1,45.0000017166138,0|0,3:0|0:0,0:0:0:0:
359,8,66525,1,8,1:2:0:0:
319,158,66706,5,0,3:0:0:0:
307,162,66796,1,0,3:0:0:0:
296,166,66887,2,0,L|205:198,1,90.0000034332277,2|0,1:2|0:0,0:0:0:0:
140,38,67248,1,0,1:2:0:0:
0,150,67429,1,0,0:0:0:0:
11,146,67520,2,0,L|101:113,1,90.0000034332277
114,126,67790,1,0,3:0:0:0:
62,245,67971,1,2,1:2:0:0:
181,297,68152,1,0,3:0:0:0:
88,355,68332,5,2,1:2:0:0:
227,176,68513,2,0,P|181:180|146:222,1,90.0000034332277,0|0,3:0|1:2,0:0:0:0:
345,155,68874,1,0,0:0:0:0:
350,139,68965,2,0,P|323:101|269:91,1,90.0000034332277,0|0,0:0|3:3,0:0:0:0:
468,239,69236,2,0,P|482:207|471:171,1,45.0000017166138,0|0,3:3|0:0,0:0:0:0:
438,131,69417,1,8,1:2:0:0:
509,323,69597,5,0,3:0:0:0:
509,323,69688,1,0,3:0:0:0:
509,323,69778,2,0,P|426:340|328:389,1,157.500001502037,4|0,1:1|0:0,0:0:0:0:
349,275,70140,2,0,P|383:279|411:313,2,70.000000667572,2|2|2,1:2|0:0|0:0,0:0:0:0:
184,360,70501,1,2,1:2:0:0:
238,202,70682,2,0,L|213:269,1,37.5,2|0,0:1|0:0,0:0:0:0:
232,263,70862,2,0,B|191:275|191:275|168:267|168:267|131:282,1,105.000001001358,10|0,0:0|0:0,0:0:0:0:
7,76,71224,6,0,B|66:94|66:94|101:83|101:83|157:105,1,157.500001502037,2|0,1:2|0:0,0:0:0:0:
159,17,71585,2,0,B|121:17|121:17|91:49,2,70.000000667572,2|2|2,1:2|0:0|0:0,0:0:0:0:
198,174,71947,1,2,1:2:0:0:
361,85,72127,1,0,3:0:0:0:
361,85,72218,1,0,3:0:0:0:
361,85,72308,2,0,P|345:57|337:12,1,52.500000500679,10|0,0:0|0:0,0:0:0:0:
262,78,72489,2,0,P|274:99|277:129,1,37.5
426,32,72670,6,0,P|485:42|512:109,1,135.000005149841,2|0,1:2|0:0,0:0:0:0:
454,166,73031,2,0,P|464:130|486:94,2,60.0000022888184,2|2|2,1:2|0:0|0:0,0:0:0:0:
392,211,73393,1,2,1:2:0:0:
452,364,73573,1,2,0:1:0:0:
452,364,73664,1,0,0:0:0:0:
452,364,73754,2,0,P|407:341|348:330,1,90.0000034332277,8|0,0:0|0:0,0:0:0:0:
505,271,74115,6,0,P|428:253|358:218,1,135.000005149841,0|0,1:2|0:0,0:0:0:0:
311,196,74477,2,0,P|326:227|335:261,2,60.0000022888184,2|2|2,1:2|0:0|0:0,0:0:0:0:
371,97,74838,1,2,1:2:0:0:
371,97,74929,1,2,0:0:0:0:
371,97,75019,2,0,P|378:67|364:29,1,45.0000017166138,2|0,0:0|0:0,0:0:0:0:
295,3,75200,2,0,P|269:10|249:26,1,45.0000017166138,10|0,0:0|0:0,0:0:0:0:
285,104,75380,2,0,P|268:116|286:106,1,60,2|0,0:0|0:0,0:0:0:0:
42,12,75561,6,0,P|86:85|108:179,1,157.500001502037,4|0,1:2|0:0,0:0:0:0:
187,119,75923,2,0,P|167:91|128:84,2,70.000000667572,2|2|2,1:2|0:0|0:0,0:0:0:0:
74,227,76284,1,2,1:2:0:0:
100,376,76465,2,0,P|110:351|128:326,1,37.5,2|0,0:1|0:0,0:0:0:0:
102,304,76646,2,0,P|50:274|-14:254,1,105.000001001358,10|0,0:0|0:0,0:0:0:0:
227,375,77007,6,0,P|299:365|328:278,1,157.500001502037,2|0,1:2|0:0,0:0:0:0:
298,320,77368,2,0,P|263:309|244:272,2,70.000000667572,2|2|2,1:2|0:0|0:0,0:0:0:0:
403,239,77730,1,2,1:2:0:0:
406,230,77820,1,0,0:0:0:0:
409,222,77911,1,0,0:0:0:0:
417,50,78091,2,0,P|408:81|389:113,1,52.500000500679,10|0,0:0|0:0,0:0:0:0:
489,121,78272,2,0,P|496:93|513:66,1,37.5,2|0,0:0|0:0,0:0:0:0:
338,27,78453,6,0,B|292:4|272:51|269:47|252:109|202:94,1,157.500001502037,2|0,1:2|0:0,0:0:0:0:
135,97,78814,2,0,P|165:127|185:166,2,70.000000667572,2|2|2,1:2|0:0|0:0,0:0:0:0:
187,5,79176,1,2,1:2:0:0:
59,1,79356,1,2,0:1:0:0:
57,126,79537,2,0,P|31:180|10:252,1,105.000001001358,8|0,0:0|0:0,0:0:0:0:
0,315,79899,6,0,B|45:292|65:339|68:335|85:397|135:382,1,157.500001502037,2|0,1:2|0:0,0:0:0:0:
157,291,80260,2,0,P|121:296|94:331,2,70.000000667572,2|2|2,1:2|0:0|0:0,0:0:0:0:
248,229,80621,1,2,1:2:0:0:
248,229,80712,1,2,0:0:0:0:
248,229,80802,2,0,P|271:247|319:262,1,52.500000500679,10|0,0:0|0:0,0:0:0:0:
349,335,80983,2,0,P|372:317|420:302,1,52.500000500679,8|0,0:0|0:0,0:0:0:0:
496,240,81164,5,2,0:0:0:0:
496,240,81254,1,0,0:0:0:0:
496,240,81344,2,0,P|421:191|325:166,1,157.500001502037,4|0,1:0|0:0,0:0:0:0:
460,91,81706,2,0,P|441:99|408:108,2,40,2|2|2,1:2|0:0|0:0,0:0:0:0:
506,152,82067,1,2,1:2:0:0:
380,40,82248,1,2,0:1:0:0:
263,105,82429,1,10,0:2:0:0:
263,105,82519,1,0,0:0:0:0:
263,105,82609,2,0,P|243:134|233:170,1,45.0000017166138
131,171,82790,6,0,P|159:118|198:-6,1,157.500001502037,2|0,1:2|0:0,0:0:0:0:
73,86,83152,2,0,P|83:69|90:49,2,40,2|2|2,1:2|0:0|0:0,0:0:0:0:
3,163,83513,1,2,1:2:0:0:
7,171,83603,1,0,0:0:0:0:
11,178,83694,1,0,0:0:0:0:
25,296,83874,2,0,P|55:288|80:274,1,52.500000500679,10|0,0:0|0:0,0:0:0:0:
95,363,84055,2,0,P|73:368|52:378,1,37.5
217,273,84236,6,0,B|238:229|193:209|197:207|137:191|152:143,1,157.500001502037,2|0,1:2|0:0,0:0:0:0:
174,68,84597,2,0,P|179:48|190:32,2,40,2|2|2,1:2|0:0|0:0,0:0:0:0:
101,25,84959,1,2,1:2:0:0:
255,82,85140,1,2,0:1:0:0:
388,18,85320,2,0,B|393:59|356:65|359:67|329:82|335:111,1,105.000001001358,8|0,0:0|0:0,0:0:0:0:
512,212,85682,6,0,P|432:231|336:298,1,157.500001502037,2|0,1:2|0:0,0:0:0:0:
383,175,86043,2,0,P|399:164|418:158,2,40,2|2|2,1:2|0:0|0:0,0:0:0:0:
386,349,86405,1,2,1:2:0:0:
248,319,86585,1,0,0:0:0:0:
248,319,86676,1,0,0:0:0:0:
248,319,86766,2,0,P|260:348|245:388,1,60,10|0,0:0|0:0,0:0:0:0:
97,310,86947,2,0,P|116:284|158:277,1,60
4,369,87127,5,0,1:2:0:0:
0,373,87670,1,0,1:2:0:0:
193,322,87850,2,0,L|150:193,1,135.000005149841,0|0,1:2|0:0,0:0:0:0:
65,221,88212,2,0,L|159:190,1,90.0000034332277,8|8,0:3|1:3,0:0:0:0:
366,193,88573,6,0,L|327:75,1,112.5,0|0,1:2|0:0,0:0:0:0:
224,122,88935,2,0,L|341:83,1,112.5,4|0,1:3|0:0,0:0:0:0:
454,39,89296,6,0,L|440:-2,1,37.5,8|0,0:0|0:0,0:0:0:0:
402,11,89477,2,0,L|443:-2,1,37.5,8|0,0:0|0:0,0:0:0:0:
471,155,89658,2,0,B|458:156|446:166|446:166|449:138|491:125|534:152|538:202|496:242,1,180,0|0,1:0|0:0,0:0:0:0:
507,230,90019,6,0,B|452:209|428:274|426:269|402:317|354:291,1,180.000006866455,6|0,1:2|0:0,0:0:0:0:
428,368,90561,1,0,0:0:0:0:
372,213,90742,1,2,0:0:0:0:
372,213,90923,2,0,P|328:201|289:179,2,90.0000034332277,0|2|0,1:2|0:0|0:0,0:0:0:0:
343,377,91465,6,0,P|286:343|208:324,1,135.000005149841,2|0,1:2|0:0,0:0:0:0:
98,384,91826,2,0,L|89:363,3,22.5000008583069,0|0|0|0,3:0|3:0|3:0|3:0,0:0:0:0:
1,335,92188,1,0,3:0:0:0:
143,295,92368,2,0,P|111:261|65:256,1,90.0000034332277,0|2,0:0|0:0,0:0:0:0:
58,263,92640,1,0,0:0:0:0:
49,273,92730,1,0,0:0:0:0:
0,174,92911,6,0,P|86:153|181:103,1,180.000006866455,2|0,1:2|0:0,0:0:0:0:
111,37,93453,1,0,0:0:0:0:
265,91,93634,1,0,0:0:0:0:
207,10,93814,1,0,1:2:0:0:
167,112,93995,1,10,0:0:0:0:
170,120,94085,1,8,0:0:0:0:
173,128,94176,1,8,0:0:0:0:
175,136,94266,1,8,0:0:0:0:
178,144,94356,5,2,1:2:0:0:
102,250,94537,1,4,0:3:0:0:
102,250,94718,2,0,P|144:253|178:298,1,90.0000034332277
307,185,95079,2,0,P|270:208|259:251,1,90.0000034332277,2|0,0:0|1:2,0:0:0:0:
245,346,95441,1,0,0:0:0:0:
248,354,95532,1,0,0:0:0:0:
250,362,95622,1,2,0:0:0:0:
387,384,95802,6,0,B|366:329|431:305|426:303|474:279|448:231,1,180.000006866455,2|0,1:2|0:0,0:0:0:0:
352,258,96344,1,0,0:0:0:0:
512,159,96525,1,2,0:0:0:0:
512,159,96706,2,0,P|464:148|437:109,1,90.0000034332277,0|2,1:2|0:0,0:0:0:0:
318,0,97067,1,0,0:0:0:0:
306,83,97248,6,0,P|353:77|405:-4,1,135.000005149841,2|0,1:2|0:0,0:0:0:0:
370,162,97609,2,0,L|358:193,3,22.5000008583069,0|0|0|0,3:0|3:0|3:0|3:0,0:0:0:0:
332,260,97971,1,0,3:0:0:0:
437,215,98152,2,0,B|476:246|476:246|467:299,1,90.0000034332277,0|2,0:0|0:0,0:0:0:0:
512,361,98453,2,0,L|452:380,1,60.0000022888184,2|2,0:0|0:0,0:0:0:0:
386,312,98694,6,0,B|322:286|322:286|287:301|287:301|214:274,1,180.000006866455,2|0,1:2|0:0,0:0:0:0:
289,218,99236,1,2,0:0:0:0:
141,317,99417,1,0,0:0:0:0:
208,368,99597,1,0,1:2:0:0:
68,269,99778,1,8,0:0:0:0:
64,261,99868,1,8,0:0:0:0:
61,253,99959,1,8,0:0:0:0:
58,245,100049,1,8,0:0:0:0:
55,237,100140,5,2,1:2:0:0:
134,108,100320,2,0,L|-1:157,1,135.000005149841,4|0,0:3|0:0,0:0:0:0:
8,73,100682,2,0,L|65:94,1,45.0000017166138
137,204,100862,2,0,L|243:240,1,90.0000034332277,2|0,0:0|1:2,0:0:0:0:
419,299,101224,1,2,3:2:0:0:
431,304,101314,1,0,3:0:0:0:
442,308,101405,1,0,3:0:0:0:
334,356,101585,5,6,1:2:0:0:
358,232,101766,2,0,P|395:205|455:205,2,90.0000034332277,0|2|2,0:0|0:0|0:0,0:0:0:0:
205,198,102308,1,2,0:0:0:0:
211,274,102489,2,0,P|218:228|260:186,1,90.0000034332277,0|0,1:2|0:0,0:0:0:0:
69,335,102850,1,2,0:0:0:0:
135,381,103031,6,0,P|100:343|96:244,1,135.000005149841,2|0,1:2|0:0,0:0:0:0:
35,93,103393,2,0,L|24:121,3,22.5000008583069,0|0|0|0,3:0|3:0|3:0|3:0,0:0:0:0:
66,22,103754,1,2,3:2:0:0:
0,204,103935,2,0,L|102:169,1,90.0000034332277
98,171,104206,1,0,0:0:0:0:
110,166,104296,1,0,0:0:0:0:
313,5,104477,6,0,B|234:31|234:31|234:36|234:36|125:75,1,180.000006866455,2|0,1:2|0:0,0:0:0:0:
66,22,105019,1,2,0:0:0:0:
235,117,105200,1,0,0:0:0:0:
190,208,105380,1,0,1:2:0:0:
275,261,105561,1,8,0:0:0:0:
283,257,105651,1,8,0:0:0:0:
291,254,105742,1,8,0:0:0:0:
299,251,105832,1,8,0:0:0:0:
307,248,105923,5,2,1:2:0:0:
495,178,106103,2,0,L|439:201,1,45.0000017166138,4|0,0:3|0:0,0:0:0:0:
434,355,106284,2,0,L|402:270,2,90.0000034332277,2|0|0,0:0|0:0|0:0,0:0:0:0:
329,81,106826,1,2,1:2:0:0:
362,159,107007,1,2,0:0:0:0:
365,167,107098,1,0,0:0:0:0:
368,175,107188,1,2,0:0:0:0:
427,11,107368,5,2,1:2:0:0:
512,78,107549,2,0,P|478:107|435:115,2,90.0000034332277,0|2|2,0:0|0:0|0:0,0:0:0:0:
320,244,108091,1,2,0:0:0:0:
400,224,108272,2,0,P|355:221|319:195,1,90.0000034332277,2|2,1:2|0:0,0:0:0:0:
142,187,108634,1,2,0:0:0:0:
206,229,108814,6,0,P|174:184|171:107,1,135.000005149841,2|0,1:2|0:0,0:0:0:0:
91,84,109176,2,0,L|70:92,3,22.5000008583069,0|0|0|0,3:0|3:0|3:0|3:0,0:0:0:0:
136,9,109537,1,0,3:0:0:0:
219,38,109718,2,0,L|311:0,1,90.0000034332277,0|2,0:0|3:2,0:0:0:0:
314,9,109989,1,0,3:2:0:0:
325,15,110079,1,0,3:2:0:0:
511,175,110260,6,0,B|456:196|432:131|430:136|406:88|358:117,1,180.000006866455,2|0,1:2|0:0,0:0:0:0:
417,33,110802,1,2,0:0:0:0:
272,104,110983,1,0,0:0:0:0:
320,192,111164,1,0,1:2:0:0:
274,335,111344,1,10,0:0:0:0:
270,343,111434,1,8,0:0:0:0:
267,351,111525,1,8,0:0:0:0:
264,359,111615,1,8,0:0:0:0:
261,367,111706,5,0,1:2:0:0:
233,243,111887,2,0,L|148:213,1,90.0000034332277,4|2,0:3|0:0,0:0:0:0:
147,325,112248,2,0,L|197:307,1,45.0000017166138
443,312,112429,2,0,L|359:283,2,90.0000034332277,2|0|2,0:0|1:2|0:0,0:0:0:0:
316,196,112971,1,2,0:0:0:0:
474,150,113152,5,0,1:2:0:0:
428,166,113332,1,0,0:0:0:0:
398,128,113513,1,8,0:0:0:0:
425,88,113694,1,8,0:0:0:0:
472,102,113874,1,8,0:0:0:0:
293,47,114236,5,0,1:2:0:0:
265,101,114416,1,0,0:0:0:0:
204,94,114597,1,8,0:0:0:0:
193,34,114778,1,8,0:0:0:0:
247,5,114958,1,8,0:0:0:0:
115,163,115320,5,0,1:2:0:0:
137,235,115500,1,0,0:0:0:0:
77,284,115681,1,8,0:0:0:0:
13,240,115862,1,8,0:0:0:0:
35,165,116042,1,8,0:0:0:0:
3,323,116224,1,0,0:0:0:0:
168,370,116405,5,0,1:2:0:0:
175,364,116495,1,0,3:0:0:0:
184,357,116585,1,0,3:0:0:0:
192,351,116676,1,0,3:0:0:0:
201,346,116766,5,8,0:0:0:0:
297,384,116946,1,8,0:0:0:0:
364,305,117127,1,8,0:0:0:0:
364,305,117308,1,0,0:0:0:0:
309,217,117489,1,8,0:3:0:0:
208,242,117670,1,0,0:0:0:0:
389,165,117850,5,4,0:3:0:0:
317,121,118031,1,0,0:0:0:0:
484,116,118212,5,0,1:2:0:0:
491,80,118392,1,0,0:0:0:0:
473,49,118573,1,8,0:0:0:0:
437,41,118754,1,8,0:0:0:0:
407,60,118934,1,8,0:0:0:0:
174,271,119296,5,0,1:2:0:0:
162,213,119476,1,0,0:0:0:0:
191,164,119657,1,8,0:0:0:0:
248,151,119838,1,8,0:0:0:0:
296,181,120018,1,8,0:0:0:0:
494,378,120380,5,0,1:2:0:0:
510,300,120560,1,0,0:0:0:0:
471,235,120741,1,8,0:0:0:0:
395,217,120922,1,8,0:0:0:0:
331,257,121102,1,8,0:0:0:0:
137,360,121465,5,0,1:2:0:0:
146,363,121555,1,0,3:0:0:0:
155,367,121646,1,0,3:0:0:0:
165,372,121736,1,0,3:0:0:0:
173,376,121827,5,8,0:0:0:0:
152,277,122007,1,10,0:0:0:0:
202,195,122188,1,8,0:0:0:0:
297,172,122369,1,2,0:0:0:0:
384,215,122549,1,8,0:3:0:0:
403,308,122730,1,0,3:0:0:0:
403,308,122820,1,0,3:0:0:0:
403,308,122910,1,8,0:0:0:0:
343,375,123091,1,8,0:0:0:0:
219,225,123272,6,0,P|173:239|106:273,1,96,2|0,1:2|0:0,0:0:0:0:
79,317,123543,1,0,0:0:0:0:
79,317,123633,1,2,1:2:0:0:
14,147,123814,1,2,0:0:0:0:
19,140,123904,1,0,0:0:0:0:
24,130,123994,2,0,P|17:99|-1:62,1,48,2|0,1:2|0:0,0:0:0:0:
137,53,124175,2,0,P|142:78|151:103,1,48
103,172,124356,1,2,1:2:0:0:
58,24,124537,1,2,0:0:0:0:
229,47,124717,6,0,B|288:54|269:100|326:103,1,105.000001001358,2|0,1:2|0:0,0:0:0:0:
300,186,124988,1,0,0:0:0:0:
305,177,125079,2,0,P|350:148|415:130,1,96,2|2,1:2|0:0,0:0:0:0:
469,116,125350,1,0,0:0:0:0:
473,104,125440,2,0,L|491:53,2,45.0000017166138,2|0|0,1:2|0:0|0:0,0:0:0:0:
426,247,125802,1,2,1:2:0:0:
417,267,125892,1,0,0:0:0:0:
409,287,125982,1,2,0:0:0:0:
507,223,126163,5,2,1:2:0:0:
331,316,126344,1,0,0:0:0:0:
336,327,126434,1,0,0:0:0:0:
341,339,126524,1,2,1:2:0:0:
426,380,126705,1,2,0:0:0:0:
250,275,126886,2,0,P|209:303|143:321,1,96,2|0,1:2|0:0,0:0:0:0:
110,371,127157,1,0,0:0:0:0:
110,371,127247,1,2,1:2:0:0:
23,255,127428,1,2,0:0:0:0:
183,168,127609,6,0,P|141:141|71:129,1,105.000001001358,2|0,1:2|0:0,0:0:0:0:
21,167,127880,1,0,0:0:0:0:
15,155,127970,2,0,P|42:105|54:51,1,96,2|2,1:2|0:0,0:0:0:0:
145,35,128241,5,0,0:0:0:0:
150,45,128332,2,0,P|173:56|199:61,2,52.500000500679,2|0|2,1:2|0:0|0:0,0:0:0:0:
364,91,128693,2,0,P|353:55|355:19,1,52.500000500679,2|0,1:2|0:0,0:0:0:0:
361,170,128874,2,0,P|385:142|419:127,1,52.500000500679
287,138,129055,5,2,1:2:0:0:
479,61,129235,1,0,0:0:0:0:
491,54,129326,1,0,0:0:0:0:
504,49,129416,1,2,1:2:0:0:
422,0,129597,1,2,0:0:0:0:
475,173,129778,2,0,P|496:157|512:137,3,52.500000500679,2|0|0|0,1:2|0:0|0:0|0:0,0:0:0:0:
391,257,130139,2,0,P|416:260|442:255,3,45.0000017166138,2|0|2|0,1:2|0:0|0:0|0:0,0:0:0:0:
315,277,130500,6,0,P|337:290|363:295,1,45.0000017166138,2|0,1:2|0:0,0:0:0:0:
198,326,130681,2,0,P|198:352|206:377,1,45.0000017166138
219,247,130862,2,0,P|228:271|244:292,1,45.0000017166138,2|0,1:2|0:0,0:0:0:0:
107,171,131043,2,0,P|90:191|80:215,1,45.0000017166138,2|0,0:0|0:0,0:0:0:0:
187,154,131223,2,0,P|164:167|146:186,1,45.0000017166138,2|0,1:2|0:0,0:0:0:0:
135,274,131404,6,0,L|106:284,1,30
41,365,131585,2,0,L|45:335,1,30,2|0,1:2|0:0,0:0:0:0:
1,243,131765,2,0,L|24:262,1,30,2|0,0:0|0:0,0:0:0:0:
28,153,131946,6,0,P|10:133|-1:110,3,45.0000017166138,2|0|0|0,1:2|0:0|0:0|0:0,0:0:0:0:
130,80,132308,2,0,P|137:54|152:33,3,45.0000017166138,2|0|2|0,1:2|0:0|0:0|0:0,0:0:0:0:
295,119,132669,6,0,P|268:116|243:122,1,45.0000017166138,2|0,1:2|0:0,0:0:0:0:
371,65,132850,2,0,P|351:53|330:47,1,45.0000017166138
457,86,133031,2,0,P|456:67|450:49,1,37.5,2|0,1:2|0:0,0:0:0:0:
445,164,133211,2,0,P|460:153|473:140,1,30
511,222,133392,5,2,1:2:0:0:
388,260,133573,1,0,0:0:0:0:
264,299,133753,2,0,P|292:306|320:319,1,45.0000017166138,2|0,1:2|0:0,0:0:0:0:
375,354,133934,1,2,0:0:0:0:
449,168,134115,1,2,1:2:0:0:
511,222,134296,2,0,P|482:214|454:201,1,45.0000017166138
209,350,134476,2,0,P|271:322|341:304,1,105.000001001358,2|0,1:2|0:0,0:0:0:0:
168,215,134838,6,0,P|104:246|-19:279,1,157.500001502037,6|0,1:2|0:0,0:0:0:0:
55,347,135199,2,0,P|107:327|108:263,1,105.000001001358,0|2,1:2|0:0,0:0:0:0:
206,110,135561,2,0,P|270:141|393:174,1,157.500001502037,2|0,1:2|0:0,0:0:0:0:
317,245,135922,2,0,P|267:223|266:159,1,105.000001001358,0|2,1:2|0:0,0:0:0:0:
79,12,136284,5,2,1:2:0:0:
206,110,136464,2,0,P|225:86|223:42,2,52.500000500679,0|0|2,0:0|0:0|1:2,0:0:0:0:
116,95,136826,1,2,0:0:0:0:
116,95,137006,1,2,1:2:0:0:
53,166,137187,2,0,P|24:154|4:114,2,52.500000500679,2|2|2,0:0|0:0|1:2,0:0:0:0:
151,180,137549,1,2,0:0:0:0:
129,371,137729,6,0,P|78:349|104:247,1,157.500001502037,2|0,1:2|0:0,0:0:0:0:
5,246,138091,2,0,P|69:277|130:294,1,105.000001001358,0|2,1:2|0:0,0:0:0:0:
274,234,138452,2,0,P|325:212|299:110,1,157.500001502037,2|0,1:2|0:0,0:0:0:0:
297,123,138814,1,0,1:2:0:0:
424,383,138994,6,0,P|370:356|313:338,2,105.000001001358,2|8|8,0:0|0:0|0:3,0:0:0:0:
500,228,139446,1,8,0:3:0:0:
492,237,139537,2,0,P|437:265|381:284,1,105.000001001358,8|8,1:3|0:0,0:0:0:0:
183,238,139898,1,0,1:2:0:0:
273,205,140079,1,0,0:0:0:0:
179,350,140259,1,8,1:2:0:0:
54,275,140440,1,0,0:0:0:0:
52,355,140621,6,0,P|71:329|82:284,1,60,2|0,1:2|0:0,0:0:0:0:
0,204,140802,2,0,P|31:199|71:175,1,60
43,89,140982,2,0,P|69:108|114:119,1,52.500000500679,2|0,1:2|0:0,0:0:0:0:
154,68,141163,2,0,P|158:99|182:139,1,52.500000500679
239,119,141344,2,0,P|220:144|208:189,1,45.0000017166138,2|0,1:2|0:0,0:0:0:0:
214,209,141525,2,0,P|185:221|152:254,3,45.0000017166138,0|0|2|0,0:0|0:0|1:2|0:0,0:0:0:0:
290,299,141886,5,0,0:0:0:0:
290,299,141976,1,0,0:0:0:0:
290,299,142067,2,0,P|291:268|280:241,1,52.500000500679,2|0,1:2|0:0,0:0:0:0:
457,357,142247,1,0,0:0:0:0:
457,357,142337,1,0,0:0:0:0:
457,357,142428,2,0,P|477:334|503:323,1,52.500000500679,2|0,1:2|0:0,0:0:0:0:
356,367,142609,5,0,0:0:0:0:
356,367,142699,1,0,0:0:0:0:
356,367,142790,2,0,L|409:237,1,105.000001001358,2|0,1:2|0:0,0:0:0:0:
474,200,143151,1,2,1:2:0:0:
341,104,143332,1,0,0:0:0:0:
512,109,143512,6,0,B|461:123|449:74|446:78|444:8|392:21,1,157.500001502037,2|0,1:2|0:0,0:0:0:0:
512,21,143874,2,0,P|458:54|389:76,1,105.000001001358,0|2,1:2|0:0,0:0:0:0:
200,244,144235,2,0,B|209:192|257:202|256:198|320:227|330:174,1,157.500001502037,2|0,1:2|0:0,0:0:0:0:
272,286,144597,2,0,P|270:222|285:151,1,105.000001001358,0|2,1:2|0:0,0:0:0:0:
117,83,144958,6,0,P|58:85|26:49,1,105.000001001358,10|0,0:0|0:0,0:0:0:0:
27,40,145229,1,8,0:3:0:0:
38,30,145320,1,8,1:3:0:0:
200,127,145500,1,8,0:0:0:0:
13,237,145681,6,0,P|36:216|61:205,1,45.0000017166138,2|0,1:2|0:0,0:0:0:0:
30,325,145862,2,0,P|23:294|29:259,1,51.0000009727478
159,370,146043,2,0,P|129:360|101:337,1,56.9999984779358,10|0,1:2|0:0,0:0:0:0:
296,243,146223,2,0,P|273:264|239:276,1,62.9999980773926
166,282,146404,5,6,1:2:0:0:
49,210,146585,1,2,0:0:0:0:
43,199,146675,1,2,0:0:0:0:
44,187,146765,1,2,1:2:0:0:
162,278,146946,5,8,0:0:0:0:
112,139,147128,1,2,1:2:0:0:
117,115,147218,1,2,0:0:0:0:
134,102,147308,1,2,0:0:0:0:
158,274,147488,5,8,0:0:0:0:
209,135,147670,1,2,0:0:0:0:
244,110,147760,1,2,0:0:0:0:
281,115,147850,1,2,1:2:0:0:
154,270,148031,5,8,0:0:0:0:
278,200,148211,1,8,1:2:0:0:
302,205,148301,1,8,0:0:0:0:
315,222,148391,1,8,0:0:0:0:
321,242,148482,1,8,0:0:0:0:
312,261,148573,1,0,1:2:0:0:
474,369,148753,6,0,P|488:308|525:232,1,105.000001001358,8|0,0:0|1:2,0:0:0:0:
439,229,149025,1,0,0:0:0:0:
439,229,149115,2,0,P|422:202|408:162,1,52.500000500679,2|2,0:0|0:0,0:0:0:0:
490,41,149296,5,2,1:2:0:0:
409,10,149476,1,2,0:0:0:0:
397,5,149567,1,2,0:0:0:0:
385,0,149657,1,2,1:2:0:0:
245,148,149838,5,8,0:0:0:0:
333,108,150018,1,2,1:2:0:0:
345,103,150109,1,2,0:0:0:0:
357,98,150199,1,2,0:0:0:0:
475,223,150380,5,8,1:2:0:0:
458,215,150470,1,8,0:0:0:0:
441,207,150561,1,8,0:0:0:0:
424,200,150651,1,8,0:0:0:0:
407,193,150741,1,0,1:2:0:0:
202,373,150922,5,4,0:3:0:0:
290,333,151102,1,2,1:2:0:0:
378,293,151284,1,0,0:0:0:0:
448,355,151464,5,2,1:2:0:0:
310,176,151645,2,0,P|294:230|245:249,1,105.000001001358,8|0,0:0|1:2,0:0:0:0:
181,209,151916,1,0,0:0:0:0:
181,209,152006,2,0,P|151:203|126:187,1,52.500000500679,2|2,0:0|0:0,0:0:0:0:
32,64,152187,5,2,1:2:0:0:
105,0,152368,2,0,P|126:5|146:19,2,30,0|0|0,3:0|3:0|3:0,0:0:0:0:
210,116,152729,1,8,0:0:0:0:
266,0,152910,2,0,P|281:24|288:58,2,37.5,0|0|0,3:0|3:0|3:0,0:0:0:0:
259,200,153272,1,8,0:0:0:0:
379,115,153452,2,0,P|373:143|353:172,2,45.0000017166138,0|0|0,0:0|0:0|1:2,0:0:0:0:
211,288,153814,1,0,0:0:0:0:
366,250,153994,2,0,P|341:265|307:272,1,37.5,8|8,0:0|0:0,0:0:0:0:
292,305,154175,2,0,P|263:297|234:278,1,37.5,8|8,0:0|0:0,0:0:0:0:
178,214,154356,1,8,0:0:0:0:
22,369,154537,6,0,P|64:336|134:315,1,105.000001001358,8|8,0:0|0:0,0:0:0:0:
184,361,154808,1,8,0:0:0:0:
184,361,154898,2,0,P|209:376|238:384,1,52.500000500679,2|2,1:2|0:0,0:0:0:0:
414,317,155079,5,2,1:2:0:0:
492,282,155259,2,0,L|503:316,2,22.5000008583069,0|0|0,3:0|3:0|3:0,0:0:0:0:
313,203,155621,1,8,0:0:0:0:
240,161,155802,2,0,L|230:189,2,22.5000008583069,0|0|0,3:0|3:0|3:0,0:0:0:0:
363,19,156163,2,0,L|375:55,3,22.5000008583069,8|8|8|8,0:0|0:0|0:0|0:0,0:0:0:0:
285,50,156525,5,0,1:2:0:0:
221,10,156705,1,4,0:3:0:0:
145,28,156886,1,0,1:2:0:0:
109,97,157067,1,0,0:0:0:0:
186,127,157247,5,0,1:2:0:0:
461,192,157428,1,8,0:0:0:0:
468,156,157518,1,0,1:2:0:0:
450,125,157609,1,0,3:0:0:0:
414,117,157699,1,4,0:3:0:0:
384,136,157790,1,0,1:2:0:0:
378,152,157880,1,0,3:0:0:0:
387,164,157970,6,0,P|371:193|363:220,1,60,4|0,1:0|0:0,0:0:0:0:
424,333,158152,2,0,P|365:277|266:251,1,180,2|0,0:0|0:0,0:0:0:0:
244,265,158513,1,0,0:0:0:0:
190,348,158693,2,0,P|208:375|246:387,1,52.500000500679,8|8,0:3|0:3,0:0:0:0:
308,372,158874,2,0,P|343:339|339:276,2,105.000001001358,8|0|8,0:3|1:2|0:0,0:0:0:0:
266,263,159326,5,0,0:0:0:0:
272,251,159416,2,0,L|295:187,1,60,2|0,1:0|0:0,0:0:0:0:
313,40,159597,2,0,P|289:67|252:81,1,52.500000500679,2|0,0:0|0:0,0:0:0:0:
496,133,159778,1,2,1:2:0:0:
496,133,159958,2,0,P|475:106|469:74,1,52.500000500679,10|0,0:0|0:0,0:0:0:0:
411,8,160139,2,0,L|365:147,1,120,2|8,1:2|0:0,0:0:0:0:
235,142,160500,1,2,1:2:0:0:
127,27,160681,1,2,0:0:0:0:
63,101,160862,6,0,P|90:78|128:63,1,67.5000025749208,4|0,1:3|0:0,0:0:0:0:
247,231,161043,1,0,0:0:0:0:
247,231,161223,2,0,P|209:192|144:170,1,105.000001001358,2|10,1:2|0:0,0:0:0:0:
0,370,161585,2,0,P|36:334|105:307,1,105.000001001358,0|10,1:2|0:0,0:0:0:0:
136,251,161856,1,0,0:0:0:0:
142,264,161946,2,0,P|160:282|194:295,1,52.500000500679,2|0,1:2|0:0,0:0:0:0:
353,175,162127,1,2,0:0:0:0:
355,379,162308,6,0,B|379:330|329:308|333:305|266:287|282:233,1,180,2|0,1:0|0:0,0:0:0:0:
262,342,162669,2,0,P|325:306|390:289,1,120,2|8,1:2|0:0,0:0:0:0:
458,337,162941,1,0,0:0:0:0:
453,324,163031,2,0,P|473:255|512:186,1,105.000001001358,0|8,1:2|0:0,0:0:0:0:
441,166,163302,1,8,0:0:0:0:
441,166,163392,2,0,P|423:143|410:105,1,45.0000017166138,8|8,0:0|0:3,0:0:0:0:
440,53,163573,1,8,0:3:0:0:
206,61,163753,5,6,1:2:0:0:
210,49,163844,1,0,3:2:0:0:
215,39,163934,2,0,P|232:20|268:7,1,45.0000017166138,0|0,3:2|3:2,0:0:0:0:
108,118,164115,1,2,1:2:0:0:
105,103,164206,1,0,3:2:0:0:
105,90,164296,2,0,P|111:62|138:31,1,45.0000017166138,0|0,3:2|3:2,0:0:0:0:
80,239,164476,5,2,1:2:0:0:
64,230,164567,1,0,3:2:0:0:
51,217,164657,2,0,P|33:188|30:152,1,52.500000500679,0|0,3:2|3:2,0:0:0:0:
144,328,164838,2,0,P|105:328|68:311,1,52.500000500679,0|0,1:2|3:2,0:0:0:0:
175,200,165018,5,2,3:2:0:0:
175,200,165109,1,0,3:2:0:0:
175,200,165199,2,0,P|184:175|203:154,1,37.5,2|0,1:0|3:2,0:0:0:0:
261,213,165380,2,0,P|283:203|309:201,1,37.5,2|0,3:2|3:2,0:0:0:0:
195,140,165561,6,0,P|226:115|268:101,1,45.0000017166138,2|0,1:2|3:2,0:0:0:0:
316,176,165741,2,0,P|355:181|395:200,1,45.0000017166138,2|0,3:2|3:2,0:0:0:0:
245,82,165922,6,0,P|284:76|327:85,1,52.500000500679,2|0,1:2|3:2,0:0:0:0:
389,167,166103,2,0,P|420:191|445:227,1,52.500000500679,2|0,3:2|3:2,0:0:0:0:
323,51,166284,6,0,P|360:66|393:94,1,60,2|0,1:2|3:2,0:0:0:0:
459,195,166464,2,0,P|473:231|477:274,1,60,0|0,3:2|3:2,0:0:0:0:
445,328,166645,5,4,1:3:0:0:
318,291,166826,1,8,0:3:0:0:
305,285,166916,1,8,0:3:0:0:
292,279,167006,2,0,P|251:297|198:339,1,105.000001001358,8|8,0:3|0:0,0:0:0:0:
0,156,167368,2,0,P|56:174|110:209,1,105.000001001358,0|8,1:2|0:0,0:0:0:0:
152,258,167640,1,8,0:0:0:0:
152,258,167729,1,8,0:0:0:0:
99,102,167911,1,10,0:0:0:0:
28,53,168091,5,2,1:2:0:0:
181,7,168272,1,4,0:3:0:0:
227,160,168452,1,2,1:2:0:0:
294,114,168633,2,0,P|276:146|261:195,1,45.0000017166138,2|0,0:0|0:0,0:0:0:0:
102,279,168814,1,2,1:2:0:0:
102,279,168904,1,0,0:0:0:0:
102,279,168994,2,0,P|119:246|135:198,1,45.0000017166138,10|0,0:0|0:0,0:0:0:0:
51,342,169175,1,2,1:2:0:0:
170,382,169356,1,0,0:0:0:0:
212,244,169537,6,0,P|255:303|352:314,1,120,6|2,1:2|0:0,0:0:0:0:
380,373,169808,1,2,0:0:0:0:
380,373,169898,2,0,P|431:335|440:251,1,107.999996704102,2|2,0:0|0:0,0:0:0:0:
510,231,170169,1,2,0:0:0:0:
510,231,170259,2,0,P|475:184|400:176,1,96,2|2,0:0|0:0,0:0:0:0:
378,99,170531,1,2,0:0:0:0:
378,99,170621,2,0,P|337:128|324:194,1,83.9999974365235,2|2,0:0|0:0,0:0:0:0:
382,230,170892,5,2,0:0:0:0:
382,230,170982,2,0,L|302:261,1,45.0000017166138,2|0,0:0|0:0,0:0:0:0:
166,316,171163,2,0,L|285:272,2,96,2|2|2,0:0|0:0|0:0,0:0:0:0:
30,378,171705,2,0,B|3:324|58:300|53:297|126:277|109:219,1,192,2|2,0:0|0:0,0:0:0:0:
110,222,172247,1,0,0:0:0:0:
0,0,172428,6,0,P|37:80|52:147,1,120,6|0,1:2|0:0,0:0:0:0:
131,148,172699,1,0,0:0:0:0:
131,148,172790,2,0,P|148:90|178:38,1,102.000001945496,0|2,1:2|0:0,0:0:0:0:
254,9,173061,1,0,0:0:0:0:
254,9,173151,2,0,P|280:66|291:115,1,83.9999974365235,2|0,1:2|0:0,0:0:0:0:
340,175,173422,1,0,0:0:0:0:
340,175,173513,2,0,P|352:135|372:99,1,66.0000020141602,2|0,1:2|0:0,0:0:0:0:
427,60,173784,5,0,0:0:0:0:
427,60,173874,2,0,L|500:35,1,66.0000020141602,2|0,1:2|0:0,0:0:0:0:
328,267,174235,2,0,L|401:242,1,66.0000020141602,2|0,1:2|0:0,0:0:0:0:
193,174,174597,2,0,L|266:149,1,66.0000020141602,2|0,1:2|0:0,0:0:0:0:
0,384,174958,2,0,L|115:345,1,99.0000030212403,2|0,1:2|0:0,0:0:0:0:
93,352,175320,5,6,1:2:0:0:
108,199,175500,2,0,P|46:187|1:283,1,180.000006866455
245,314,176043,1,8,0:0:0:0:
179,379,176223,2,0,P|247:340|358:308,1,180.000006866455
499,352,176765,6,0,P|484:374|454:390,2,45.0000017166138,2|0|0,1:2|0:0|0:0,0:0:0:0:
492,214,177127,2,0,P|496:240|487:272,2,37.5
390,144,177488,2,0,P|408:155|422:181,2,30,10|0|0,0:0|0:0|0:0,0:0:0:0:
313,169,177850,2,0,P|326:166|341:169,2,22.5000008583069,2|0|0,0:0|0:0|1:2,0:0:0:0:
224,226,178211,5,2,1:2:0:0:
297,278,178392,2,0,B|281:221|281:221|212:179|212:179|195:121,1,180.000006866455
121,0,178934,1,10,0:0:0:0:
99,85,179115,2,0,B|87:123|87:123|18:165|18:165|2:222,1,180.000006866455
9,324,179657,6,0,B|7:349|7:349|34:371,2,45.0000017166138,2|0|0,1:2|0:0|0:0,0:0:0:0:
123,289,180018,2,0,B|126:308|126:308|144:329,2,37.5
235,243,180380,2,0,B|239:260|239:260|251:277,2,30,10|0|0,0:0|0:0|0:0,0:0:0:0:
338,207,180741,2,0,L|350:234,2,22.5000008583069,0|0|0,0:0|0:0|1:2,0:0:0:0:
453,320,181103,5,2,1:2:0:0:
392,361,181284,2,0,P|459:357|496:251,1,180.000006866455
338,207,181826,2,0,P|400:178|483:156,1,135.000005149841,10|0,0:0|0:0,0:0:0:0:
465,163,182187,2,0,P|416:154|402:99,1,90.0000034332277
320,25,182549,6,0,P|299:8|264:8,2,45.0000017166138,0|0|0,1:2|0:0|0:0,0:0:0:0:
273,132,182910,2,0,P|255:117|225:117,2,37.5
147,174,183271,2,0,P|137:151|145:115,2,45.0000017166138,10|0|0,0:0|0:0|0:0,0:0:0:0:
299,230,183633,2,0,P|319:222|335:206,1,45.0000017166138,2|0,0:0|0:0,0:0:0:0:
368,125,183814,1,0,1:2:0:0:
200,256,183995,5,2,1:2:0:0:
270,327,184175,2,0,B|230:295|230:295|93:345,1,180.000006866455
56,228,184717,1,8,0:0:0:0:
21,149,184898,2,0,B|-10:63|-10:63|61:-4,1,180.000006866455
165,89,185440,6,0,B|168:116|168:116|145:141,2,45.0000017166138,2|0|0,1:2|0:0|0:0,0:0:0:0:
249,29,185802,2,0,B|265:50|265:50|258:84,2,37.5
321,141,186163,2,0,B|314:156|314:156|293:163,2,30,8|0|0,0:0|0:0|0:0,0:0:0:0:
426,90,186525,2,0,B|427:103|427:103|415:115,2,22.5000008583069,0|0|0,0:0|0:0|1:2,0:0:0:0:
367,26,186887,5,2,1:2:0:0:
493,236,187067,2,0,B|419:257|419:257|387:240|387:240|321:259,1,180.000006866455
284,337,187609,1,8,0:0:0:0:
461,310,187790,2,0,B|406:310|408:255|404:257|417:189|361:180,1,180.000006866455
227,227,188332,6,0,P|246:216|262:200,2,45.0000017166138,2|0|0,1:2|0:0|0:0,0:0:0:0:
142,317,188693,2,0,B|161:324|161:324|182:322,2,37.5
32,298,189055,2,0,P|41:315|56:330,2,30,10|0|0,0:0|0:0|0:0,0:0:0:0:
5,228,189416,2,0,B|0:245|0:245|0:262,2,22.5000008583069,0|0|0,0:0|0:0|1:2,0:0:0:0:
64,154,189778,5,2,1:2:0:0:
107,60,189958,2,0,P|190:25|277:3,1,180.000006866455
369,148,190500,1,8,0:0:0:0:
262,122,190681,2,0,P|339:123|371:27,1,180.000006866455
145,138,191223,6,0,B|154:113|154:113|151:82,2,52.500000500679,2|0|0,1:2|0:0|0:0,0:0:0:0:
227,227,191585,2,0,P|246:216|262:200,2,45.0000017166138
142,317,191946,2,0,B|161:324|161:324|182:322,2,37.5,10|0|0,0:0|0:0|0:0,0:0:0:0:
32,298,192308,2,0,P|41:315|56:330,2,30,0|0|0,0:0|0:0|1:2,0:0:0:0:
71,223,192669,5,6,1:2:0:0:
178,323,192850,2,0,L|366:378,1,180.000006866455
427,319,193392,1,8,0:0:0:0:
512,199,193573,2,0,L|324:254,1,180.000006866455
431,315,194115,6,0,L|481:329,2,45.0000017166138,2|0|0,1:2|0:0|0:0,0:0:0:0:
339,249,194476,2,0,L|385:223,2,51.0000009727478
210,240,194838,2,0,L|228:174,2,56.9999984779358,10|0|0,0:0|0:0|0:0,0:0:0:0:
70,334,195199,2,0,L|36:273,2,62.9999980773926,0|0|0,0:0|0:0|1:2,0:0:0:0:
101,228,195561,5,2,1:2:0:0:
47,111,195741,1,0,0:0:0:0:
222,196,195922,5,0,0:0:0:0:
254,107,196102,1,0,0:0:0:0:
323,234,196284,5,8,0:0:0:0:
374,208,196464,1,0,0:0:0:0:
398,329,196645,5,0,0:0:0:0:
427,338,196825,1,0,0:0:0:0:
196,365,197006,6,0,L|181:321,1,45.0000017166138,0|0,1:2|0:0,0:0:0:0:
159,252,197187,1,0,0:0:0:0:
312,272,197368,6,0,L|327:228,1,37.5
341,190,197549,1,0,0:0:0:0:
202,159,197729,6,0,L|187:115,1,30,8|0,0:0|0:0,0:0:0:0:
182,97,197910,1,0,0:0:0:0:
307,59,198091,6,0,L|315:32,1,22.5000008583069
321,16,198272,1,0,0:0:0:0:
512,67,198453,6,0,P|482:123|410:112,1,135.000005149841,2|0,1:2|0:0,0:0:0:0:
403,43,198813,1,10,0:0:0:0:
403,43,198994,1,0,0:0:0:0:
496,152,199174,2,0,P|470:210|445:293,1,135.000005149841,8|0,0:0|0:0,0:0:0:0:
444,282,199536,6,0,P|384:250|321:226,1,135.000005149841,2|0,1:2|0:0,0:0:0:0:
269,296,199897,2,0,P|295:281|322:269,2,60.0000022888184,10|2|2,0:0|0:0|0:0,0:0:0:0:
255,164,200259,2,0,P|173:156|158:236,1,180.000006866455,10|2,0:0|1:2,0:0:0:0:
158,236,200982,6,0,P|135:159|101:94,1,135.000005149841,10|0,0:0|0:0,0:0:0:0:
201,82,201343,2,0,P|224:159|258:224,1,135.000005149841,10|0,0:0|0:0,0:0:0:0:
222,286,201705,6,0,P|251:300|229:282,1,90.0000034332277,2|0,1:2|0:0,0:0:0:0:
76,231,202066,2,0,P|66:202|45:171,1,45.0000017166138,2|0,0:1|0:0,0:0:0:0:
291,96,202427,2,0,P|301:125|322:156,1,45.0000017166138,2|0,1:1|0:0,0:0:0:0:
512,353,202790,6,0,P|486:295|410:291,1,135.000005149841,6|0,1:2|0:0,0:0:0:0:
371,347,203150,1,10,0:0:0:0:
371,347,203331,1,0,0:0:0:0:
464,208,203512,2,0,P|422:232|326:263,1,135.000005149841,10|0,0:0|0:0,0:0:0:0:
336,256,203873,6,0,P|312:214|281:118,1,135.000005149841,2|0,1:2|0:0,0:0:0:0:
221,192,204235,2,0,P|243:211|272:216,2,60.0000022888184,10|2|2,0:0|0:0|0:0,0:0:0:0:
383,144,204596,2,0,B|408:92|355:68|360:66|289:46|304:-6,1,180.000006866455,10|2,0:0|1:2,0:0:0:0:
331,77,205319,6,0,P|386:55|435:27,1,90.0000034332277,10|0,0:0|0:0,0:0:0:0:
512,257,205680,2,0,P|448:279|388:310,1,135.000005149841,10|0,0:0|0:0,0:0:0:0:
331,358,206042,6,0,P|360:293|381:223,1,135.000005149841,2|0,1:2|0:0,0:0:0:0:
382,228,206403,2,0,P|412:212|458:198,1,45.0000017166138,2|0,0:1|0:0,0:0:0:0:
426,123,206765,2,0,P|395:139|349:153,1,45.0000017166138,2|0,1:1|0:0,0:0:0:0:
65,12,207126,6,0,B|81:64|81:64|67:85|67:85|84:141,1,135.000005149841,2|0,1:2|0:0,0:0:0:0:
164,167,207488,1,10,0:0:0:0:
164,167,207668,1,0,0:0:0:0:
15,312,207849,2,0,P|83:305|124:362,1,135.000005149841,10|0,0:0|0:0,0:0:0:0:
119,356,208211,6,0,P|125:291|182:260,1,135.000005149841,2|0,1:2|0:0,0:0:0:0:
238,324,208572,2,0,L|151:293,2,60.0000022888184,10|2|2,0:0|0:0|0:0,0:0:0:0:
428,250,208933,2,0,L|253:197,1,180.000006866455,10|2,0:0|1:2,0:0:0:0:
255,197,209656,6,0,B|302:145|302:145|282:65,1,135.000005149841,10|0,0:0|0:0,0:0:0:0:
207,59,210018,2,0,B|160:111|160:111|180:191,1,135.000005149841,10|0,0:0|0:0,0:0:0:0:
178,289,210379,6,0,B|167:266|167:266|190:255|190:255|200:278|200:278|178:289,1,90.0000034332277,2|0,1:2|0:0,0:0:0:0:
101,64,210741,2,0,B|81:85|81:85|90:117,1,45.0000017166138,2|0,0:1|0:0,0:0:0:0:
364,179,211102,2,0,B|383:157|383:157|374:125,1,45.0000017166138,2|0,1:1|0:0,0:0:0:0:
0,378,211464,6,0,B|38:396|56:357|57:361|72:308|110:319,1,135.000005149841,6|0,1:2|0:0,0:0:0:0:
176,370,211825,1,10,0:0:0:0:
176,370,212006,1,0,0:0:0:0:
68,230,212186,2,0,P|114:280|201:279,1,135.000005149841,10|0,0:0|0:0,0:0:0:0:
181,286,212548,6,0,P|231:239|230:152,1,135.000005149841,2|0,1:2|0:0,0:0:0:0:
170,126,212909,2,0,P|189:156|199:197,2,60.0000022888184,10|2|2,0:0|0:0|0:0,0:0:0:0:
337,22,213271,2,0,P|357:112|403:199,1,180.000006866455,10|2,0:0|1:2,0:0:0:0:
396,189,213994,6,0,P|350:239|300:322,1,135.000005149841,10|0,0:0|0:0,0:0:0:0:
132,165,214355,2,0,P|177:114|227:31,1,135.000005149841,10|0,0:0|0:0,0:0:0:0:
179,234,214717,6,0,P|120:201|55:186,1,135.000005149841,2|0,1:2|0:0,0:0:0:0:
44,273,215078,2,0,P|87:282|126:305,1,90.0000034332277,2|0,0:1|0:0,0:0:0:0:
75,375,215439,2,0,P|54:365|32:362,1,45.0000017166138,2|0,1:1|0:0,0:0:0:0:
