osu file format v14

[General]
AudioFilename: audio.mp3
AudioLeadIn: 0
PreviewTime: 381
Countdown: 0
SampleSet: Soft
StackLeniency: 0.2
Mode: 0
LetterboxInBreaks: 0
WidescreenStoryboard: 1

[Editor]
Bookmarks: 6164,11947,17730,20260,26405,52429,62549,63995,87127,90019,113152,126887,130501,134838,146405,157971,163754,169537,175320,178935,181103,183272,198453,202790,207127
DistanceSpacing: 1
BeatDivisor: 3
GridSize: 32
TimelineZoom: 0.9999998

[Metadata]
Title:Ga1ahad and Scientific Witchery
TitleUnicode:Ga1ahad and Scientific Witchery
Artist:Mili
ArtistUnicode:Mili
Creator:Yukiyo
Version:Normal
Source:
Tags:galahad miracle milk
BeatmapID:1400028
BeatmapSetID:592362

[Difficulty]
HPDrainRate:4
CircleSize:3.5
OverallDifficulty:5
ApproachRate:5
SliderMultiplier:1.3
SliderTickRate:1

[Events]
//Background and Video events
0,0,"Ga1ahad and Scientific Witchery.jpg",0,0
//Break Periods
2,35279,39662
2,87327,88819
//Storyboard Layer 0 (Background)
Sprite,Background,Centre,"Ga1ahad and Scientific Witchery.jpg",320,240 F,0,0,1000,0,1 S,0,0,215600,0.4 F,0,215441,217441,1,0
Sprite,Background,Centre,"sb\fade.png",320,240 M,0,0,100,320,240,50,240 R,0,0,100,0,1.570796 S,0,0,215600,0.84 F,0,17600,17730,0,0.8 F,0,20400,20500,0.8,0 M,0,20501,20502,60,240,570,240 F,0,20600,20621,0,0.8 F,0,23152,23332,0.8,0 M,0,23333,23334,60,240,50,240 F,0,23423,23513,0,0.8 F,0,26224,26405,0.8,0 M,0,29025,29026,60,240,570,240 F,0,29115,29296,0,0.8 F,0,31826,32007,0.8,0 M,0,32007,,60,240,50,240 F,0,32007,32188,0,0.8 F,0,32549,32730,0.8,0 M,0,32730,,60,240,570,240 F,0,32730,32911,0,0.8 F,0,33453,33633,0.8,0 M,0,40682,,60,240,570,240 F,0,40682,40862,0,0.8 F,0,52158,52248,0.8,0 M,0,52248,,60,240,50,240 F,0,52248,52429,0,0.8 F,0,72308,72489,0.8,0 M,0,72489,,60,240,570,240 F,0,72489,72670,0,0.8 F,0,75200,75380,0.8,0 M,0,75380,,60,240,50,240 F,0,75380,75561,0,0.8 F,0,78091,78272,0.8,0 M,0,78272,,60,240,570,240 F,0,78272,78453,0,0.8 F,0,80983,81344,0.8,0 M,0,89838,,60,240,570,240 F,0,89838,90019,0,0.8 F,0,112790,112971,0.8,0 M,0,112971,,60,240,50,240 F,0,112971,113152,0,0.8 F,0,146224,146405,0.8,0 M,0,157790,,60,240,570,240 F,0,157790,157971,0,0.8 F,0,160501,160682,0.8,0 M,0,160682,,60,240,50,240 F,0,160682,160862,0,0.8 F,0,162308,162489,0.8,0 M,0,162489,,60,240,570,240 F,0,162489,162670,0,0.8 F,0,166284,166465,0.8,0 M,0,166465,,60,240,50,240 F,0,166465,166646,0,0.8 F,0,169176,169356,0.8,0 M,0,175140,,60,240,570,240 F,0,175140,175320,0,0.8 F,0,178573,178754,0.8,0 M,0,178754,,60,240,50,240 F,0,178754,178935,0,0.8 F,0,180742,180923,0.8,0 M,0,180923,,60,240,570,240 F,0,180923,181103,0,0.8 F,0,182911,183091,0.8,0 M,0,198272,,60,240,50,240 F,0,198272,198453,0,0.8 F,0,202429,202609,0.8,0 M,0,202609,,60,240,570,240 F,0,202609,202790,0,0.8 F,0,206766,206947,0.8,0
Sprite,Background,Centre,"sb\fade.png",320,240 M,0,0,100,320,240,850,240 R,0,0,100,0,1.570796 S,0,0,215600,0.84 F,0,26224,26405,0,0.8 F,0,28935,29115,0.8,0 F,0,33453,33633,0,0.8 F,0,34718,34899,0.8,0 F,0,81164,81344,0,0.8 F,0,86766,86947,0.8,0 F,0,169356,169537,0,0.8 F,0,174959,175140,0.8,0 F,0,183091,183272,0,0.8 F,0,198091,198272,0.8,0 F,0,206947,207127,0,0.8 M,0,207127,215621,850,240,1000,240 F,0,215441,215621,0.8,0
Sprite,Background,Centre,"sb\fade.png",320,240 M,0,0,100,320,240,-210,240 R,0,0,100,0,1.570796 S,0,0,215600,0.84 F,0,26224,26405,0,0.8 F,0,28935,29115,0.8,0 F,0,33453,33633,0,0.8 F,0,34718,34899,0.8,0 F,0,81164,81344,0,0.8 F,0,86766,86947,0.8,0 F,0,169356,169537,0,0.8 F,0,174959,175140,0.8,0 F,0,183091,183272,0,0.8 F,0,198091,198272,0.8,0 F,0,206947,207127,0,0.8 M,0,207127,215621,-210,240,-360,240 F,0,215441,215621,0.8,0
//Storyboard Layer 1 (Fail)
//Storyboard Layer 2 (Pass)
//Storyboard Layer 3 (Foreground)
//Storyboard Sound Samples

[TimingPoints]
381,361.44578313253,4,2,1,80,1,0
40862,-111.111111111111,4,2,1,50,0,0
52429,-100,4,2,1,80,0,0
88935,-100,4,2,1,60,0,0
89115,-100,4,2,1,80,0,0
90019,-111.111111111111,4,2,1,50,0,0
113152,-100,4,2,1,70,0,0
123272,-100,4,2,3,70,0,1
123453,-100,4,2,1,70,0,1
124718,-100,4,2,1,75,0,1
126164,-100,4,2,4,80,0,1
126344,-100,4,2,1,80,0,1
127609,-100,4,2,1,90,0,1
129055,-100,4,2,5,100,0,1
129236,-100,4,2,1,100,0,1
131947,-100,4,2,6,100,0,1
132127,-100,4,2,1,100,0,1
134838,-100,4,2,1,80,0,0
146405,-100,4,2,1,65,0,0
157971,-100,4,2,6,70,0,1
159417,-100,4,2,7,80,0,1
160862,-100,4,2,3,80,0,1
162308,-100,4,2,4,80,0,1
162670,-100,4,2,5,90,0,1
165200,-100,4,2,6,100,0,1
166646,-100,4,2,7,100,0,1
168091,-100,4,2,4,100,0,1
169537,-100,4,2,1,100,0,0
169989,-100,4,2,1,5,0,0
170079,-100,4,2,1,100,0,0
170350,-100,4,2,1,5,0,0
170441,-100,4,2,1,100,0,0
170712,-100,4,2,1,5,0,0
170802,-100,4,2,1,100,0,0
171073,-100,4,2,1,5,0,0
171164,-100,4,2,1,100,0,0
172880,-100,4,2,1,5,0,0
172971,-100,4,2,1,100,0,0
173242,-100,4,2,1,5,0,0
173332,-100,4,2,1,100,0,0
173603,-100,4,2,1,5,0,0
173694,-100,4,2,1,100,0,0
173965,-100,4,2,1,5,0,0
174055,-100,4,2,1,100,0,0
175320,-111.111111111111,4,2,1,60,0,0
198453,-100,4,2,1,80,0,0
215170,-100,4,2,1,5,0,0
215441,-100,4,2,1,100,0,0
215531,-100,4,2,1,22,0,0

[Colours]
Combo1 : 85,85,85
Combo2 : 128,0,255
Combo3 : 181,0,181
Combo4 : 162,162,162
Combo5 : 0,85,170
Combo6 : 0,170,170

[HitObjects]
139,49,381,54,0,L|203:42,1,65,0|0,3:0|0:0,0:0:0:0:
273,5,742,2,0,P|248:62|275:120,1,130,0|0,0:0|0:0,0:0:0:0:
394,172,1465,2,0,L|326:62,1,130,0|0,0:0|3:0,0:0:0:0:
450,99,2188,1,0,0:0:0:0:
454,228,2549,2,0,P|428:246|397:254,2,65,0|0|0,0:0|0:0|0:0,0:0:0:0:
323,224,3272,6,0,P|260:221|207:257,1,130,0|0,3:0|0:0,0:0:0:0:
95,326,3995,2,0,P|129:272|124:209,1,130,0|0,0:0|0:0,0:0:0:0:
97,81,4718,1,0,3:0:0:0:
192,168,5079,1,0,0:0:0:0:
253,53,5441,2,0,L|176:83,2,65,0|0|0,0:0|3:0|0:0,0:0:0:0:
314,32,5983,1,0,0:0:0:0:
374,11,6164,70,0,P|349:69|367:130,1,130,0|0,3:0|0:0,0:0:0:0:
373,260,6887,2,0,P|335:208|273:193,1,130,0|0,0:0|0:0,0:0:0:0:
208,305,7609,2,0,P|245:356|307:371,1,130,0|0,3:0|0:0,0:0:0:0:
437,365,8332,2,0,P|411:349|358:342,2,65,0|0|0,0:0|0:0|0:0,0:0:0:0:
491,246,9055,6,0,L|465:89,1,130,0|0,3:0|0:0,0:0:0:0:
386,17,9778,2,0,L|364:145,1,130,0|0,0:0|0:0,0:0:0:0:
327,269,10501,2,0,P|270:240|206:244,1,130,0|0,3:0|0:0,0:0:0:0:
91,184,11224,2,0,P|58:190|0:177,2,65,0|0|0,0:0|3:2|0:0,0:0:0:0:
136,137,11766,1,0,0:0:0:0:
167,79,11947,70,0,P|262:84|339:28,1,195,0|0,3:0|0:0,0:0:0:0:
390,68,12670,2,0,L|403:217,1,130,0|0,0:2|0:0,0:0:0:0:
388,327,13393,2,0,P|292:321|215:377,1,195,0|0,3:0|0:0,0:0:0:0:
165,338,14116,2,0,L|152:189,1,130,0|0,0:0|0:0,0:0:0:0:
224,98,14838,6,0,P|283:75|348:79,1,130,0|0,3:0|0:0,0:0:0:0:
428,182,15561,2,0,P|368:206|304:202,1,130,0|0,0:0|0:0,0:0:0:0:
174,189,16284,2,0,L|109:180,2,65,0|0|0,3:0|0:0|0:0,0:0:0:0:
196,317,17007,2,0,L|260:308,2,65,0|0|0,0:0|3:0|0:0,0:0:0:0:
272,212,17730,22,0,P|346:270|338:364,1,195,0|0,3:0|0:0,0:0:0:0:
402,366,18453,2,0,P|467:339|503:274,1,130,0|0,0:0|0:0,0:0:0:0:
495,171,19176,1,0,3:0:0:0:
389,247,19537,1,0,0:0:0:0:
367,118,19899,2,0,P|302:145|266:210,1,130,0|0,0:0|0:0,0:0:0:0:
239,319,20621,22,0,L|109:327,1,130,0|0,3:0|0:0,0:0:0:0:
31,223,21344,2,0,L|160:231,1,130,0|0,0:0|0:0,0:0:0:0:
238,127,22067,2,0,L|108:135,1,130,0|0,3:0|0:0,0:0:0:0:
55,16,22790,1,0,0:0:0:0:
179,52,23152,1,0,0:0:0:0:
301,9,23513,70,0,P|265:75|313:200,1,195,0|0,3:0|0:0,0:0:0:0:
347,224,24236,2,0,P|402:193|467:192,1,130,0|0,0:0|0:0,0:0:0:0:
502,317,24959,2,0,P|446:348|381:349,1,130,0|0,3:0|0:0,0:0:0:0:
272,279,25682,1,0,0:0:0:0:
298,151,26043,1,0,0:0:0:0:
227,41,26405,22,0,L|97:56,1,130,0|0,3:0|0:0,0:0:0:0:
206,127,27127,2,0,P|268:117|308:68,1,130,0|0,0:0|0:0,0:0:0:0:
344,193,27850,2,0,L|328:328,1,130,0|0,3:0|0:0,0:0:0:0:
421,231,28573,2,0,P|426:167|387:117,1,130,0|0,0:0|0:0,0:0:0:0:
264,162,29296,22,0,P|187:183|65:134,1,195,0|0,3:0|0:0,0:0:0:0:
31,104,30019,2,0,L|10:259,1,130,0|0,0:0|0:0,0:0:0:0:
132,283,30742,2,0,P|69:291|18:330,1,130,0|0,3:0|0:0,0:0:0:0:
141,368,31465,2,0,P|205:360|256:321,1,130,0|0,0:0|0:0,0:0:0:0:
333,216,32188,6,0,P|348:165|311:77,1,130,0|0,3:0|0:0,0:0:0:0:
195,95,32911,22,0,P|173:155|188:217,1,130,0|0,0:0|0:0,0:0:0:0:
258,326,33634,6,0,P|340:343|446:273,1,195,0|0,3:0|0:0,0:0:0:0:
438,226,34356,2,0,P|356:243|250:173,1,195,0|0,0:0|0:0,0:0:0:0:
255,126,35079,1,6,2:3:0:0:
0,54,40862,22,0,L|138:37,1,116.999996429443,4|0,3:2|0:0,0:0:0:0:
222,88,41585,1,8,0:0:0:0:
220,322,42308,2,0,L|82:305,1,116.999996429443,0|0,3:0|0:0,0:0:0:0:
2,356,43031,1,8,0:0:0:0:
6,238,43393,1,0,0:0:0:0:
115,195,43754,38,0,P|123:252|103:306,1,116.999996429443,0|0,3:0|0:0,0:0:0:0:
6,238,44477,2,0,P|-1:180|18:126,1,116.999996429443,8|0,0:0|0:0,0:0:0:0:
129,87,45200,2,0,L|256:84,1,116.999996429443,0|0,3:0|0:0,0:0:0:0:
232,198,45923,2,0,L|105:195,1,116.999996429443,8|0,0:0|0:0,0:0:0:0:
39,106,46646,38,0,P|66:136|65:283,1,175.499994644165,0|0,3:0|0:0,0:0:0:0:
32,304,47368,1,8,0:0:0:0:
129,369,47730,1,0,0:0:0:0:
203,278,48091,2,0,P|183:231|213:90,1,175.499994644165,0|0,3:0|0:0,0:0:0:0:
234,64,48814,1,8,0:0:0:0:
122,26,49176,1,0,0:0:0:0:
83,136,49537,38,0,L|93:323,1,175.499994644165,0|0,3:0|0:0,0:0:0:0:
124,360,50260,1,8,0:0:0:0:
218,290,50621,1,0,0:0:0:0:
194,175,50983,1,0,3:0:0:0:
214,59,51344,1,0,0:0:0:0:
106,104,51706,1,8,0:0:0:0:
194,175,52067,1,0,0:0:0:0:
305,108,52429,54,0,L|395:91,1,65,0|0,3:2|0:2,0:0:0:0:
470,177,52971,1,0,0:2:0:0:
470,177,53152,2,0,L|380:160,1,65,0|0,3:2|0:2,0:0:0:0:
306,249,53694,1,0,0:2:0:0:
306,249,53875,2,0,L|396:232,1,65,0|0,3:0|0:0,0:0:0:0:
466,324,54417,1,0,0:0:0:0:
466,324,54598,2,0,L|376:307,1,65,0|0,3:0|0:0,0:0:0:0:
292,381,55140,6,0,L|301:286,2,65,0|0|0,0:0|3:2|0:0,0:0:0:0:
402,311,55862,1,0,0:0:0:0:
402,311,56043,2,0,L|393:216,1,65,0|0,3:0|0:0,0:0:0:0:
279,188,56585,1,0,0:0:0:0:
279,188,56766,2,0,L|288:93,1,65,0|0,3:0|0:0,0:0:0:0:
401,65,57308,1,0,0:0:0:0:
401,65,57489,2,0,L|392:-30,2,65,0|0|0,3:2|0:0|3:2,0:0:0:0:
493,154,58212,70,0,P|461:153|429:158,1,65,0|0,3:2|0:0,0:0:0:0:
328,240,58754,1,0,0:0:0:0:
328,240,58935,2,0,P|345:212|357:182,1,65,0|0,3:0|0:0,0:0:0:0:
336,54,59477,1,0,0:0:0:0:
336,54,59658,2,0,P|350:83|371:108,1,65,0|0,3:0|0:0,0:0:0:0:
491,158,60200,1,0,0:0:0:0:
491,158,60381,2,0,P|476:187|455:212,1,65,0|0,3:0|0:0,0:0:0:0:
374,313,60923,6,0,L|286:340,2,65,0|0|0,0:0|3:0|0:0,0:0:0:0:
359,183,61646,1,0,0:0:0:0:
359,183,61826,2,0,L|334:243,1,65,0|0,3:0|0:0,0:0:0:0:
276,126,62368,1,0,0:0:0:0:
276,126,62549,2,0,L|209:83,1,65,0|0,3:0|0:0,0:0:0:0:
360,95,63091,1,0,0:0:0:0:
360,95,63272,2,0,L|428:73,2,65,0|0|0,3:0|0:0|3:0,0:0:0:0:
477,150,63995,70,0,L|498:349,1,195,0|0,3:0|0:0,0:0:0:0:
433,329,64718,2,0,P|369:321|309:346,1,130,0|0,3:0|0:0,0:0:0:0:
264,224,65441,2,0,P|327:231|390:194,1,130,0|0,3:0|3:0,0:0:0:0:
422,75,66164,1,0,3:0:0:0:
507,172,66525,1,8,0:0:0:0:
507,302,66887,6,0,P|411:303|332:249,1,195,0|0,3:0|0:0,0:0:0:0:
375,201,67609,2,0,P|385:164|358:66,1,130,0|0,3:0|3:0,0:0:0:0:
257,149,68332,1,0,3:0:0:0:
473,5,69055,1,0,3:0:0:0:
489,264,69778,69,0,3:2:0:0:
393,352,70140,2,2,P|371:353|349:352,3,43.3333333333333
289,106,71224,5,0,3:2:0:0:
385,18,71586,2,2,L|412:62,3,43.3333333333333,2|2|2|2,3:2|0:0|0:0|0:0,0:0:0:0:
350,173,72308,1,8,3:2:0:0:
222,200,72670,5,0,3:2:0:0:
119,279,73031,2,2,L|54:290,3,43.3333333333333
10,16,74115,1,0,3:2:0:0:
113,95,74477,2,2,L|172:123,3,43.3333333333333,2|2|2|2,3:2|0:2|0:2|0:0,0:0:0:0:
242,20,75200,1,8,3:2:0:0:
323,121,75561,53,0,3:2:0:0:
455,94,75923,2,2,L|383:99,3,43.3333333333333,2|2|2|2,3:2|0:2|0:2|0:0,0:0:0:0:
471,348,77007,5,0,3:2:0:0:
342,338,77369,2,2,L|414:343,3,43.3333333333333,2|2|2|2,3:2|0:0|0:0|0:0,0:0:0:0:
268,207,78091,1,8,3:2:0:0:
226,83,78453,5,0,3:2:0:0:
165,197,78814,2,2,L|199:138,3,43.3333333333333,2|2|2|2,3:2|0:2|0:2|0:0,0:0:0:0:
10,5,79899,37,0,3:2:0:0:
56,128,80260,2,2,L|37:71,3,43.3333333333333,2|2|2|2,3:2|0:2|0:2|0:0,0:0:0:0:
143,169,80983,1,8,3:2:0:0:
272,163,81344,53,0,3:2:0:0:
402,158,81706,2,2,L|403:219,3,43.3333333333333,2|2|2|2,3:2|0:2|0:2|0:0,0:0:0:0:
283,254,82429,1,8,3:2:0:0:
195,158,82790,1,0,3:2:0:0:
137,246,83152,2,2,L|136:307,3,43.3333333333333,2|2|2|2,3:2|0:2|0:2|0:0,0:0:0:0:
254,314,83874,1,8,3:2:0:0:
254,183,84236,5,0,3:2:0:0:
369,241,84597,2,2,L|370:302,3,43.3333333333333,2|2|2|2,3:2|0:2|0:2|0:0,0:0:0:0:
399,157,85320,1,8,3:2:0:0:
275,118,85682,69,0,3:0:0:0:
181,206,86043,1,0,3:0:0:0:
304,242,86405,1,0,3:0:0:0:
275,118,86766,1,8,3:2:0:0:
239,242,87127,5,0,3:0:0:0:
19,38,90019,6,0,P|102:63|182:30,1,175.499994644165,0|0,3:0|0:0,0:0:0:0:
234,4,90742,2,0,L|214:119,1,116.999996429443,0|0,0:0|0:0,0:0:0:0:
102,155,91465,2,0,P|151:218|257:230,1,175.499994644165,0|0,3:0|0:0,0:0:0:0:
212,284,92188,2,0,P|154:290|103:319,1,116.999996429443,0|0,0:0|0:0,0:0:0:0:
15,242,92911,37,0,3:0:0:0:
43,128,93272,1,0,0:0:0:0:
138,195,93634,2,0,L|254:184,1,116.999996429443,0|8,0:0|0:0,0:0:0:0:
298,75,94356,2,0,L|181:85,1,116.999996429443,8|0,3:2|0:0,0:0:0:0:
86,17,95079,1,0,0:0:0:0:
12,239,95802,38,0,P|88:196|174:203,1,175.499994644165,0|0,3:0|0:0,0:0:0:0:
221,170,96525,2,0,P|197:222|205:279,1,116.999996429443,0|0,0:0|0:0,0:0:0:0:
101,333,97248,2,0,L|79:138,1,175.499994644165,0|0,3:0|0:0,0:0:0:0:
106,105,97971,2,0,P|159:82|217:84,1,116.999996429443,0|0,0:0|0:0,0:0:0:0:
179,195,98694,1,0,3:0:0:0:
31,376,99417,1,0,0:0:0:0:
37,259,99778,1,8,0:0:0:0:
115,346,100140,38,0,L|231:353,1,116.999996429443,8|0,3:2|0:0,0:0:0:0:
286,250,100862,2,0,L|169:257,1,116.999996429443,0|0,0:0|0:0,0:0:0:0:
88,172,101585,2,0,P|195:156|203:47,1,233.999992858887,0|0,3:0|0:0,0:0:0:0:
85,52,102670,1,0,0:0:0:0:
8,141,103031,2,0,P|6:198|40:244,1,116.999996429443,0|0,3:0|0:0,0:0:0:0:
130,325,103754,2,0,P|158:273|154:208,1,116.999996429443,0|0,0:0|0:0,0:0:0:0:
219,119,104477,37,0,3:0:0:0:
207,2,104838,2,0,P|142:30|103:138,1,175.499994644165,0|0,0:0|3:0,0:0:0:0:
85,177,105561,1,8,0:0:0:0:
198,207,105923,1,8,3:2:0:0:
113,288,106284,2,0,L|87:357,2,58.4999982147217,0|0|0,0:0|0:0|0:0,0:0:0:0:
185,65,107368,38,0,B|66:70|66:70|-4:166,1,233.999992858887,0|0,3:0|0:0,0:0:0:0:
85,380,108814,2,0,B|204:375|204:375|274:279,1,233.999992858887,0|0,3:0|0:0,0:0:0:0:
196,191,109899,1,0,0:0:0:0:
103,262,110260,2,0,P|48:220|75:55,1,233.999992858887,0|0,3:0|0:0,0:0:0:0:
172,41,111344,1,8,0:0:0:0:
236,138,111706,2,0,P|242:184|219:253,1,116.999996429443,8|0,3:2|0:0,0:0:0:0:
103,262,112429,2,0,P|97:308|120:377,1,116.999996429443,0|0,0:0|0:0,0:0:0:0:
247,355,113152,53,0,3:0:0:0:
376,346,113513,2,0,L|471:339,2,65,8|8|8,0:0|0:0|0:0,0:0:0:0:
268,271,114236,5,0,3:0:0:0:
397,262,114597,2,0,L|492:255,2,65,8|8|8,0:0|0:0|0:0,0:0:0:0:
293,182,115320,1,0,3:0:0:0:
272,53,115682,1,8,0:0:0:0:
394,99,116043,1,8,0:0:0:0:
494,16,116405,69,0,3:0:0:0:
512,145,116766,1,8,0:0:0:0:
394,99,117127,1,8,0:0:0:0:
272,53,117489,1,8,0:0:0:0:
293,182,117850,1,0,0:0:0:0:
394,99,118212,5,0,3:0:0:0:
419,226,118573,2,0,L|434:317,2,65,8|8|8,0:0|0:0|0:0,0:0:0:0:
293,182,119296,69,0,3:0:0:0:
320,309,119658,2,0,L|335:400,2,65,8|8|8,0:0|0:0|0:0,0:0:0:0:
419,226,120380,5,0,3:0:0:0:
394,99,120742,1,8,0:0:0:0:
293,182,121103,1,8,0:0:0:0:
419,226,121465,1,8,3:2:0:0:
320,309,121826,1,8,0:2:0:0:
441,354,122188,1,0,0:0:0:0:
419,226,122549,1,0,0:0:0:0:
394,99,122911,1,8,0:0:0:0:
294,16,123272,70,0,P|270:66|274:145,1,130,6|0,3:3|3:0,0:0:0:0:
306,194,123814,1,0,0:0:0:0:
338,249,123995,2,0,P|362:299|358:378,1,130,0|0,3:0|3:0,0:0:0:0:
423,356,124537,1,0,0:0:0:0:
479,321,124718,2,0,P|493:293|497:261,1,65,0|0,3:0|0:0,0:0:0:0:
449,217,125079,2,0,P|434:188|430:156,1,65,0|0,3:0|0:0,0:0:0:0:
473,106,125441,2,0,P|438:53|380:25,1,130,0|0,3:0|3:0,0:0:0:0:
315,29,125983,1,0,0:0:0:0:
280,84,126164,6,0,P|297:160|286:213,1,130,6|0,3:3|3:0,0:0:0:0:
302,277,126706,1,0,0:0:0:0:
340,329,126887,2,0,P|407:336|469:322,1,130,0|0,3:0|3:0,0:0:0:0:
505,267,127429,1,0,0:0:0:0:
505,202,127609,1,0,3:0:0:0:
427,97,127971,69,0,3:0:0:0:
409,159,128152,1,0,0:0:0:0:
351,188,128332,1,0,3:0:0:0:
288,168,128513,1,0,0:0:0:0:
264,107,128694,2,0,P|277:72|323:41,1,65,0|0,3:0|0:0,0:0:0:0:
358,33,129055,1,6,3:0:0:0:
437,136,129417,6,0,P|454:169|457:224,2,65,0|0|0,3:0|0:0|3:0,0:0:0:0:
413,264,130140,2,0,P|401:299|364:340,2,65,0|0|0,3:0|0:0|3:0,0:0:0:0:
303,334,130862,2,0,P|270:351|215:354,2,65,0|0|0,3:0|0:0|3:0,0:0:0:0:
335,207,131585,1,0,3:0:0:0:
287,162,131766,1,0,0:0:0:0:
264,100,131947,70,0,P|262:60|287:14,1,65,6|0,3:0|0:0,0:0:0:0:
331,15,132308,2,0,P|370:34|418:30,1,65,0|0,3:0|0:0,0:0:0:0:
453,17,132670,2,0,P|483:75|484:139,1,130,0|0,3:0|3:0,0:0:0:0:
441,187,133212,1,0,0:0:0:0:
392,229,133393,2,0,P|362:286|361:350,1,130,0|0,3:0|3:0,0:0:0:0:
297,364,133935,1,0,0:0:0:0:
251,317,134115,1,0,3:0:0:0:
295,194,134477,1,0,3:0:0:0:
270,65,134838,6,0,P|356:24|450:42,1,195,0|0,3:2|0:0,0:0:0:0:
502,85,135561,2,0,P|422:138|391:228,1,195,0|0,3:0|0:0,0:0:0:0:
424,284,136284,1,0,3:0:0:0:
337,381,136646,1,0,3:0:0:0:
237,297,137007,1,0,3:0:0:0:
317,195,137368,1,0,3:0:0:0:
387,85,137730,70,0,P|423:212|402:297,1,195,0|0,3:0|0:0,0:0:0:0:
352,297,138453,2,0,P|277:235|237:147,1,195,0|0,3:0|0:0,0:0:0:0:
234,82,139176,1,8,3:2:0:0:
351,26,139537,1,0,3:0:0:0:
472,72,139899,2,0,P|484:127|463:198,1,130,0|0,3:0|3:0,0:0:0:0:
339,157,140621,5,0,3:2:0:0:
250,252,140983,2,0,P|261:311|316:366,1,130,0|0,3:2|3:2,0:0:0:0:
436,346,141706,1,0,3:2:0:0:
496,231,142067,2,0,P|432:217|370:233,1,130,0|0,3:2|3:2,0:0:0:0:
287,133,142790,2,0,P|350:142|409:117,1,130,0|0,3:2|3:2,0:0:0:0:
335,25,143513,70,0,P|213:41|176:174,1,260,0|0,3:0|3:0,0:0:0:0:
259,253,144597,1,0,0:0:0:0:
385,284,144959,2,0,P|473:197|436:79,1,260,8|8,3:2|3:2,0:0:0:0:
324,146,146043,1,0,3:0:0:0:
213,77,146405,37,8,3:2:0:0:
85,101,146766,2,0,L|3:115,2,65,8|8|8,3:2|0:0|3:2,0:0:0:0:
185,183,147489,2,0,L|249:193,2,65,8|8|8,3:2|0:0|3:2,0:0:0:0:
80,260,148212,2,0,L|15:270,2,65,8|8|8,3:2|0:0|3:2,0:0:0:0:
184,337,148935,1,8,3:2:0:0:
248,342,149115,1,8,0:0:0:0:
308,317,149296,5,8,3:2:0:0:
406,231,149658,2,0,P|426:261|436:317,2,65,8|8|8,3:2|0:0|3:2,0:0:0:0:
304,149,150380,2,0,P|284:179|274:235,2,65,8|8|8,3:2|0:2|3:2,0:0:0:0:
405,67,151103,2,0,P|425:97|435:153,2,65,0|8|0,3:0|0:0|3:0,0:0:0:0:
288,9,151826,1,0,3:0:0:0:
194,99,152188,69,8,3:2:0:0:
88,194,152549,1,8,0:2:0:0:
49,244,152730,1,8,0:2:0:0:
8,294,152911,2,0,P|49:311|142:288,1,130,8|8,0:2|0:2,0:0:0:0:
193,181,153634,1,8,3:2:0:0:
270,76,153995,1,8,0:2:0:0:
334,65,154176,1,8,0:2:0:0:
395,84,154356,2,0,P|401:148|380:209,1,130,8|8,0:0|0:0,0:0:0:0:
255,246,155079,6,0,P|190:250|135:283,1,130,8|8,3:2|0:2,0:0:0:0:
40,194,155802,2,0,P|68:135|67:71,1,130,8|8,0:2|0:2,0:0:0:0:
112,25,156344,1,8,0:2:0:0:
175,39,156525,2,0,P|211:92|267:123,1,130,8|0,3:2|3:0,0:0:0:0:
394,99,157248,2,0,P|350:145|337:207,1,130,0|0,3:0|3:0,0:0:0:0:
236,290,157971,5,6,3:0:0:0:
181,326,158152,2,0,P|123:352|60:341,1,130,0|0,0:0|0:0,0:0:0:0:
18,291,158694,2,0,P|38:266|49:236,1,65,0|0,3:0|0:0,0:0:0:0:
25,175,159055,2,0,P|20:142|24:110,1,65,0|0,3:0|0:0,0:0:0:0:
55,52,159417,1,6,3:0:0:0:
112,22,159597,1,0,0:0:0:0:
176,30,159778,2,0,P|213:52|236:89,1,65,0|0,3:0|0:0,0:0:0:0:
210,132,160140,2,0,P|201:162|204:195,1,65,0|0,3:0|0:0,0:0:0:0:
254,236,160501,5,0,3:0:0:0:
311,266,160682,1,0,0:0:0:0:
375,270,160862,2,0,P|438:257|488:216,1,130,6|0,3:0|3:0,0:0:0:0:
495,151,161405,1,0,0:0:0:0:
461,93,161585,2,0,P|430:86|397:87,1,65,0|0,3:0|0:0,0:0:0:0:
348,130,161947,2,0,P|315:130|283:123,1,65,0|0,3:0|0:0,0:0:0:0:
232,83,162308,21,6,3:0:0:0:
171,59,162489,1,0,0:0:0:0:
105,59,162670,2,0,P|77:76|56:101,1,65,0|0,3:0|0:0,0:0:0:0:
88,158,163031,2,0,P|111:187|121:227,1,65,0|0,3:0|0:0,0:0:0:0:
69,255,163393,2,0,P|40:283|20:321,1,65,0|0,3:0|0:0,0:0:0:0:
53,363,163754,38,0,P|94:372|201:338,1,130,6|0,3:0|3:0,0:0:0:0:
218,302,164296,1,0,0:0:0:0:
231,238,164477,2,0,P|229:173|193:120,1,130,0|0,3:0|3:0,0:0:0:0:
129,114,165019,1,0,0:0:0:0:
64,117,165200,2,0,P|31:115|1:104,1,65,6|0,3:0|0:0,0:0:0:0:
14,40,165561,2,0,P|39:24|93:15,1,65,0|0,3:0|0:0,0:0:0:0:
137,22,165923,2,0,P|167:33|199:35,1,65,0|0,3:0|0:0,0:0:0:0:
264,27,166284,1,0,3:0:0:0:
322,56,166465,1,0,0:0:0:0:
382,79,166646,6,0,P|397:141|383:204,1,130,6|0,3:0|3:0,0:0:0:0:
321,223,167188,1,0,0:0:0:0:
263,251,167368,2,0,P|264:320|297:369,1,130,0|0,3:0|3:0,0:0:0:0:
362,370,167911,1,0,0:0:0:0:
424,351,168091,2,0,P|450:333|469:307,1,65,6|0,3:0|0:0,0:0:0:0:
470,242,168453,1,0,3:0:0:0:
433,188,168634,1,0,0:0:0:0:
414,125,168814,2,0,P|411:92|418:61,1,65,0|0,3:0|0:0,0:0:0:0:
373,13,169176,2,0,P|346:31|315:41,1,65,0|0,3:0|0:0,0:0:0:0:
251,32,169537,37,2,3:2:0:0:
177,139,169899,2,0,L|185:214,1,65,2|2,0:2|0:2,0:0:0:0:
195,267,170260,1,2,0:2:0:0:
213,384,170621,1,2,0:2:0:0:
340,355,170983,6,0,P|366:325|376:220,1,130,6|0,0:2|0:2,0:0:0:0:
346,183,171525,1,0,0:2:0:0:
292,146,171706,2,0,P|262:105|256:66,1,65,0|0,0:2|0:2,0:0:0:0:
268,27,172067,2,0,P|295:10|327:6,1,65,0|0,0:2|0:0,0:0:0:0:
393,0,172429,70,0,P|391:65|420:122,1,130,2|2,3:2|0:2,0:0:0:0:
463,171,172971,1,2,0:2:0:0:
490,229,173152,2,0,P|492:273|478:314,1,65,2|2,0:2|0:2,0:0:0:0:
427,317,173513,2,0,P|391:301|343:300,1,65,2|2,0:2|0:2,0:0:0:0:
305,321,173874,2,0,P|258:336|229:330,1,65,2|0,0:2|0:2,0:0:0:0:
184,305,174236,2,0,P|150:299|106:310,1,65,0|0,0:2|0:2,0:0:0:0:
64,337,174597,1,0,0:0:0:0:
1,226,174959,1,0,0:0:0:0:
90,150,175320,22,0,P|107:108|80:32,1,116.999996429443,0|0,3:0|0:0,0:0:0:0:
199,3,176043,2,0,P|179:57|197:111,1,116.999996429443,8|0,0:0|0:0,0:0:0:0:
261,210,176766,2,0,P|205:202|126:285,1,175.499994644165,0|0,3:0|0:0,0:0:0:0:
84,320,177489,2,0,P|51:264|64:193,1,116.999996429443,8|0,0:0|0:0,0:0:0:0:
99,105,178212,2,0,P|153:84|217:98,1,116.999996429443,0|0,3:0|0:0,0:0:0:0:
261,121,178754,1,0,0:0:0:0:
314,144,178935,6,0,P|301:87|316:31,1,116.999996429443,8|0,0:0|0:0,0:0:0:0:
416,90,179658,1,0,3:0:0:0:
260,264,180380,1,8,0:0:0:0:
119,77,181103,22,0,P|90:80|58:99,1,58.4999982147217,0|0,3:0|0:0,0:0:0:0:
26,138,181465,2,0,P|55:141|87:160,1,58.4999982147217,0|0,0:0|0:0,0:0:0:0:
129,185,181826,2,0,P|50:220|20:300,1,175.499994644165,8|0,0:0|0:0,0:0:0:0:
42,354,182549,2,0,P|98:336|156:341,1,116.999996429443,0|0,3:0|0:0,0:0:0:0:
268,308,183272,6,0,P|297:302|322:287,1,58.4999982147217,8|0,0:0|0:0,0:0:0:0:
343,232,183634,2,0,P|347:203|360:177,1,58.4999982147217,0|0,0:0|3:0,0:0:0:0:
409,145,183995,2,0,P|386:98|270:57,1,175.499994644165,0|0,3:0|0:0,0:0:0:0:
252,108,184718,2,0,P|196:124|140:107,1,116.999996429443,8|0,0:0|0:0,0:0:0:0:
93,73,185260,1,0,0:0:0:0:
51,31,185441,6,0,L|62:206,1,175.499994644165,0|0,3:0|0:0,0:0:0:0:
88,258,186164,2,0,P|131:238|210:237,1,116.999996429443,8|0,0:0|0:0,0:0:0:0:
309,276,186887,2,0,P|359:297|357:120,1,350.99998928833,0|0,3:0|0:0,0:0:0:0:
257,173,188332,70,0,P|201:186|144:177,1,116.999996429443,0|0,3:0|0:0,0:0:0:0:
151,60,189055,2,0,P|207:46|264:55,1,116.999996429443,8|0,0:0|0:0,0:0:0:0:
361,120,189778,2,0,B|391:350|391:350|324:381|276:355,1,350.99998928833,0|0,3:0|0:0,0:0:0:0:
189,275,191224,6,0,P|133:265|78:283,1,116.999996429443,0|0,3:0|0:0,0:0:0:0:
5,191,191947,2,0,P|-6:134|8:78,1,116.999996429443,8|0,0:0|0:0,0:0:0:0:
118,37,192670,70,0,B|217:14|264:101|264:101|387:126|419:24,1,350.99998928833,0|0,3:0|0:0,0:0:0:0:
487,129,194115,2,0,P|492:178|470:254,1,116.999996429443,0|0,3:0|0:0,0:0:0:0:
364,280,194838,2,0,P|307:266|249:273,1,116.999996429443,8|0,0:0|0:0,0:0:0:0:
139,313,195561,1,0,3:0:0:0:
256,192,195652,12,0,197730,0:0:0:0:
493,93,198453,6,0,P|489:156|448:206,1,130,0|0,3:2|0:0,0:0:0:0:
385,113,199176,1,8,0:0:0:0:
305,9,199537,2,0,P|259:126|328:230,1,260,0|14,3:0|0:0,0:0:0:0:
432,308,200621,1,0,3:0:0:0:
486,184,200983,2,0,P|445:134|384:112,1,130,8|8,0:0|0:0,0:0:0:0:
328,230,201706,1,0,3:0:0:0:
244,329,202067,2,0,P|205:330|172:339,1,65,0|0,0:0|0:0,0:0:0:0:
115,352,202429,2,0,P|83:350|55:335,1,65,0|0,3:0|0:0,0:0:0:0:
27,289,202790,6,0,P|30:225|71:175,1,130,0|0,3:0|0:0,0:0:0:0:
127,271,203513,1,8,0:0:0:0:
206,374,203874,2,0,P|252:257|183:153,1,260,0|14,3:0|0:0,0:0:0:0:
80,76,204958,1,0,3:0:0:0:
26,200,205320,2,0,P|66:249|127:271,1,130,8|8,0:0|0:0,0:0:0:0:
184,154,206043,1,0,3:0:0:0:
238,36,206404,2,0,P|287:46|316:71,1,65,0|0,0:0|0:0,0:0:0:0:
356,88,206766,2,0,P|393:98|441:95,1,65,0|0,0:0|0:0,0:0:0:0:
470,138,207127,54,0,P|437:192|377:212,1,130,0|0,3:0|0:0,0:0:0:0:
253,170,207850,1,8,0:0:0:0:
135,108,208212,2,0,B|72:143|77:227|77:227|143:250|149:313,1,260,0|14,3:0|0:0,0:0:0:0:
263,374,209296,1,0,3:0:0:0:
378,313,209658,2,0,P|407:260|405:177,1,130,8|8,0:0|0:0,0:0:0:0:
329,89,210380,1,0,3:0:0:0:
271,205,210742,2,0,P|257:240|226:272,1,65,0|0,0:0|0:0,0:0:0:0:
175,269,211103,2,0,P|131:260|96:262,1,65,0|0,0:0|0:0,0:0:0:0:
48,242,211465,5,0,3:0:0:0:
96,121,211826,1,0,0:0:0:0:
224,97,212188,1,8,0:0:0:0:
329,173,212549,2,0,P|421:191|493:130,1,195,0|0,3:0|0:0,0:0:0:0:
496,65,213272,2,0,P|469:46|417:32,1,65,10|0,0:0|0:0,0:0:0:0:
373,32,213634,1,0,3:0:0:0:
261,98,213995,1,8,0:0:0:0:
219,220,214356,1,8,0:0:0:0:
275,337,214718,70,0,L|404:347,1,130,0|0,3:0|0:0,0:0:0:0:
491,283,215441,1,0,0:0:0:0:
