osu file format v14

[General]
AudioFilename: audio.mp3
AudioLeadIn: 0
PreviewTime: 381
Countdown: 0
SampleSet: Soft
StackLeniency: 0.2
Mode: 0
LetterboxInBreaks: 0
WidescreenStoryboard: 1

[Editor]
Bookmarks: 6164,11947,17730,20260,26405,52429,62549,63995,87127,90019,113152,126887,130501,134838,146405,157971,163754,169537,175320,178935,181103,183272,198453,202790,207127
DistanceSpacing: 1.2
BeatDivisor: 4
GridSize: 32
TimelineZoom: 1.5

[Metadata]
Title:Ga1ahad and Scientific Witchery
TitleUnicode:Ga1ahad and Scientific Witchery
Artist:Mili
ArtistUnicode:Mili
Creator:Yukiyo
Version:Hard
Source:
Tags:galahad miracle milk
BeatmapID:1400512
BeatmapSetID:592362

[Difficulty]
HPDrainRate:5
CircleSize:4
OverallDifficulty:6
ApproachRate:8
SliderMultiplier:1.45
SliderTickRate:1

[Events]
//Background and Video events
0,0,"Ga1ahad and Scientific Witchery.jpg",0,0
//Break Periods
2,35279,39992
2,87327,89149
2,152388,157221
//Storyboard Layer 0 (Background)
Sprite,Background,Centre,"Ga1ahad and Scientific Witchery.jpg",320,240 F,0,0,1000,0,1 S,0,0,215600,0.4 F,0,215441,217441,1,0
Sprite,Background,Centre,"sb\fade.png",320,240 M,0,0,100,320,240,50,240 R,0,0,100,0,1.570796 S,0,0,215600,0.84 F,0,17600,17730,0,0.8 F,0,20400,20500,0.8,0 M,0,20501,20502,60,240,570,240 F,0,20600,20621,0,0.8 F,0,23152,23332,0.8,0 M,0,23333,23334,60,240,50,240 F,0,23423,23513,0,0.8 F,0,26224,26405,0.8,0 M,0,29025,29026,60,240,570,240 F,0,29115,29296,0,0.8 F,0,31826,32007,0.8,0 M,0,32007,,60,240,50,240 F,0,32007,32188,0,0.8 F,0,32549,32730,0.8,0 M,0,32730,,60,240,570,240 F,0,32730,32911,0,0.8 F,0,33453,33633,0.8,0 M,0,40682,,60,240,570,240 F,0,40682,40862,0,0.8 F,0,52158,52248,0.8,0 M,0,52248,,60,240,50,240 F,0,52248,52429,0,0.8 F,0,72308,72489,0.8,0 M,0,72489,,60,240,570,240 F,0,72489,72670,0,0.8 F,0,75200,75380,0.8,0 M,0,75380,,60,240,50,240 F,0,75380,75561,0,0.8 F,0,78091,78272,0.8,0 M,0,78272,,60,240,570,240 F,0,78272,78453,0,0.8 F,0,80983,81344,0.8,0 M,0,89838,,60,240,570,240 F,0,89838,90019,0,0.8 F,0,112790,112971,0.8,0 M,0,112971,,60,240,50,240 F,0,112971,113152,0,0.8 F,0,146224,146405,0.8,0 M,0,157790,,60,240,570,240 F,0,157790,157971,0,0.8 F,0,160501,160682,0.8,0 M,0,160682,,60,240,50,240 F,0,160682,160862,0,0.8 F,0,162308,162489,0.8,0 M,0,162489,,60,240,570,240 F,0,162489,162670,0,0.8 F,0,166284,166465,0.8,0 M,0,166465,,60,240,50,240 F,0,166465,166646,0,0.8 F,0,169176,169356,0.8,0 M,0,175140,,60,240,570,240 F,0,175140,175320,0,0.8 F,0,178573,178754,0.8,0 M,0,178754,,60,240,50,240 F,0,178754,178935,0,0.8 F,0,180742,180923,0.8,0 M,0,180923,,60,240,570,240 F,0,180923,181103,0,0.8 F,0,182911,183091,0.8,0 M,0,198272,,60,240,50,240 F,0,198272,198453,0,0.8 F,0,202429,202609,0.8,0 M,0,202609,,60,240,570,240 F,0,202609,202790,0,0.8 F,0,206766,206947,0.8,0
Sprite,Background,Centre,"sb\fade.png",320,240 M,0,0,100,320,240,850,240 R,0,0,100,0,1.570796 S,0,0,215600,0.84 F,0,26224,26405,0,0.8 F,0,28935,29115,0.8,0 F,0,33453,33633,0,0.8 F,0,34718,34899,0.8,0 F,0,81164,81344,0,0.8 F,0,86766,86947,0.8,0 F,0,169356,169537,0,0.8 F,0,174959,175140,0.8,0 F,0,183091,183272,0,0.8 F,0,198091,198272,0.8,0 F,0,206947,207127,0,0.8 M,0,207127,215621,850,240,1000,240 F,0,215441,215621,0.8,0
Sprite,Background,Centre,"sb\fade.png",320,240 M,0,0,100,320,240,-210,240 R,0,0,100,0,1.570796 S,0,0,215600,0.84 F,0,26224,26405,0,0.8 F,0,28935,29115,0.8,0 F,0,33453,33633,0,0.8 F,0,34718,34899,0.8,0 F,0,81164,81344,0,0.8 F,0,86766,86947,0.8,0 F,0,169356,169537,0,0.8 F,0,174959,175140,0.8,0 F,0,183091,183272,0,0.8 F,0,198091,198272,0.8,0 F,0,206947,207127,0,0.8 M,0,207127,215621,-210,240,-360,240 F,0,215441,215621,0.8,0
//Storyboard Layer 1 (Fail)
//Storyboard Layer 2 (Pass)
//Storyboard Layer 3 (Foreground)
//Storyboard Sound Samples

[TimingPoints]
381,361.44578313253,4,2,1,80,1,0
40862,-111.111111111111,4,2,1,50,0,0
52429,-100,4,2,1,80,0,0
88935,-100,4,2,1,60,0,0
89115,-100,4,2,1,80,0,0
90019,-111.111111111111,4,2,1,50,0,0
113152,-100,4,2,1,70,0,0
123272,-100,4,2,3,70,0,1
123453,-100,4,2,1,70,0,1
124718,-100,4,2,1,75,0,1
126164,-100,4,2,4,80,0,1
126344,-100,4,2,1,80,0,1
127609,-100,4,2,1,90,0,1
129055,-100,4,2,5,100,0,1
129236,-100,4,2,1,100,0,1
131947,-100,4,2,6,100,0,1
132127,-100,4,2,1,100,0,1
134838,-100,4,2,1,80,0,0
146405,-100,4,2,1,65,0,0
157971,-100,4,2,6,70,0,1
159417,-100,4,2,7,80,0,1
160862,-100,4,2,3,80,0,1
162308,-100,4,2,4,80,0,1
162670,-100,4,2,5,90,0,1
165200,-100,4,2,6,100,0,1
166646,-100,4,2,7,100,0,1
168091,-100,4,2,4,100,0,1
169537,-100,4,2,1,100,0,0
169989,-100,4,2,1,5,0,0
170079,-100,4,2,1,100,0,0
170350,-100,4,2,1,5,0,0
170441,-100,4,2,1,100,0,0
170712,-100,4,2,1,5,0,0
170802,-100,4,2,1,100,0,0
171073,-100,4,2,1,5,0,0
171164,-100,4,2,1,100,0,0
172880,-100,4,2,1,5,0,0
172971,-100,4,2,1,100,0,0
173242,-100,4,2,1,5,0,0
173332,-100,4,2,1,100,0,0
173603,-100,4,2,1,5,0,0
173694,-100,4,2,1,100,0,0
173965,-100,4,2,1,5,0,0
174055,-100,4,2,1,100,0,0
175320,-111.111111111111,4,2,1,60,0,0
198453,-100,4,2,1,80,0,0
215170,-100,4,2,1,5,0,0
215441,-100,4,2,1,100,0,0
215531,-100,4,2,1,22,0,0

[Colours]
Combo1 : 85,85,85
Combo2 : 128,0,255
Combo3 : 181,0,181
Combo4 : 162,162,162
Combo5 : 0,85,170
Combo6 : 0,170,170

[HitObjects]
117,0,381,54,0,L|124:72,1,72.5,0|0,3:0|0:0,0:0:0:0:
138,143,742,2,0,B|209:120|209:120|276:138,1,145,0|0,0:0|0:0,0:0:0:0:
345,162,1284,1,0,3:0:0:0:
416,175,1465,2,0,P|398:210|366:230,1,72.5,0|0,0:0|0:0,0:0:0:0:
272,260,1826,6,0,P|305:271|331:297,1,72.5,0|0,3:0|0:0,0:0:0:0:
268,334,2188,2,0,P|234:322|208:296,1,72.5,0|0,0:0|0:0,0:0:0:0:
202,151,2549,2,0,P|209:186|200:220,1,72.5,0|0,0:0|0:0,0:0:0:0:
135,253,2911,2,0,P|127:217|136:183,1,72.5,0|0,0:0|0:0,0:0:0:0:
191,75,3272,70,0,P|226:77|256:96,1,72.5,0|0,3:0|0:0,0:0:0:0:
288,162,3634,2,0,L|303:326,1,145,0|0,0:0|0:0,0:0:0:0:
355,354,4176,1,0,3:0:0:0:
426,349,4356,2,0,P|415:316|388:290,1,72.5,0|0,0:0|0:0,0:0:0:0:
408,219,4718,6,0,P|433:194|442:160,1,72.5,0|0,3:0|0:0,0:0:0:0:
362,86,5079,2,0,L|373:170,1,72.5,0|0,0:0|0:3,0:0:0:0:
287,208,5441,2,0,L|296:136,1,72.5,0|0,0:0|3:0,0:0:0:0:
217,49,5802,2,0,L|226:120,1,72.5,0|0,0:0|0:0,0:0:0:0:
145,227,6164,70,0,P|172:204|207:193,1,72.5,0|0,3:0|0:0,0:0:0:0:
209,266,6525,2,0,P|150:303|87:274,1,145,0|0,0:0|0:0,0:0:0:0:
71,203,7067,1,0,3:0:0:0:
96,134,7248,2,0,P|62:164|9:169,1,72.5,0|0,0:0|0:0,0:0:0:0:
29,98,7609,6,0,P|54:72|88:61,1,72.5,0|0,3:0|0:0,0:0:0:0:
164,96,7971,2,0,P|173:131|167:167,1,72.5,0|0,0:0|0:0,0:0:0:0:
69,273,8332,2,0,P|59:238|66:202,1,72.5,0|0,0:0|0:0,0:0:0:0:
205,231,8694,2,0,P|171:241|135:235,1,72.5,0|0,0:0|0:0,0:0:0:0:
247,166,9055,70,0,P|272:191|285:225,1,72.5,0|0,3:0|0:0,0:0:0:0:
341,271,9417,2,0,B|264:283|264:283|218:332,1,145,0|0,0:0|0:0,0:0:0:0:
277,382,9959,1,0,3:0:0:0:
342,351,10140,2,0,L|413:361,1,72.5,0|0,0:0|0:0,0:0:0:0:
492,276,10501,6,0,L|420:286,1,72.5,0|0,3:0|0:0,0:0:0:0:
357,245,10862,2,0,L|285:255,1,72.5,0|0,0:0|0:0,0:0:0:0:
170,175,11224,2,0,L|241:185,1,72.5,0|0,0:0|3:2,0:0:0:0:
297,125,11585,2,0,L|368:135,1,72.5,0|0,0:0|0:0,0:0:0:0:
450,114,11947,69,0,3:0:0:0:
381,60,12127,1,0,0:0:0:0:
381,60,12218,1,0,0:0:0:0:
381,60,12308,1,0,0:0:0:0:
368,135,12489,1,0,0:0:0:0:
355,208,12670,2,0,L|344:279,1,72.5,0|0,0:2|3:0,0:0:0:0:
331,361,13031,2,0,L|390:384,2,36.25,0|0|0,0:0|0:0|0:0,0:0:0:0:
269,300,13393,5,0,3:0:0:0:
208,364,13573,1,0,0:0:0:0:
208,364,13664,1,0,0:0:0:0:
208,364,13754,1,0,0:0:0:0:
190,280,13935,1,0,0:0:0:0:
177,207,14116,2,0,L|166:135,1,72.5,0|0,0:0|0:0,0:0:0:0:
157,53,14477,2,0,L|98:30,2,36.25,0|0|0,0:0|0:0|0:0,0:0:0:0:
89,114,14839,69,0,3:0:0:0:
27,172,15019,2,0,L|23:208,2,36.25,0|0|0,0:0|0:0|0:0,0:0:0:0:
105,192,15380,1,0,0:0:0:0:
72,268,15561,1,0,0:0:0:0:
152,261,15742,2,0,L|155:297,2,36.25,0|0|0,3:0|0:0|0:0,0:0:0:0:
188,187,16103,1,0,0:0:0:0:
234,260,16284,6,0,P|268:270|304:267,1,72.5,0|0,3:0|0:0,0:0:0:0:
350,199,16646,2,0,P|315:188|279:191,1,72.5,0|0,0:0|0:0,0:0:0:0:
387,272,17007,2,0,P|414:247|429:214,1,72.5,0|0,0:0|3:0,0:0:0:0:
473,158,17368,2,0,P|480:193|501:223,1,72.5,0|0,0:0|0:0,0:0:0:0:
390,141,17730,21,0,3:0:0:0:
313,181,17911,2,0,L|305:222,2,36.25,0|0|0,0:0|0:0|0:0,0:0:0:0:
321,99,18272,1,0,0:0:0:0:
390,221,18453,2,0,L|398:262,2,36.25,0|0|0,0:0|0:0|3:0,0:0:0:0:
390,141,18814,1,0,0:0:0:0:
476,256,18995,2,0,L|468:297,1,36.25,0|0,0:0|0:0,0:0:0:0:
455,348,19176,6,0,P|421:339|385:342,1,72.5,0|0,3:0|0:0,0:0:0:0:
277,266,19537,2,0,P|311:275|347:272,1,72.5,0|0,0:0|0:0,0:0:0:0:
393,202,19899,2,0,P|358:192|322:195,1,72.5,0|0,0:0|0:0,0:0:0:0:
239,109,20260,2,0,P|273:118|309:115,1,72.5,0|0,0:0|0:0,0:0:0:0:
240,28,20621,6,0,P|193:40|163:134,1,145,0|0,3:0|0:0,0:0:0:0:
208,187,21164,1,0,0:0:0:0:
171,257,21344,2,0,L|164:310,2,36.25,0|0|0,0:0|0:0|3:0,0:0:0:0:
123,192,21706,2,0,L|21:177,1,72.5,0|0,0:0|0:0,0:0:0:0:
78,337,22067,38,0,L|88:265,1,72.5,0|0,3:0|0:0,0:0:0:0:
166,292,22429,2,0,L|176:364,1,72.5,0|0,0:0|0:0,0:0:0:0:
247,298,22790,2,0,L|257:226,1,72.5,0|0,0:0|3:0,0:0:0:0:
171,138,23152,2,0,L|181:210,1,72.5,0|0,0:0|0:0,0:0:0:0:
326,279,23513,6,0,P|395:270|430:210,1,145,0|0,3:0|0:0,0:0:0:0:
351,201,24055,1,0,0:0:0:0:
404,130,24236,2,0,P|404:90|385:47,1,72.5,0|0,0:0|3:0,0:0:0:0:
316,33,24597,2,0,P|316:73|335:116,1,72.5,0|0,0:0|0:0,0:0:0:0:
350,200,24959,2,0,P|320:182|284:177,1,72.5,0|0,3:0|0:0,0:0:0:0:
295,258,25320,2,0,P|325:277|361:282,1,72.5,0|0,0:0|0:0,0:0:0:0:
456,297,25682,2,0,P|385:302|342:357,1,145,0|0,0:0|0:0,0:0:0:0:
268,327,26224,1,0,0:0:0:0:
223,260,26405,38,0,L|206:344,1,72.5,0|0,3:0|0:0,0:0:0:0:
291,184,26766,2,0,L|308:268,1,72.5,0|0,0:0|0:0,0:0:0:0:
290,333,27127,1,0,0:0:0:0:
93,264,27308,2,0,P|158:234|223:260,1,145,0|0,3:0|0:0,0:0:0:0:
305,112,27850,6,0,L|288:196,1,72.5,0|0,3:0|0:0,0:0:0:0:
205,9,28212,2,0,L|222:93,1,72.5,0|0,0:0|0:0,0:0:0:0:
213,163,28573,1,0,0:0:0:0:
434,115,28754,2,0,P|369:85|304:111,1,145,0|0,3:0|0:0,0:0:0:0:
213,163,29296,6,0,P|147:190|83:160,1,145,0|0,3:0|0:0,0:0:0:0:
33,97,29838,1,0,0:0:0:0:
7,172,30019,2,0,P|19:205|46:228,1,72.5,0|0,0:0|3:0,0:0:0:0:
111,276,30380,2,0,P|75:269|41:281,1,72.5,0|0,0:0|0:0,0:0:0:0:
84,350,30742,38,0,P|153:341|187:280,1,145,0|0,3:0|0:0,0:0:0:0:
154,207,31284,2,0,B|124:152|124:152|150:43,1,145,0|0,0:0|0:0,0:0:0:0:
221,88,31826,2,0,P|256:97|312:76,1,72.5,0|0,0:0|0:0,0:0:0:0:
367,63,32188,54,0,P|336:93|324:194,1,145,0|0,3:0|0:0,0:0:0:0:
256,235,32730,1,0,0:0:0:0:
179,212,32911,70,0,P|210:242|222:343,1,145,0|0,0:0|0:0,0:0:0:0:
297,368,33453,1,0,0:0:0:0:
359,317,33634,70,0,P|327:293|269:289,1,72.5,0|0,3:0|0:0,0:0:0:0:
167,267,33995,2,0,P|199:243|257:239,1,72.5,0|0,0:0|0:0,0:0:0:0:
349,197,34356,2,0,P|317:173|259:169,1,72.5,0|0,0:0|3:0,0:0:0:0:
156,130,34718,2,0,P|188:106|246:102,1,72.5,0|0,0:0|0:0,0:0:0:0:
272,26,35079,1,6,2:3:0:0:
210,50,40862,6,0,L|49:68,1,130.499996017456,4|0,3:2|0:0,0:0:0:0:
39,123,41405,1,0,0:0:0:0:
51,193,41585,2,0,L|138:177,1,65.2499980087281,8|0,0:0|0:0,0:0:0:0:
239,235,41947,2,0,L|152:219,1,65.2499980087281,0|0,0:0|0:0,0:0:0:0:
117,376,42308,38,0,P|88:318|108:258,1,130.499996017456,0|0,3:0|0:0,0:0:0:0:
185,149,43031,2,0,P|213:91|193:31,1,130.499996017456,8|0,0:0|0:0,0:0:0:0:
124,11,43573,1,0,0:0:0:0:
73,62,43754,38,0,P|115:84|155:79,1,65.2499980087281,0|0,3:0|0:0,0:0:0:0:
108,157,44115,2,0,P|81:174|49:178,1,65.2499980087281,0|0,0:0|0:0,0:0:0:0:
46,251,44477,2,0,P|73:268|105:272,1,65.2499980087281,8|0,0:0|0:0,0:0:0:0:
191,314,44838,2,0,P|162:328|142:354,1,65.2499980087281,0|0,0:0|0:0,0:0:0:0:
253,358,45200,38,0,P|265:295|227:245,1,130.499996017456,0|0,3:0|0:0,0:0:0:0:
93,193,45923,2,0,B|60:160|60:160|57:67,1,130.499996017456,8|0,0:0|0:0,0:0:0:0:
117,36,46465,1,0,0:0:0:0:
187,21,46646,38,0,B|220:54|220:54|223:147,1,130.499996017456,0|0,3:0|0:0,0:0:0:0:
201,206,47188,1,0,0:0:0:0:
148,254,47368,2,0,P|115:240|86:194,1,65.2499980087281,8|0,0:0|0:0,0:0:0:0:
39,264,47730,2,0,P|29:295|34:327,1,65.2499980087281,0|0,0:0|0:0,0:0:0:0:
226,372,48091,38,0,P|166:347|102:357,1,130.499996017456,0|0,3:0|0:0,0:0:0:0:
33,326,48634,1,0,0:0:0:0:
102,277,48814,2,0,P|116:249|120:216,1,65.2499980087281,8|0,0:0|0:0,0:0:0:0:
61,164,49176,2,0,P|46:192|42:225,1,65.2499980087281,0|0,0:0|0:0,0:0:0:0:
192,242,49537,38,0,P|195:202|129:140,1,130.499996017456,0|0,3:0|0:0,0:0:0:0:
61,164,50079,1,0,0:0:0:0:
81,88,50260,2,0,L|112:17,1,65.2499980087281,8|0,0:0|0:0,0:0:0:0:
204,1,50621,2,0,L|178:61,1,65.2499980087281,0|0,0:0|0:0,0:0:0:0:
131,179,50983,38,0,P|160:167|193:166,1,65.2499980087281,0|0,3:0|0:0,0:0:0:0:
242,228,51344,2,0,P|212:240|179:241,1,65.2499980087281,0|0,0:0|0:0,0:0:0:0:
44,296,51706,2,0,P|68:265|111:248,1,65.2499980087281,8|0,0:0|0:0,0:0:0:0:
181,349,52067,2,0,P|140:342|114:323,1,65.2499980087281,0|0,0:0|0:0,0:0:0:0:
262,306,52429,53,0,3:2:0:0:
347,321,52609,1,0,0:2:0:0:
488,209,52970,5,0,0:2:0:0:
403,224,53150,1,0,0:0:0:0:
318,239,53332,1,0,0:2:0:0:
264,113,53694,69,0,0:2:0:0:
349,128,53874,1,0,3:0:0:0:
434,143,54056,1,0,0:0:0:0:
486,19,54417,5,0,0:0:0:0:
401,34,54597,1,0,3:0:0:0:
316,49,54779,1,0,0:0:0:0:
286,219,55139,69,0,0:0:0:0:
302,130,55320,1,0,3:2:0:0:
316,49,55501,1,0,0:0:0:0:
365,190,55863,5,0,0:0:0:0:
380,275,56045,1,0,0:0:0:0:
395,360,56225,1,0,0:0:0:0:
446,209,56585,69,0,0:0:0:0:
461,124,56765,1,0,3:0:0:0:
476,39,56947,1,0,0:0:0:0:
285,200,57308,5,0,0:0:0:0:
300,285,57490,1,0,3:2:0:0:
315,370,57670,1,0,0:0:0:0:
369,225,57850,1,0,3:2:0:0:
493,175,58212,69,0,3:2:0:0:
443,246,58393,1,0,0:0:0:0:
429,41,58754,5,0,0:0:0:0:
421,127,58935,1,0,3:0:0:0:
500,91,59116,1,0,0:0:0:0:
265,111,59477,69,0,0:0:0:0:
330,166,59658,1,0,3:0:0:0:
346,81,59839,1,0,0:0:0:0:
230,280,60199,5,0,0:0:0:0:
312,258,60380,1,0,3:0:0:0:
251,196,60561,1,0,0:0:0:0:
396,287,60922,69,0,0:0:0:0:
482,273,61103,1,0,3:0:0:0:
453,353,61284,1,0,0:0:0:0:
350,143,61646,5,0,0:0:0:0:
410,205,61827,1,0,3:0:0:0:
328,227,62008,1,0,0:0:0:0:
278,71,62368,69,0,0:0:0:0:
261,155,62549,1,0,3:0:0:0:
196,101,62730,1,0,0:0:0:0:
345,19,63091,5,0,0:0:0:0:
429,40,63272,1,0,3:0:0:0:
478,111,63453,1,0,0:0:0:0:
473,197,63634,1,0,3:0:0:0:
319,277,63995,70,0,P|420:274|457:369,1,217.5,0|0,3:0|0:0,0:0:0:0:
372,348,64718,2,0,B|418:294|418:294|405:136,1,217.5,0|0,3:0|0:0,0:0:0:0:
368,72,65441,2,0,P|328:123|325:159,1,72.5,0|0,3:0|0:0,0:0:0:0:
472,199,65802,2,0,P|487:166|490:130,1,72.5,0|0,3:0|0:0,0:0:0:0:
405,148,66164,1,0,3:0:0:0:
362,300,66525,1,8,0:0:0:0:
232,223,66887,6,0,P|264:207|300:203,1,72.5,0|0,3:0|0:0,0:0:0:0:
362,300,67248,2,0,P|329:284|293:280,1,72.5,0|0,3:0|0:0,0:0:0:0:
388,378,67609,2,0,P|419:360|438:329,1,72.5,0|0,3:0|0:0,0:0:0:0:
427,248,67971,2,0,P|409:216|407:181,1,72.5,0|0,3:0|0:0,0:0:0:0:
456,109,68332,70,0,P|473:77|475:42,1,72.5,0|0,3:0|0:0,0:0:0:0:
352,38,68694,2,0,P|353:73|371:104,1,72.5,0|0,3:0|0:0,0:0:0:0:
472,207,69055,2,0,P|439:185|385:185,1,72.5,0|0,3:0|0:0,0:0:0:0:
276,204,69417,2,0,P|309:226|363:226,1,72.5,0|0,3:0|0:0,0:0:0:0:
467,298,69778,6,0,P|431:290|396:297,1,72.5,0|0,3:2|0:2,0:0:0:0:
310,313,70140,2,0,L|316:366,2,48.3333333333333,2|2|2,0:0|0:0|0:0,0:0:0:0:
264,275,70501,2,0,L|275:203,1,72.5,2|0,3:2|0:2,0:0:0:0:
329,88,70862,2,0,L|340:159,1,72.5,8|0,3:2|0:2,0:0:0:0:
399,224,71224,70,0,P|432:236|468:234,1,72.5,0|0,3:2|0:2,0:0:0:0:
506,156,71585,1,2,3:2:0:0:
507,108,71705,1,2,0:2:0:0:
489,63,71825,1,2,0:2:0:0:
459,23,71947,2,0,P|423:20|388:31,1,72.5,2|0,3:2|0:2,0:0:0:0:
344,104,72308,2,0,P|309:114|273:112,1,72.5,8|0,3:2|0:2,0:0:0:0:
199,61,72670,22,0,L|127:70,1,72.5,0|0,3:2|0:2,0:0:0:0:
46,131,73031,2,0,L|31:54,2,48.3333333333333,2|2|2,0:0|0:0|0:0,0:0:0:0:
89,170,73393,2,0,L|75:241,1,72.5,2|0,3:2|0:2,0:0:0:0:
117,317,73754,2,0,P|149:332|185:333,1,72.5,8|0,3:2|0:2,0:0:0:0:
243,268,74115,38,0,P|210:252|174:251,1,72.5,0|0,3:2|0:2,0:0:0:0:
126,177,74477,1,2,3:2:0:0:
109,132,74597,1,2,0:2:0:0:
110,84,74717,1,2,0:2:0:0:
130,40,74838,2,0,P|164:29|200:29,1,72.5,2|0,3:2|0:2,0:0:0:0:
292,115,75200,2,0,P|257:122|221:117,1,72.5,8|0,3:2|0:2,0:0:0:0:
308,27,75561,6,0,P|344:29|377:42,1,72.5,0|0,3:2|0:2,0:0:0:0:
436,106,75923,1,2,3:2:0:0:
450,151,76043,1,2,0:2:0:0:
448,199,76163,1,2,0:2:0:0:
430,244,76284,2,0,L|358:254,1,72.5,2|0,3:2|0:2,0:0:0:0:
254,172,76646,2,0,L|325:181,1,72.5,8|0,3:2|0:2,0:0:0:0:
299,320,77007,6,0,P|280:290|275:254,1,72.5,0|0,3:2|0:2,0:0:0:0:
338,164,77368,1,2,3:2:0:0:
360,122,77488,1,2,0:2:0:0:
363,75,77608,1,2,0:2:0:0:
351,32,77730,2,0,L|279:42,1,72.5,2|0,3:2|0:2,0:0:0:0:
231,114,78091,2,0,L|241:186,1,72.5,8|0,3:2|0:2,0:0:0:0:
201,264,78453,6,0,L|129:274,1,72.5,0|0,3:2|0:2,0:0:0:0:
54,228,78814,1,2,3:2:0:0:
32,184,78934,1,2,0:2:0:0:
28,136,79054,1,2,0:2:0:0:
40,90,79176,2,0,P|99:104|139:85,1,72.5,2|0,3:2|0:2,0:0:0:0:
225,29,79537,2,0,P|166:15|126:34,1,72.5,8|0,3:2|0:2,0:0:0:0:
175,149,79899,38,0,P|185:183|184:219,1,72.5,0|0,3:2|0:2,0:0:0:0:
78,284,80260,1,2,3:2:0:0:
126,282,80380,1,2,0:2:0:0:
171,298,80500,1,2,0:2:0:0:
207,330,80621,2,0,L|279:339,1,72.5,2|0,3:2|0:2,0:0:0:0:
377,250,80983,2,0,L|305:259,1,72.5,8|8,3:2|0:2,0:0:0:0:
216,236,81344,54,0,P|195:195|193:138,1,72.5,0|0,3:2|0:2,0:0:0:0:
251,23,81706,1,2,3:2:0:0:
280,60,81826,1,2,0:2:0:0:
292,107,81946,1,2,0:2:0:0:
283,154,82067,2,0,L|355:143,1,72.5,2|0,3:2|0:2,0:0:0:0:
461,235,82429,2,0,L|389:224,1,72.5,8|0,3:2|0:2,0:0:0:0:
305,259,82790,6,0,P|310:296|293:343,1,72.5,0|0,3:2|0:2,0:0:0:0:
205,227,83152,1,2,3:2:0:0:
175,189,83272,1,2,0:2:0:0:
163,142,83392,1,2,0:2:0:0:
172,95,83513,2,0,L|100:105,1,72.5,2|0,3:2|0:2,0:0:0:0:
250,26,83874,2,0,L|321:36,1,72.5,8|0,3:2|0:2,0:0:0:0:
322,185,84236,70,0,P|302:156|295:120,1,72.5,0|0,3:2|0:2,0:0:0:0:
413,188,84597,1,2,3:2:0:0:
413,235,84717,1,2,0:2:0:0:
392,279,84837,1,2,0:2:0:0:
354,308,84959,2,0,P|321:294|286:289,1,72.5,2|0,3:2|0:2,0:0:0:0:
145,333,85320,2,0,P|177:347|213:349,1,72.5,8|0,3:2|0:2,0:0:0:0:
259,191,85682,5,0,3:0:0:0:
259,191,86043,1,0,3:0:0:0:
259,191,86405,1,0,3:0:0:0:
259,191,86766,1,8,3:2:0:0:
259,191,87127,1,0,3:0:0:0:
222,84,90019,6,0,L|95:52,1,130.499996017456,0|0,3:0|0:0,0:0:0:0:
35,105,90561,1,0,0:0:0:0:
90,160,90742,2,0,L|170:140,1,65.2499980087281,0|0,0:0|0:0,0:0:0:0:
264,223,91103,2,0,L|184:203,1,65.2499980087281,0|0,0:0|0:0,0:0:0:0:
1,275,91465,38,0,L|148:226,1,130.499996017456,0|0,3:0|0:0,0:0:0:0:
158,300,92007,1,0,0:0:0:0:
237,319,92188,2,0,P|224:348|199:369,1,65.2499980087281,0|0,0:0|0:0,0:0:0:0:
209,241,92549,2,0,P|192:205|191:172,1,65.2499980087281,0|0,0:0|0:0,0:0:0:0:
229,82,92911,38,0,P|171:106|115:77,1,130.499996017456,0|0,3:0|0:0,0:0:0:0:
173,30,93453,1,0,0:0:0:0:
97,6,93634,2,0,P|68:19|46:43,1,65.2499980087281,0|0,0:0|3:0,0:0:0:0:
81,216,93995,1,8,0:0:0:0:
76,193,94085,1,8,0:0:0:0:
72,174,94176,1,8,0:0:0:0:
68,158,94266,1,8,0:0:0:0:
65,142,94356,38,0,L|-15:156,1,65.2499980087281,8|4,3:2|0:0,0:0:0:0:
13,257,94718,2,0,L|77:245,1,65.2499980087281,0|0,0:0|0:0,0:0:0:0:
154,237,95079,2,0,P|100:270|83:331,1,130.499996017456,0|0,0:0|0:0,0:0:0:0:
170,323,95621,1,0,0:0:0:0:
232,210,95802,38,0,B|223:149|223:149|187:90,1,130.499996017456,0|0,3:0|0:0,0:0:0:0:
111,71,96344,1,0,0:0:0:0:
36,96,96525,2,0,P|52:123|78:142,1,65.2499980087281,0|0,0:0|0:0,0:0:0:0:
143,188,96887,2,0,P|139:220|123:248,1,65.2499980087281,0|0,0:0|0:0,0:0:0:0:
21,305,97248,38,0,P|79:288|146:329,1,130.499996017456,0|0,3:0|0:0,0:0:0:0:
208,273,97790,1,0,0:0:0:0:
216,199,97971,2,0,P|200:170|198:138,1,65.2499980087281,0|0,0:0|0:0,0:0:0:0:
200,27,98332,2,0,P|183:54|156:72,1,65.2499980087281,0|0,0:0|0:0,0:0:0:0:
0,158,98694,38,0,B|40:129|40:129|139:143,1,130.499996017456,0|0,3:0|0:0,0:0:0:0:
144,215,99236,1,0,0:0:0:0:
166,290,99417,2,0,L|101:283,1,65.2499980087281,0|0,0:0|3:0,0:0:0:0:
6,354,99778,1,8,0:0:0:0:
22,355,99868,1,8,0:0:0:0:
38,357,99958,1,8,0:0:0:0:
54,359,100049,1,8,0:0:0:0:
70,360,100140,38,0,L|135:367,1,65.2499980087281,8|4,3:2|0:0,0:0:0:0:
230,273,100501,2,0,P|208:296|199:327,1,65.2499980087281,0|4,0:0|0:0,0:0:0:0:
111,193,100862,2,0,P|133:216|142:247,1,65.2499980087281,0|0,0:0|3:0,0:0:0:0:
223,102,101224,2,0,P|200:125|191:156,1,65.2499980087281,0|0,0:0|0:0,0:0:0:0:
67,256,101585,38,0,P|35:201|54:140,1,130.499996017456,0|0,3:0|0:0,0:0:0:0:
122,102,102127,1,0,0:0:0:0:
107,28,102308,2,0,P|77:41|57:65,1,65.2499980087281,0|0,0:0|3:0,0:0:0:0:
136,179,102670,2,0,P|165:166|186:141,1,65.2499980087281,0|0,0:0|0:0,0:0:0:0:
249,95,103031,38,0,B|222:132|222:132|236:215,1,130.499996017456,0|0,3:0|0:0,0:0:0:0:
218,291,103573,1,0,0:0:0:0:
157,341,103754,2,0,L|92:346,1,65.2499980087281,0|0,0:0|0:0,0:0:0:0:
0,272,104115,2,0,L|64:277,1,65.2499980087281,0|0,0:0|0:0,0:0:0:0:
186,141,104477,38,0,P|123:152|93:208,1,130.499996017456,0|0,3:0|0:0,0:0:0:0:
172,217,105019,1,0,0:0:0:0:
246,190,105200,2,0,P|261:162|263:130,1,65.2499980087281,0|0,0:0|3:0,0:0:0:0:
193,0,105561,1,8,0:0:0:0:
199,17,105652,1,8,0:0:0:0:
204,32,105742,1,8,0:0:0:0:
208,49,105832,1,8,0:0:0:0:
214,65,105923,38,0,L|122:71,1,65.2499980087281,8|4,3:2|0:0,0:0:0:0:
28,111,106284,2,0,L|92:119,1,65.2499980087281,0|0,0:0|0:0,0:0:0:0:
218,219,106646,2,0,B|158:196|158:196|92:207,1,130.499996017456,0|0,0:0|0:0,0:0:0:0:
27,249,107188,1,0,0:0:0:0:
1,322,107368,38,0,B|61:345|61:345|126:338,1,130.499996017456,0|0,3:0|0:0,0:0:0:0:
202,315,107911,2,0,P|178:280|131:263,1,65.2499980087281,0|0,0:0|0:0,0:0:0:0:
89,231,108272,2,0,P|60:173|71:110,1,130.499996017456,0|0,3:0|0:0,0:0:0:0:
55,35,108814,38,0,P|116:47|145:104,1,130.499996017456,0|0,3:0|0:0,0:0:0:0:
182,173,109356,1,0,0:0:0:0:
225,237,109537,2,0,P|196:250|164:249,1,65.2499980087281,0|0,0:0|0:0,0:0:0:0:
23,284,109899,2,0,P|52:270|84:271,1,65.2499980087281,0|0,0:0|0:0,0:0:0:0:
189,346,110260,38,0,P|129:369|68:351,1,130.499996017456,0|0,3:0|0:0,0:0:0:0:
23,284,110802,1,0,0:0:0:0:
9,206,110983,2,0,L|17:134,1,65.2499980087281,0|0,0:0|3:0,0:0:0:0:
91,45,111344,1,8,0:0:0:0:
92,61,111434,1,8,0:0:0:0:
94,77,111524,1,8,0:0:0:0:
96,93,111615,1,8,0:0:0:0:
98,109,111706,38,0,L|106:181,1,65.2499980087281,8|0,3:2|0:0,0:0:0:0:
164,281,112067,2,0,L|171:216,1,65.2499980087281,0|4,0:0|0:0,0:0:0:0:
226,41,112429,2,0,P|252:99|243:163,1,130.499996017456,0|0,0:0|0:0,0:0:0:0:
246,241,112971,1,0,0:0:0:0:
301,302,113152,53,0,3:0:0:0:
512,280,113332,1,0,0:0:0:0:
444,226,113513,1,8,0:0:0:0:
357,235,113694,1,8,0:0:0:0:
301,302,113874,1,8,0:0:0:0:
444,226,114236,5,0,3:0:0:0:
422,17,114416,1,0,0:0:0:0:
368,83,114597,1,8,0:0:0:0:
377,170,114778,1,8,0:0:0:0:
444,226,114958,1,8,0:0:0:0:
342,4,115320,70,0,P|310:21|290:51,1,72.5,0|0,3:0|0:0,0:0:0:0:
346,149,115682,2,0,P|365:118|367:82,1,72.5,8|8,0:0|0:0,0:0:0:0:
268,131,116043,2,0,P|266:166|282:199,1,72.5,8|0,0:0|0:0,0:0:0:0:
424,292,116405,2,0,P|407:260|377:240,1,72.5,0|8,3:0|0:0,0:0:0:0:
369,235,116676,1,8,0:0:0:0:
358,231,116766,5,8,0:0:0:0:
284,277,116947,1,8,0:0:0:0:
294,355,117127,2,0,P|328:341|351:313,1,72.5,8|0,0:0|0:0,0:0:0:0:
475,341,117489,2,0,P|453:312|424:292,1,72.5,8|0,0:0|0:0,0:0:0:0:
374,161,117850,2,0,P|359:194|357:230,1,72.5,0|0,0:0|0:0,0:0:0:0:
443,216,118212,69,0,3:0:0:0:
444,8,118393,1,0,0:0:0:0:
402,81,118573,1,8,0:0:0:0:
472,137,118754,1,8,0:0:0:0:
443,216,118935,1,8,0:0:0:0:
294,273,119296,5,0,3:0:0:0:
502,272,119477,1,0,0:0:0:0:
423,301,119658,1,8,0:0:0:0:
367,231,119838,1,8,0:0:0:0:
294,273,120019,1,8,0:0:0:0:
423,376,120380,70,0,P|458:368|485:344,1,72.5,0|0,3:0|0:0,0:0:0:0:
461,242,120742,2,0,P|434:266|422:300,1,72.5,8|8,0:0|0:0,0:0:0:0:
508,179,121103,2,0,P|519:144|512:109,1,72.5,8|0,0:0|0:0,0:0:0:0:
379,53,121465,2,0,P|388:88|414:113,1,72.5,8|8,3:2|0:0,0:0:0:0:
422,121,121736,1,8,0:0:0:0:
432,129,121826,5,8,0:2:0:0:
463,47,122007,1,0,0:0:0:0:
315,9,122188,2,0,P|280:13|247:29,1,72.5,0|0,0:0|0:0,0:0:0:0:
288,157,122549,2,0,P|302:124|304:88,1,72.5,0|8,0:0|0:0,0:0:0:0:
231,215,122911,2,0,P|231:250|246:283,1,72.5,8|8,0:0|0:0,0:0:0:0:
330,320,123272,69,6,3:3:0:0:
312,234,123453,1,0,0:0:0:0:
416,174,123634,1,0,3:0:0:0:
398,260,123815,1,0,0:0:0:0:
327,146,123995,2,0,L|342:56,1,72.5,0|0,3:0|0:0,0:0:0:0:
498,162,124356,2,0,L|509:233,1,72.5,0|0,3:0|0:0,0:0:0:0:
398,259,124718,6,0,P|468:265|513:319,1,145,0|0,3:0|3:0,0:0:0:0:
427,346,125260,1,0,0:0:0:0:
313,258,125441,2,0,P|321:223|343:195,1,72.5,0|0,3:0|0:0,0:0:0:0:
486,168,125802,2,0,P|451:178|415:173,1,72.5,0|0,3:0|0:0,0:0:0:0:
332,49,126164,70,0,L|356:117,1,72.5,6|0,3:3|0:0,0:0:0:0:
428,94,126525,1,0,3:0:0:0:
405,17,126706,1,0,0:0:0:0:
272,109,126887,2,0,L|296:177,1,72.5,0|0,3:0|0:0,0:0:0:0:
450,206,127248,2,0,L|379:192,1,72.5,0|0,3:0|0:0,0:0:0:0:
283,311,127609,6,0,L|329:256,1,72.5,0|0,3:0|0:0,0:0:0:0:
442,346,127971,2,0,P|406:349|372:337,1,72.5,0|0,3:0|0:0,0:0:0:0:
450,206,128332,2,0,P|477:228|493:261,1,72.5,0|0,3:0|0:0,0:0:0:0:
367,189,128694,1,0,3:0:0:0:
424,123,128874,1,0,0:0:0:0:
395,270,129055,2,0,P|360:273|326:260,1,72.5,6|0,3:0|0:0,0:0:0:0:
274,120,129417,70,0,L|282:191,2,72.5,0|0|0,3:0|0:0|3:0,0:0:0:0:
340,53,129959,1,0,0:0:0:0:
432,51,130140,2,0,L|423:122,2,72.5,0|0|0,3:0|0:0|3:0,0:0:0:0:
511,102,130682,1,0,0:0:0:0:
487,192,130862,2,0,P|468:227|468:280,1,72.5,0|0,3:0|0:0,0:0:0:0:
433,348,131224,2,8,P|412:314|366:287,1,72.5,0|0,3:0|0:0,0:0:0:0:
328,216,131585,2,8,P|363:215|396:199,1,72.5,0|0,3:0|0:0,0:0:0:0:
382,16,131947,6,0,P|332:65|341:134,1,145,6|0,3:0|3:0,0:0:0:0:
407,92,132489,1,0,0:0:0:0:
268,177,132670,2,0,L|267:249,1,72.5,0|0,3:0|0:0,0:0:0:0:
410,288,133031,2,8,L|347:251,1,72.5,0|0,3:0|0:0,0:0:0:0:
246,356,133393,70,0,L|309:320,1,72.5,0|0,3:0|0:0,0:0:0:0:
386,374,133754,1,0,3:0:0:0:
474,341,133935,1,0,0:0:0:0:
481,246,134115,2,0,P|454:223|441:190,1,72.5,0|0,3:0|0:0,0:0:0:0:
471,100,134477,2,0,P|498:76|511:43,1,72.5,0|0,3:0|0:0,0:0:0:0:
419,23,134838,6,0,L|252:36,1,145,0|0,3:2|0:0,0:0:0:0:
189,203,135561,2,0,L|356:216,1,145,0|0,3:0|0:0,0:0:0:0:
426,227,136103,1,0,0:0:0:0:
481,302,136284,70,0,L|387:314,1,72.5,0|0,3:0|0:0,0:0:0:0:
284,354,136646,2,0,L|378:366,1,72.5,0|0,3:0|0:0,0:0:0:0:
268,276,137007,2,0,P|234:289|213:318,1,72.5,0|0,3:0|0:0,0:0:0:0:
284,199,137368,2,0,P|317:212|338:241,1,72.5,0|0,3:0|0:0,0:0:0:0:
206,186,137730,6,0,P|224:148|330:137,1,145,0|0,3:0|0:0,0:0:0:0:
394,184,138272,1,0,0:0:0:0:
476,143,138453,2,8,P|518:88|506:19,1,145,0|0,3:0|0:0,0:0:0:0:
432,67,138995,1,0,0:0:0:0:
355,111,139176,69,8,3:2:0:0:
279,55,139356,1,0,0:0:0:0:
279,55,139447,1,8,0:0:0:0:
279,55,139537,1,0,3:0:0:0:
261,147,139718,1,8,0:0:0:0:
338,198,139899,2,0,P|306:212|281:239,1,72.5,0|8,3:0|0:0,0:0:0:0:
296,324,140260,2,0,P|328:309|353:282,1,72.5,0|0,3:0|0:0,0:0:0:0:
421,222,140621,6,0,L|431:303,1,72.5,0|0,3:2|0:2,0:0:0:0:
512,160,140983,2,0,L|502:241,1,72.5,0|0,3:2|0:2,0:0:0:0:
420,66,141344,2,0,L|430:147,1,72.5,0|0,3:2|0:2,0:0:0:0:
512,0,141706,2,0,L|502:81,1,72.5,0|0,3:2|0:2,0:0:0:0:
348,143,142067,70,0,P|313:148|278:140,1,72.5,0|0,3:2|0:2,0:0:0:0:
248,61,142429,2,0,P|283:55|318:63,1,72.5,0|0,3:2|0:2,0:0:0:0:
246,208,142790,2,0,P|217:187|203:155,1,72.5,0|0,3:2|0:2,0:0:0:0:
326,223,143152,2,0,P|340:255|337:291,1,72.5,0|0,3:2|0:2,0:0:0:0:
245,361,143513,6,0,P|311:337|380:357,1,145,0|0,3:0|0:0,0:0:0:0:
472,334,144055,1,0,0:0:0:0:
427,247,144236,2,0,P|411:179|447:117,1,145,0|0,3:0|0:0,0:0:0:0:
511,49,144778,1,0,0:0:0:0:
417,38,144959,2,0,P|346:43|286:4,1,145,8|0,3:2|0:0,0:0:0:0:
259,95,145501,1,8,0:0:0:0:
288,184,145682,2,0,L|301:272,1,72.5,8|0,3:2|0:0,0:0:0:0:
370,316,146043,2,0,L|383:228,1,72.5,0|8,3:0|0:0,0:0:0:0:
432,162,146405,37,8,3:2:0:0:
377,94,146585,2,0,L|363:46,2,36.25
338,172,146947,1,0,0:0:0:0:
258,136,147127,2,0,L|272:88,2,36.25
235,220,147489,1,0,0:0:0:0:
153,181,147670,70,0,L|139:133,2,36.25
143,267,148031,1,0,0:0:0:0:
57,249,148212,2,0,L|71:201,2,36.25
20,327,148573,2,0,P|57:348|111:338,1,72.5
173,346,148935,2,0,P|205:330|241:327,1,72.5
327,344,149296,5,0,0:0:0:0:
380,275,149477,2,0,L|397:228,2,36.25
293,261,149838,1,0,0:0:0:0:
318,177,150019,2,0,L|301:130,2,36.25
233,196,150380,1,0,0:0:0:0:
185,122,150561,70,0,L|202:75,2,36.25
120,181,150923,1,0,0:0:0:0:
93,98,151103,2,0,L|76:51,2,36.25
31,159,151465,2,0,P|31:194|47:227,1,72.5
126,264,151826,2,0,P|125:299|109:332,1,72.5
27,363,152188,5,0,0:0:0:0:
41,22,157971,53,6,3:0:0:0:
101,84,158152,2,0,P|129:147|95:208,1,145,0|0,0:0|0:0,0:0:0:0:
41,140,158694,1,0,3:0:0:0:
16,222,158874,2,0,P|30:256|57:279,1,72.5,0|0,0:0|3:0,0:0:0:0:
135,277,159236,1,0,0:0:0:0:
229,288,159417,38,0,P|203:313|194:348,1,72.5,6|0,3:0|0:0,0:0:0:0:
190,216,159778,2,0,P|199:181|189:146,1,72.5,0|0,3:0|0:0,0:0:0:0:
27,82,160140,2,0,B|39:137|39:137|118:177,1,145,0|0,3:0|3:0,0:0:0:0:
203,137,160682,1,0,0:0:0:0:
278,178,160862,6,0,P|347:184|387:241,1,145,6|0,3:0|3:0,0:0:0:0:
405,327,161405,1,0,0:0:0:0:
315,327,161585,2,0,P|301:294|307:259,1,72.5,0|0,3:0|0:0,0:0:0:0:
359,163,161947,2,0,P|372:130|367:94,1,72.5,0|0,3:0|0:0,0:0:0:0:
293,47,162308,1,6,3:0:0:0:
231,108,162489,1,0,0:0:0:0:
154,62,162670,22,0,P|120:54|84:61,1,72.5,0|0,3:0|0:0,0:0:0:0:
0,156,163031,2,0,P|34:164|70:157,1,72.5,0|0,3:0|0:0,0:0:0:0:
170,165,163393,2,0,P|145:190|133:224,1,72.5,0|0,3:0|0:0,0:0:0:0:
252,299,163754,2,0,P|242:264|218:237,1,72.5,6|0,3:0|0:0,0:0:0:0:
96,303,164115,2,0,P|130:311|166:304,1,72.5,0|0,3:0|0:0,0:0:0:0:
47,232,164477,38,0,P|12:293|32:360,1,145,0|0,3:0|3:0,0:0:0:0:
130,381,165019,1,0,0:0:0:0:
166,304,165200,2,0,P|171:265|156:207,1,72.5,6|0,3:0|0:0,0:0:0:0:
110,108,165561,2,0,P|105:147|120:205,1,72.5,0|0,3:0|0:0,0:0:0:0:
181,52,165923,2,0,P|154:27|120:16,1,72.5,0|0,3:0|0:0,0:0:0:0:
191,147,166284,2,0,P|217:171|251:181,1,72.5,0|0,3:0|0:0,0:0:0:0:
376,51,166646,6,0,P|308:41|263:95,1,145,6|0,3:0|3:0,0:0:0:0:
251,181,167188,1,0,0:0:0:0:
323,227,167368,2,0,B|351:275|351:275|339:363,1,145,0|0,3:0|3:0,0:0:0:0:
425,379,167911,1,0,0:0:0:0:
488,319,168091,2,0,L|496:223,1,72.5,6|0,3:0|0:0,0:0:0:0:
403,192,168453,2,0,L|408:264,1,72.5,0|0,3:0|0:0,0:0:0:0:
489,166,168814,2,0,L|494:93,1,72.5,0|0,3:0|0:0,0:0:0:0:
406,17,169176,2,0,L|411:89,1,72.5,0|0,3:0|0:0,0:0:0:0:
327,114,169537,37,2,3:2:0:0:
224,132,169718,2,0,L|169:119,2,36.25,2|2|2,0:2|0:2|0:2,0:0:0:0:
303,206,170079,2,0,L|358:193,2,36.25,2|2|2,0:2|0:2|0:2,0:0:0:0:
218,236,170441,2,0,L|163:223,2,36.25,2|2|2,0:2|0:2|0:2,0:0:0:0:
338,306,170802,1,2,0:2:0:0:
338,306,170893,1,2,0:2:0:0:
338,306,170983,6,0,L|265:311,1,72.5,6|0,0:2|0:2,0:0:0:0:
118,339,171344,2,0,L|189:352,1,72.5,0|0,0:2|0:2,0:0:0:0:
85,252,171706,2,0,L|13:265,1,72.5,0|0,0:2|0:2,0:0:0:0:
87,157,172067,2,0,L|158:170,1,72.5,0|0,0:2|0:0,0:0:0:0:
220,244,172429,69,2,3:2:0:0:
258,162,172609,2,0,L|264:110,2,36.25,2|2|2,0:2|0:2|0:2,0:0:0:0:
302,271,172971,2,0,L|306:307,2,36.25,2|2|2,0:2|0:2|0:2,0:0:0:0:
351,181,173332,2,0,L|355:144,2,36.25,2|2|2,0:2|0:2|0:2,0:0:0:0:
399,339,173694,1,2,0:2:0:0:
399,339,173784,1,2,0:2:0:0:
399,339,173874,6,0,L|423:243,1,72.5,2|0,0:2|0:2,0:0:0:0:
461,141,174236,2,0,L|478:211,1,72.5,0|0,0:2|0:2,0:0:0:0:
372,116,174597,2,0,L|389:45,1,72.5,0|0,0:0|0:0,0:0:0:0:
299,160,174959,2,0,P|263:161|229:149,1,72.5,0|0,0:0|0:0,0:0:0:0:
174,72,175320,6,0,P|137:124|144:188,1,130.499996017456,0|0,3:0|0:0,0:0:0:0:
232,308,176043,2,0,P|179:270|116:277,1,130.499996017456,8|0,0:0|0:0,0:0:0:0:
7,254,176766,2,0,P|44:201|37:138,1,130.499996017456,0|0,3:0|0:0,0:0:0:0:
9,14,177489,2,0,P|61:51|124:44,1,130.499996017456,8|0,0:0|0:0,0:0:0:0:
201,18,178031,1,0,0:0:0:0:
186,95,178212,2,0,B|162:146|162:146|177:218,1,130.499996017456,0|0,3:0|0:0,0:0:0:0:
244,259,178754,1,0,0:0:0:0:
316,229,178935,22,0,B|362:208|362:208|441:217,1,130.499996017456,8|0,0:0|0:0,0:0:0:0:
486,367,179658,2,0,B|440:388|440:388|360:378,1,130.499996017456,0|0,3:0|0:0,0:0:0:0:
316,229,180380,2,0,B|325:149|325:149|304:103,1,130.499996017456,8|0,0:0|0:3,0:0:0:0:
141,41,181103,6,0,P|109:43|79:56,1,65.2499980087281,0|0,3:0|0:0,0:0:0:0:
0,114,181465,2,0,P|32:115|62:128,1,65.2499980087281,0|0,0:0|0:0,0:0:0:0:
80,308,181826,2,0,B|35:267|35:267|17:199,1,130.499996017456,8|0,0:0|0:0,0:0:0:0:
148,116,182549,2,0,B|193:157|193:157|210:224,1,130.499996017456,0|0,3:0|0:0,0:0:0:0:
354,378,183272,6,0,L|270:369,1,65.2499980087281,8|0,0:0|0:0,0:0:0:0:
154,317,183634,2,0,L|238:308,1,65.2499980087281,0|0,0:0|3:0,0:0:0:0:
318,265,183995,2,0,P|310:200|331:139,1,130.499996017456,0|0,3:0|0:0,0:0:0:0:
193,0,184718,2,0,P|200:64|179:125,1,130.499996017456,8|0,0:0|0:0,0:0:0:0:
67,245,185441,6,0,P|128:226|191:240,1,130.499996017456,0|0,3:0|0:0,0:0:0:0:
249,292,185983,1,0,0:0:0:0:
300,351,186164,2,0,P|362:365|424:346,1,130.499996017456,8|0,0:0|0:0,0:0:0:0:
484,221,186887,70,0,B|496:169|496:169|469:97,1,130.499996017456,0|0,3:0|0:0,0:0:0:0:
335,30,187609,2,0,B|263:56|263:56|211:44,1,130.499996017456,8|0,0:0|0:0,0:0:0:0:
86,109,188332,2,0,P|106:154|97:198,1,65.2499980087281,0|0,3:0|0:0,0:0:0:0:
35,284,188694,2,0,P|72:254|112:252,1,65.2499980087281,0|0,0:0|0:0,0:0:0:0:
176,229,189055,2,0,L|324:252,1,130.499996017456,8|0,0:0|0:0,0:0:0:0:
512,169,189778,6,0,L|364:192,1,130.499996017456,0|0,3:0|0:0,0:0:0:0:
207,84,190501,2,0,P|271:85|324:121,1,130.499996017456,8|0,0:0|0:0,0:0:0:0:
470,257,191224,2,0,L|382:271,1,65.2499980087281,0|0,3:0|0:0,0:0:0:0:
472,363,191585,2,0,L|407:352,1,65.2499980087281,0|0,0:0|0:0,0:0:0:0:
322,311,191947,2,0,B|276:299|276:299|195:314,1,130.499996017456,8|0,0:0|0:0,0:0:0:0:
46,346,192670,70,0,P|27:284|47:223,1,130.499996017456,0|0,3:0|0:0,0:0:0:0:
181,123,193393,2,0,P|199:61|179:0,1,130.499996017456,8|0,0:0|0:0,0:0:0:0:
147,213,194115,2,0,P|179:218|211:213,1,65.2499980087281,0|0,3:0|0:0,0:0:0:0:
315,102,194477,2,0,P|294:127|282:157,1,65.2499980087281,0|0,0:0|0:0,0:0:0:0:
367,231,194838,2,0,P|304:239|266:290,1,130.499996017456,8|0,0:0|0:0,0:0:0:0:
256,192,195561,12,0,198091,0:0:0:0:
391,27,198453,38,0,P|342:42|316:113,1,108.75,0|0,3:2|0:0,0:0:0:0:
314,133,198814,1,0,0:0:0:0:
398,113,198995,1,0,0:0:0:0:
374,197,199176,1,8,0:0:0:0:
503,344,199537,2,0,L|415:379,1,72.5,0|8,3:0|0:0,0:0:0:0:
353,321,199899,2,0,L|424:285,2,48.3333333333333,10|2|2,0:2|0:2|0:2,0:0:0:0:
318,291,200260,2,0,L|230:326,1,72.5,14|0,0:0|0:0,0:0:0:0:
254,230,200621,6,0,B|276:176|276:176|261:77,1,145,0|8,3:0|0:0,0:0:0:0:
239,5,201164,1,0,0:0:0:0:
320,33,201344,2,0,P|358:38|410:22,1,72.5,8|0,0:0|0:0,0:0:0:0:
474,3,201706,1,0,3:0:0:0:
385,192,202067,69,0,0:0:0:0:
385,192,202429,1,0,3:0:0:0:
121,357,202790,22,0,P|170:342|196:271,1,108.75,0|0,3:0|0:0,0:0:0:0:
198,251,203151,1,0,0:0:0:0:
114,271,203332,1,0,0:0:0:0:
138,187,203513,1,8,0:0:0:0:
9,40,203874,2,0,L|97:5,1,72.5,0|8,3:0|0:0,0:0:0:0:
159,63,204236,2,0,L|88:99,2,48.3333333333333,10|2|2,0:0|0:0|0:0,0:0:0:0:
194,93,204597,2,0,L|282:58,1,72.5,14|0,0:0|0:0,0:0:0:0:
258,154,204959,38,0,B|236:208|236:208|251:307,1,145,0|8,3:0|0:0,0:0:0:0:
273,379,205501,1,0,0:0:0:0:
192,351,205681,2,0,P|154:346|102:362,1,72.5,8|0,0:0|0:0,0:0:0:0:
38,381,206043,1,0,3:0:0:0:
127,192,206404,37,0,0:0:0:0:
127,192,206766,1,0,0:0:0:0:
256,3,207127,6,0,L|256:111,1,108.75,0|0,3:0|0:0,0:0:0:0:
255,155,207489,1,0,0:0:0:0:
255,242,207670,1,0,0:0:0:0:
255,328,207850,1,8,0:0:0:0:
181,195,208212,6,0,L|100:229,1,72.5,0|8,3:0|0:0,0:0:0:0:
300,250,208573,2,0,L|386:285,2,48.3333333333333,10|2|2,0:0|0:0|0:0,0:0:0:0:
255,242,208935,2,0,L|255:342,1,72.5,14|0,0:0|0:0,0:0:0:0:
154,373,209296,70,0,B|163:320|163:320|131:234,1,145,0|8,3:0|0:0,0:0:0:0:
97,154,209838,1,0,0:0:0:0:
133,74,210019,2,0,P|166:59|202:57,1,72.5,8|0,0:0|0:0,0:0:0:0:
271,109,210380,2,0,B|311:130|311:130|399:113,1,108.75,0|0,3:0|0:0,0:0:0:0:
415,107,210742,5,0,0:0:0:0:
415,107,211103,1,0,0:0:0:0:
436,279,211465,70,0,P|390:251|336:244,1,108.75,0|0,3:0|0:0,0:0:0:0:
298,265,211826,1,0,0:0:0:0:
211,275,212007,1,0,0:0:0:0:
133,235,212188,1,8,0:0:0:0:
13,108,212549,6,0,P|59:80|113:73,1,108.75,0|0,3:0|0:0,0:0:0:0:
151,95,212911,2,0,L|217:62,2,48.3333333333333,10|2|2,0:0|0:0|0:0,0:0:0:0:
142,152,213272,1,10,0:0:0:0:
276,255,213634,70,0,P|291:212|276:156,1,72.5,0|0,3:0|0:0,0:0:0:0:
183,249,213995,2,0,P|182:284|195:318,1,72.5,8|0,0:0|0:0,0:0:0:0:
313,352,214356,1,8,0:0:0:0:
192,153,214718,1,0,3:0:0:0:
282,11,215079,6,0,L|289:61,1,36.25,0|0,0:0|0:0,0:0:0:0:
100,161,215441,2,0,L|82:216,1,36.25,0|4,0:0|0:0,0:0:0:0:
