osu file format v14

[General]
AudioFilename: audio.mp3
AudioLeadIn: 0
PreviewTime: 157925
Countdown: 0
SampleSet: Soft
StackLeniency: 0.7
Mode: 2
LetterboxInBreaks: 0
WidescreenStoryboard: 1

[Editor]
DistanceSpacing: 1.3
BeatDivisor: 4
GridSize: 16
TimelineZoom: 1

[Metadata]
Title:Ga1ahad and Scientific Witchery
TitleUnicode:Ga1ahad and Scientific Witchery
Artist:Mili
ArtistUnicode:Mili
Creator:Benita
Version:Platter
Source:
Tags:Lacrima Myle Benny- BennyBananas Rayark English video game pop miracle milk momocashew yamato kasai deemo yukihito mitomo shoto yoshida ame yamaguchi
BeatmapID:2817664
BeatmapSetID:1361768

[Difficulty]
HPDrainRate:4
CircleSize:3.5
OverallDifficulty:8
ApproachRate:8
SliderMultiplier:1.6
SliderTickRate:2

[Events]
//Background and Video events
0,0,"princess benita.jpg",0,0
//Break Periods
2,35279,39751
2,149296,157220
//Storyboard Layer 0 (Background)
//Storyboard Layer 1 (Fail)
//Storyboard Layer 2 (Pass)
//Storyboard Layer 3 (Foreground)
//Storyboard Layer 4 (Overlay)
//Storyboard Sound Samples

[TimingPoints]
381,361.44578313253,4,2,1,60,1,0
11947,-100,4,2,1,40,0,0
17730,-100,4,2,1,60,0,0
35079,-100,4,2,1,40,0,0
40501,-100,4,2,1,30,0,0
52429,-100,4,2,1,40,0,0
90019,-100,4,2,1,30,0,0
113152,361.44578313253,3,2,1,40,1,0
118212,361.44578313253,3,2,1,40,1,0
123272,361.44578313253,4,2,1,50,1,0
146405,-125,4,2,1,50,0,0
147489,-125,4,2,1,50,0,0
147850,-125,4,2,1,50,0,0
148212,-125,4,2,1,50,0,0
148393,-125,4,2,1,50,0,0
157970,-100,4,2,1,60,0,1
169537,-100,4,2,1,40,0,0
170982,-100,4,2,0,40,0,0
171344,-100,4,2,1,40,0,0
198453,361.44578313253,3,2,1,40,1,0

[Colours]
Combo1 : 242,121,191
Combo2 : 126,80,169
Combo3 : 155,57,155

[HitObjects]
408,287,381,6,0,L|411:170,1,80,8|0,0:0|0:0,0:0:0:0:
250,178,742,2,0,L|437:176,1,160
314,96,1284,1,8,0:0:0:0:
218,80,1465,2,0,L|216:166,1,80,0|8,0:0|0:1,0:0:0:0:
376,193,1826,6,0,P|416:224|371:315,1,160,8|8,0:0|0:1,0:0:0:0:
285,315,2368,1,8,0:1:0:0:
189,274,2549,2,0,L|188:195,1,80,8|8,0:1|0:1,0:0:0:0:
293,199,2911,2,0,L|298:109,1,80,8|0,0:1|0:0,0:0:0:0:
34,119,3272,6,0,L|30:218,1,80,8|0,0:0|0:0,0:0:0:0:
192,263,3634,2,0,L|31:262,1,160
128,170,4176,1,8,0:0:0:0:
224,142,4356,2,0,L|225:58,1,80,8|8,0:1|0:1,0:0:0:0:
64,51,4718,6,0,L|253:52,1,160,8|0,0:0|0:0,0:0:0:0:
122,95,5260,1,8,0:1:0:0:
228,122,5441,2,0,L|230:206,1,80,0|8,0:0|0:0,0:0:0:0:
112,216,5802,2,0,L|103:303,1,80,8|0,0:1|0:0,0:0:0:0:
361,266,6164,6,0,L|444:266,1,80,8|0,0:0|0:0,0:0:0:0:
280,207,6525,2,0,P|257:183|320:83,1,160
408,76,7067,1,8,0:0:0:0:
312,74,7248,2,0,L|217:73,1,80,0|8,0:0|0:1,0:0:0:0:
72,212,7609,6,0,L|238:211,1,160,8|8,0:0|0:1,0:0:0:0:
351,207,8152,1,8,0:1:0:0:
233,168,8332,2,0,L|229:86,1,80,8|8,0:1|0:1,0:0:0:0:
342,87,8694,2,0,L|457:86,1,80,8|0,0:1|0:0,0:0:0:0:
163,183,9055,6,0,L|156:270,1,80,8|0,0:0|0:0,0:0:0:0:
325,280,9417,2,0,P|370:246|315:168,1,160
214,157,9959,1,8,0:0:0:0:
323,161,10140,2,0,L|410:161,1,80,8|8,0:1|0:1,0:0:0:0:
239,107,10501,6,0,L|71:107,1,160,8|0,0:0|0:0,0:0:0:0:
170,183,11043,1,8,0:1:0:0:
270,224,11224,2,0,L|266:306,1,80,0|8,0:0|0:0,0:0:0:0:
106,343,11585,2,0,L|96:248,1,80,8|0,0:1|0:0,0:0:0:0:
372,251,11947,5,12,3:2:0:0:
457,179,12127,1,8,0:1:0:0:
468,150,12188,1,0,0:0:0:0:
465,128,12248,1,0,0:0:0:0:
450,106,12308,1,0,0:0:0:0:
350,67,12489,2,0,L|257:61,1,80,0|8,0:0|0:1,0:0:0:0:
431,308,12850,1,8,0:0:0:0:
271,305,13031,2,0,L|262:202,1,80
14,224,13393,5,8,0:0:0:0:
80,160,13573,1,8,0:1:0:0:
64,160,13634,1,0,0:0:0:0:
48,160,13694,1,0,0:0:0:0:
32,160,13754,1,8,0:1:0:0:
128,105,13935,2,0,L|213:101,1,80,8|8,0:1|0:1,0:0:0:0:
367,154,14296,1,8,0:1:0:0:
204,192,14477,1,8,0:1:0:0:
188,218,14537,1,0,0:0:0:0:
200,253,14597,1,0,0:0:0:0:
223,276,14658,1,0,0:0:0:0:
464,274,14838,5,8,0:0:0:0:
368,256,15019,1,8,0:1:0:0:
376,248,15079,1,0,0:0:0:0:
384,240,15140,1,0,0:0:0:0:
392,232,15200,1,8,0:1:0:0:
472,216,15380,1,0,0:0:0:0:
312,200,15561,1,8,0:1:0:0:
208,184,15742,1,8,0:0:0:0:
192,160,15802,1,0,0:0:0:0:
184,136,15862,1,0,0:0:0:0:
192,104,15923,1,0,0:0:0:0:
304,72,16103,1,8,0:1:0:0:
48,200,16284,6,0,L|32:304,1,80,8|0,0:0|0:0,0:0:0:0:
120,320,16646,1,8,0:1:0:0:
280,304,16826,1,0,0:0:0:0:
216,257,17006,1,8,0:1:0:0:
193,182,17187,1,8,0:0:0:0:
220,108,17368,1,8,0:1:0:0:
285,64,17548,1,8,0:1:0:0:
31,222,17730,6,0,P|22:171|213:23,1,320,12|8,3:2|0:1,0:0:0:0:
33,253,18995,1,0,0:0:0:0:
194,257,19176,6,0,L|361:237,1,160,8|0,0:0|0:0,0:0:0:0:
97,129,19899,2,0,L|267:117,1,160,8|8,0:1|0:1,0:0:0:0:
358,111,20441,1,8,0:1:0:0:
116,302,20621,6,0,P|57:276|126:91,1,320,12|0,0:0|0:0,0:0:0:0:
382,230,21887,1,8,0:1:0:0:
286,231,22067,6,0,L|119:231,1,160,8|8,0:0|0:1,0:0:0:0:
355,228,22790,2,0,P|388:190|341:100,1,160
21,205,23513,6,0,L|294:186,1,240,12|8,0:0|0:1,0:0:0:0:
365,184,24236,1,0,0:0:0:0:
100,279,24597,1,0,0:0:0:0:
437,284,24959,6,0,P|477:253|422:175,1,160,8|0,0:0|0:0,0:0:0:0:
334,178,25501,1,0,0:0:0:0:
238,179,25682,2,0,P|187:146|233:67,1,160
318,65,26224,1,0,0:0:0:0:
51,201,26405,6,0,L|41:286,1,80,12|0,0:0|0:0,0:0:0:0:
152,306,26766,2,0,L|257:308,1,80,0|8,0:0|0:1,0:0:0:0:
117,364,27127,1,0,0:0:0:0:
277,242,27308,2,0,L|118:244,1,160,8|8,0:0|0:1,0:0:0:0:
364,320,27851,6,0,L|465:323,1,80,8|0,0:0|0:0,0:0:0:0:
310,293,28212,2,0,L|308:205,1,80,0|8,0:0|0:1,0:0:0:0:
426,197,28573,1,0,0:0:0:0:
309,179,28754,2,0,L|294:88,1,80,8|0,0:0|0:0,0:0:0:0:
415,74,29115,1,0,0:0:0:0:
153,199,29296,6,0,L|-7:182,1,160,12|0,0:0|0:0,0:0:0:0:
313,206,30019,2,0,L|154:200,1,160
480,190,30742,6,0,L|234:168,1,240,8|0,0:0|0:0,0:0:0:0:
155,162,31465,1,8,0:1:0:0:
367,132,31826,2,0,L|376:48,1,80
117,53,32188,6,0,P|65:87|123:166,1,160,8|0,0:0|0:0,0:0:0:0:
196,169,32730,1,8,0:1:0:0:
360,234,32911,2,0,P|400:206|312:68,1,240
83,221,33634,6,0,P|48:177|203:37,1,320,8|8,0:0|0:1,0:0:0:0:
288,52,34537,1,8,0:0:0:0:
383,72,34718,1,0,0:0:0:0:
71,273,35079,5,2,0:0:0:0:
109,289,40501,6,0,L|87:243,2,40,8|8|8,0:1|0:1|0:1,0:0:0:0:
277,304,40862,6,0,L|280:203,1,80,8|8,0:0|0:1,0:0:0:0:
195,225,41224,2,0,L|194:126,1,80,8|8,0:1|0:1,0:0:0:0:
234,145,41495,1,8,0:1:0:0:
274,149,41585,2,0,L|442:144,1,160,8|8,0:3|0:1,0:0:0:0:
433,144,42127,1,8,0:1:0:0:
265,293,42308,6,0,L|266:181,1,80,8|8,0:0|0:1,0:0:0:0:
363,214,42670,2,0,L|465:211,1,80,8|8,0:1|0:1,0:0:0:0:
442,211,42941,1,8,0:1:0:0:
442,211,43031,1,8,0:3:0:0:
282,174,43393,2,0,L|278:83,1,80,8|8,0:1|0:1,0:0:0:0:
447,99,43754,6,0,L|453:190,1,80,8|8,0:0|0:1,0:0:0:0:
354,230,44115,2,0,L|269:232,1,80,8|8,0:1|0:1,0:0:0:0:
233,234,44387,1,8,0:1:0:0:
194,234,44477,1,8,0:3:0:0:
361,217,44838,2,0,L|426:153,1,80,8|8,0:1|0:1,0:0:0:0:
249,175,45200,6,0,L|150:176,1,80,8|8,0:0|0:1,0:0:0:0:
269,143,45561,2,0,L|273:51,1,80,8|8,0:1|0:1,0:0:0:0:
232,64,45832,1,8,0:1:0:0:
191,67,45923,1,8,0:3:0:0:
30,157,46284,2,0,L|42:261,1,80,8|8,0:1|0:1,0:0:0:0:
317,274,46646,6,0,L|416:277,1,80,8|8,0:0|0:1,0:0:0:0:
301,204,47007,2,0,L|215:205,1,80,8|8,0:1|0:1,0:0:0:0:
261,170,47278,2,0,L|310:170,1,40,8|8,0:1|0:3,0:0:0:0:
462,173,47730,2,0,L|472:270,1,80,8|8,0:1|0:1,0:0:0:0:
302,301,48091,6,0,L|219:306,1,80,8|8,0:0|0:1,0:0:0:0:
122,302,48453,2,0,L|127:196,1,80,8|8,0:1|0:1,0:0:0:0:
166,232,48724,2,0,L|215:236,1,40,8|8,0:1|0:3,0:0:0:0:
45,250,49176,2,0,L|50:344,1,80,8|8,0:1|0:1,0:0:0:0:
218,341,49537,6,0,L|307:338,1,80,8|8,0:0|0:1,0:0:0:0:
198,308,49899,2,0,L|114:306,1,80,8|8,0:1|0:1,0:0:0:0:
158,276,50170,2,0,L|226:278,1,40,8|8,0:1|0:3,0:0:0:0:
360,255,50621,2,0,L|406:173,1,80,8|8,0:1|0:1,0:0:0:0:
230,210,50983,6,0,L|225:105,1,80,8|8,0:0|0:1,0:0:0:0:
326,122,51344,1,8,0:1:0:0:
406,237,51525,1,8,0:1:0:0:
446,231,51615,1,8,0:1:0:0:
487,231,51706,2,0,L|486:71,1,160,8|0,0:3|0:0,0:0:0:0:
36,93,52429,6,0,L|28:185,1,80,8|0,3:2|0:0,0:0:0:0:
190,284,52971,1,0,0:0:0:0:
300,244,53152,2,0,L|301:148,1,80,8|0,0:0|0:0,0:0:0:0:
141,131,53694,1,0,0:0:0:0:
249,109,53874,6,0,L|250:12,1,80,8|0,0:0|0:0,0:0:0:0:
89,306,54417,2,0,L|6:306,2,80,0|8|0,0:0|0:0|0:0,0:0:0:0:
249,294,55140,5,0,0:0:0:0:
89,254,55320,2,0,L|84:153,1,80,8|0,0:0|0:0,0:0:0:0:
245,201,55862,1,0,0:0:0:0:
138,176,56043,2,0,L|143:81,1,80,8|0,0:0|0:0,0:0:0:0:
303,76,56585,6,0,L|209:66,2,80,0|8|0,0:0|0:0|0:0,0:0:0:0:
142,220,57308,1,0,0:0:0:0:
250,245,57489,2,0,L|262:340,1,80,8|0,0:0|0:0,0:0:0:0:
144,342,57850,1,8,0:3:0:0:
448,348,58212,6,0,L|455:269,1,80,8|0,0:0|0:0,0:0:0:0:
295,265,58754,2,0,L|209:255,2,80,0|8|0,0:0|0:0|0:0,0:0:0:0:
134,242,59477,1,0,0:0:0:0:
246,210,59658,6,0,P|248:142|237:106,1,80,8|0,0:0|0:0,0:0:0:0:
406,187,60200,2,0,L|501:186,2,80,0|8|0,0:0|0:0|0:0,0:0:0:0:
245,107,60923,5,0,0:0:0:0:
85,173,61103,2,0,L|80:265,1,80,8|0,0:0|0:0,0:0:0:0:
243,316,61646,2,0,L|338:312,2,80,0|8|0,0:0|0:0|0:0,0:0:0:0:
403,236,62368,6,0,L|403:154,1,80,0|8,0:0|0:0,0:0:0:0:
299,140,62730,1,0,0:0:0:0:
139,157,63091,2,0,L|130:254,1,80,0|8,0:0|0:0,0:0:0:0:
233,280,63453,1,8,0:3:0:0:
124,292,63634,1,8,0:3:0:0:
417,283,63995,6,0,P|464:255|406:176,1,160,8|8,0:0|0:0,0:0:0:0:
327,174,64537,1,0,0:0:0:0:
226,178,64718,2,0,L|55:169,1,160,8|8,0:0|0:0,0:0:0:0:
146,64,65260,1,0,0:0:0:0:
395,122,65441,6,0,L|399:214,1,80,8|0,0:0|0:0,0:0:0:0:
302,213,65802,2,0,L|205:211,1,80,8|0,0:0|0:0,0:0:0:0:
319,254,66164,2,0,L|319:340,1,80,8|0,0:0|0:0,0:0:0:0:
158,342,66525,2,0,L|70:341,1,80,8|0,0:3|0:0,0:0:0:0:
331,271,66887,6,0,P|374:242|316:163,1,160,8|8,0:0|0:0,0:0:0:0:
232,163,67429,1,0,0:0:0:0:
137,161,67609,1,8,0:0:0:0:
240,159,67790,1,0,0:0:0:0:
78,131,67971,2,0,L|69:42,1,80,8|0,0:0|0:0,0:0:0:0:
316,59,68332,6,0,L|481:72,1,160,8|8,0:0|0:0,0:0:0:0:
402,123,68874,1,0,0:0:0:0:
403,221,69055,1,8,0:0:0:0:
485,286,69236,1,0,0:0:0:0:
369,299,69417,2,0,L|371:391,1,80,8|0,0:3|0:0,0:0:0:0:
107,368,69778,6,0,P|60:317|108:239,1,160,12|8,3:2|0:0,0:0:0:0:
316,228,70501,2,0,L|135:218,1,160,8|8,0:0|0:3,0:0:0:0:
218,164,71043,1,0,0:0:0:0:
376,190,71224,6,0,L|378:273,1,80,8|0,0:0|0:0,0:0:0:0:
263,288,71585,2,0,L|178:284,1,80,8|0,0:0|0:0,0:0:0:0:
301,243,71947,2,0,L|387:248,1,80,8|0,0:0|0:0,0:0:0:0:
248,200,72308,2,0,L|150:194,1,80,8|0,0:3|0:0,0:0:0:0:
419,198,72670,6,0,P|464:172|413:93,1,160,8|8,0:0|0:0,0:0:0:0:
224,138,73393,2,0,L|384:129,1,160,8|8,0:0|0:3,0:0:0:0:
481,121,73935,1,0,0:0:0:0:
316,175,74115,6,0,L|312:268,1,80,8|0,0:0|0:0,0:0:0:0:
423,262,74477,2,0,L|510:268,1,80,8|0,0:0|0:0,0:0:0:0:
372,318,74838,2,0,L|274:310,1,80,8|0,0:0|0:0,0:0:0:0:
407,279,75200,2,0,L|419:191,1,80,8|0,0:3|0:0,0:0:0:0:
174,194,75561,6,0,L|0:178,1,160,8|8,0:0|0:0,0:0:0:0:
315,194,76284,2,0,L|487:189,1,160,8|8,0:0|0:3,0:0:0:0:
414,111,76826,1,0,0:0:0:0:
254,113,77007,6,0,L|141:121,1,80,8|0,0:0|0:0,0:0:0:0:
284,173,77368,2,0,L|367:167,1,80,8|0,0:0|0:0,0:0:0:0:
248,239,77730,2,0,L|246:330,1,80,8|0,0:0|0:0,0:0:0:0:
361,325,78091,2,0,L|453:326,1,80,8|0,0:3|0:0,0:0:0:0:
196,332,78453,6,0,P|156:310|205:226,1,160,8|8,0:0|0:0,0:0:0:0:
459,226,79176,2,0,L|290:215,1,160,8|8,0:0|0:3,0:0:0:0:
220,209,79718,1,0,0:0:0:0:
59,208,79899,6,0,P|14:179|70:95,1,160,8|8,0:0|0:0,0:0:0:0:
266,133,80621,2,0,L|88:126,1,160,8|8,0:0|0:3,0:0:0:0:
20,125,81164,1,0,0:0:0:0:
264,346,81344,6,0,L|441:338,1,160,12|8,3:2|0:0,0:0:0:0:
196,228,82067,2,0,L|377:218,1,160,8|8,0:0|0:3,0:0:0:0:
294,164,82609,1,0,0:0:0:0:
136,190,82790,6,0,L|134:273,1,80,8|0,0:0|0:0,0:0:0:0:
249,288,83151,2,0,L|334:284,1,80,8|0,0:0|0:0,0:0:0:0:
211,243,83513,2,0,L|125:248,1,80,8|0,0:0|0:0,0:0:0:0:
264,200,83874,2,0,L|362:194,1,80,8|0,0:3|0:0,0:0:0:0:
93,198,84236,6,0,P|48:172|99:93,1,160,8|8,0:0|0:0,0:0:0:0:
288,138,84959,2,0,L|128:129,1,160,8|8,0:0|0:3,0:0:0:0:
31,121,85501,1,0,0:0:0:0:
196,175,85681,6,0,L|200:268,1,80,8|0,0:0|0:0,0:0:0:0:
89,262,86043,2,0,L|2:268,1,80,8|0,0:0|0:0,0:0:0:0:
140,318,86404,2,0,L|238:310,1,80,8|0,0:0|0:0,0:0:0:0:
105,279,86766,2,0,L|93:191,1,80,8|0,0:3|0:0,0:0:0:0:
349,193,87127,6,0,P|392:172|321:47,1,240,8|8,0:0|0:0,0:0:0:0:
164,94,87850,2,0,L|328:95,2,160,8|8|8,0:0|0:0|0:0,0:0:0:0:
345,210,88935,1,8,0:0:0:0:
142,297,89296,2,0,L|221:295,2,80,8|8|8,0:3|0:3|0:3,0:0:0:0:
454,245,90019,6,0,L|123:242,1,320,14|0,3:2|0:0,0:0:0:0:
52,243,90923,1,8,0:0:0:0:
212,197,91284,1,0,0:0:0:0:
373,218,91465,6,0,P|420:202|355:-1,1,320,8|0,0:0|0:0,0:0:0:0:
157,97,92549,2,0,L|144:187,1,80,2|0,0:0|0:0,0:0:0:0:
309,224,92911,6,0,L|471:216,1,160,8|2,0:0|0:0,0:0:0:0:
293,142,93634,2,0,L|207:137,2,80,0|8|8,0:0|0:0|0:1,0:0:0:0:
51,173,94356,6,0,P|30:241|93:319,1,160,8|2,0:0|0:0,0:0:0:0:
173,317,94899,1,2,0:0:0:0:
275,313,95079,2,0,L|437:288,1,160,2|0,0:0|0:0,0:0:0:0:
127,258,95802,6,0,P|75:232|161:39,1,320,8|0,0:0|0:0,0:0:0:0:
233,39,96706,1,8,0:0:0:0:
421,189,97067,1,0,0:0:0:0:
255,192,97248,6,0,P|208:169|260:-44,1,320,8|0,0:0|0:0,0:0:0:0:
468,57,98332,2,0,L|477:139,1,80,2|0,0:0|0:0,0:0:0:0:
310,197,98694,6,0,L|2:338,1,320,8|0,0:0|0:0,0:0:0:0:
99,310,99597,1,8,0:0:0:0:
19,330,99778,1,8,0:1:0:0:
321,249,100140,6,0,P|366:219|298:136,1,160,8|0,0:0|0:0,0:0:0:0:
24,153,100862,2,0,P|184:144|185:144,1,160,2|2,0:0|0:0,0:0:0:0:
478,150,101585,6,0,P|486:201|175:325,1,480,8|0,0:0|0:0,0:0:0:0:
390,287,103031,6,0,P|424:239|385:146,1,160,8|0,0:0|0:0,0:0:0:0:
219,139,103754,1,2,0:0:0:0:
386,103,104115,1,2,0:0:0:0:
77,127,104477,6,0,P|41:206|61:296,1,160,8|2,0:0|0:0,0:0:0:0:
248,282,105200,2,0,L|71:273,1,160,2|8,0:0|0:1,0:0:0:0:
406,266,105923,6,0,P|431:216|346:150,1,160,8|2,0:0|0:0,0:0:0:0:
268,149,106465,1,2,0:0:0:0:
173,157,106646,2,0,L|-1:181,1,160,2|0,0:0|0:0,0:0:0:0:
337,81,107368,6,0,P|399:91|480:314,1,320,8|0,0:0|0:0,0:0:0:0:
394,350,108272,1,8,0:0:0:0:
216,349,108634,1,0,0:0:0:0:
57,344,108814,6,0,P|47:282|223:125,1,320,8|0,0:0|0:0,0:0:0:0:
386,117,109899,1,2,0:0:0:0:
75,277,110260,6,0,P|70:211|262:93,1,320,8|0,0:0|0:0,0:0:0:0:
342,112,111164,1,8,0:0:0:0:
449,189,111344,1,8,0:1:0:0:
137,307,111706,6,0,P|96:262|154:166,1,160,8|2,0:0|0:0,0:0:0:0:
320,147,112429,2,0,L|137:137,1,160,2|0,0:0|0:0,0:0:0:0:
459,154,113152,6,0,L|286:328,1,240,10|10,0:0|0:3,0:0:0:0:
386,335,113874,1,10,0:3:0:0:
53,154,114236,6,0,L|226:328,1,240,8|10,0:0|0:3,0:0:0:0:
126,335,114958,1,10,0:3:0:0:
439,282,115320,6,0,L|272:275,2,160,10|10|10,0:0|0:3|0:3,0:0:0:0:
112,327,116405,6,0,P|68:286|103:187,1,160,10|8,0:0|0:3,0:0:0:0:
196,176,117127,1,10,0:3:0:0:
454,174,117489,2,0,P|464:235|384:311,1,160,10|10,0:0|0:0,0:0:0:0:
53,154,118212,6,0,L|226:328,1,240,10|10,0:0|0:3,0:0:0:0:
126,335,118934,1,10,0:3:0:0:
459,154,119296,6,0,L|286:328,1,240,10|10,0:0|0:3,0:0:0:0:
386,335,120018,1,10,0:3:0:0:
73,282,120380,6,0,L|240:275,2,160,10|10|10,0:0|0:3|0:3,0:0:0:0:
400,327,121465,6,0,P|444:286|409:187,1,160,10|10,0:0|0:3,0:0:0:0:
229,219,122188,2,0,L|389:207,1,160,10|10,0:3|0:0,0:0:0:0:
90,153,122911,1,10,0:3:0:0:
405,137,123272,6,0,P|454:155|429:259,1,160,10|10,0:0|0:0,0:0:0:0:
367,274,123814,1,2,0:0:0:0:
183,281,123995,2,0,P|144:258|185:158,1,160,10|10,0:0|0:0,0:0:0:0:
249,157,124537,1,2,0:0:0:0:
65,177,124718,6,0,P|20:148|74:67,1,160,10|10,0:0|0:0,0:0:0:0:
141,67,125260,1,2,0:0:0:0:
329,141,125441,2,0,L|339:227,1,80,8|2,0:0|0:0,0:0:0:0:
256,261,125802,1,10,0:0:0:0:
347,278,125983,1,2,0:0:0:0:
83,303,126164,6,0,P|45:272|94:180,1,160,10|10,0:0|0:0,0:0:0:0:
169,184,126706,1,2,0:0:0:0:
355,204,126887,2,0,L|517:220,1,160,10|10,0:0|0:0,0:0:0:0:
433,293,127429,1,2,0:0:0:0:
247,279,127609,6,0,L|408:275,1,160,10|10,0:0|0:0,0:0:0:0:
483,271,128152,1,2,0:0:0:0:
299,252,128332,2,0,L|283:166,1,80,10|2,0:0|0:0,0:0:0:0:
475,173,128694,2,0,L|489:69,1,80,10|2,0:0|0:0,0:0:0:0:
206,168,129055,6,0,L|34:162,1,160,10|10,0:0|0:0,0:0:0:0:
127,292,129597,1,2,0:0:0:0:
316,301,129778,2,0,P|350:279|306:174,1,160,10|10,0:0|0:0,0:0:0:0:
244,186,130320,1,2,0:0:0:0:
52,179,130501,6,0,L|216:171,1,160,10|10,0:0|0:0,0:0:0:0:
292,166,131043,1,2,0:0:0:0:
474,199,131224,2,0,L|488:288,1,80,10|2,0:0|0:0,0:0:0:0:
396,312,131585,1,10,0:0:0:0:
487,323,131766,1,2,0:0:0:0:
245,333,131947,6,0,L|410:317,1,160,10|10,0:0|0:0,0:0:0:0:
486,303,132489,1,2,0:0:0:0:
298,266,132670,2,0,P|254:229|293:137,1,160,10|10,0:0|0:0,0:0:0:0:
367,137,133212,1,2,0:0:0:0:
180,166,133393,6,0,L|13:161,1,160,10|10,0:0|0:0,0:0:0:0:
100,109,133935,1,2,0:0:0:0:
286,108,134115,2,0,L|115:86,1,160,10|10,0:0|0:0,0:0:0:0:
44,74,134658,1,0,0:0:0:0:
318,176,134838,6,0,P|369:207|308:290,1,160,10|8,0:0|0:0,0:0:0:0:
101,329,135561,2,0,P|61:301|129:154,1,240,10|2,0:0|0:0,0:0:0:0:
305,167,136284,6,0,L|476:173,1,160,10|10,0:0|0:0,0:0:0:0:
267,119,137007,2,0,L|88:104,1,160,10|10,0:0|0:0,0:0:0:0:
441,144,137730,6,0,P|446:194|305:315,1,240,10|2,0:0|0:0,0:0:0:0:
133,313,138453,2,0,P|88:282|152:130,1,240,10|2,0:0|0:0,0:0:0:0:
391,142,139176,5,10,0:3:0:0:
305,198,139356,1,0,0:0:0:0:
305,198,139447,1,8,0:3:0:0:
305,198,139537,1,10,0:0:0:0:
391,142,139718,1,8,0:3:0:0:
228,207,139899,2,0,L|218:294,1,80,10|2,0:0|0:0,0:0:0:0:
406,306,140260,2,0,L|502:313,1,80,10|0,0:3|0:0,0:0:0:0:
201,333,140621,6,0,L|195:248,1,80,10|0,0:0|0:0,0:0:0:0:
302,251,140983,2,0,L|308:155,1,80,10|0,0:0|0:0,0:0:0:0:
125,155,141344,2,0,L|117:243,1,80,10|0,0:0|0:0,0:0:0:0:
235,286,141706,2,0,L|325:288,1,80,10|0,0:0|0:0,0:0:0:0:
67,289,142067,6,0,L|65:206,1,80,10|0,0:0|0:0,0:0:0:0:
152,183,142429,1,10,0:0:0:0:
59,167,142609,1,0,0:0:0:0:
243,151,142790,2,0,L|345:154,1,80,10|0,0:0|0:0,0:0:0:0:
217,93,143152,2,0,L|319:91,1,80,10|0,0:0|0:0,0:0:0:0:
45,110,143513,6,0,P|31:162|119:249,1,160,10|8,0:0|0:0,0:0:0:0:
189,248,144055,1,2,0:0:0:0:
376,252,144236,2,0,P|440:213|403:117,1,160,10|8,0:0|0:0,0:0:0:0:
321,119,144778,1,2,0:0:0:0:
51,187,144959,6,0,P|47:241|154:298,1,160,10|0,0:3|0:0,0:0:0:0:
283,292,145501,1,10,0:3:0:0:
443,278,145682,2,0,P|469:240|451:119,1,160,10|10,0:0|0:3,0:0:0:0:
256,192,146404,12,8,148392,0:1:0:0:
238,189,157970,5,14,3:2:0:0:
88,220,158152,2,0,P|65:266|120:358,1,160,10|0,0:1|0:0,0:0:0:0:
262,337,158694,2,0,P|246:285|219:262,1,80,10|8,0:0|0:1,0:0:0:0:
74,255,159055,1,10,0:0:0:0:
163,203,159236,1,10,0:3:0:0:
414,203,159417,6,0,L|429:303,1,80,14|10,0:0|0:1,0:0:0:0:
255,306,159778,1,10,0:0:0:0:
169,294,159959,1,10,0:3:0:0:
313,302,160140,2,0,L|474:301,1,160,10|10,0:0|0:0,0:0:0:0:
391,202,160682,1,10,0:3:0:0:
131,165,160862,6,0,L|272:78,1,160,12|10,0:0|0:0,0:0:0:0:
348,38,161405,1,10,0:3:0:0:
168,121,161585,2,0,L|160:223,1,80,10|8,0:0|0:1,0:0:0:0:
246,248,161947,1,10,0:0:0:0:
156,285,162127,1,8,0:3:0:0:
420,303,162308,6,0,L|272:231,1,160,14|10,0:0|0:0,0:0:0:0:
370,190,162850,1,8,0:3:0:0:
189,169,163031,2,0,L|185:78,1,80,10|8,0:0|0:1,0:0:0:0:
365,92,163393,2,0,L|371:12,1,80,10|8,0:0|0:3,0:0:0:0:
122,52,163754,6,0,P|71:79|100:195,1,160,14|10,0:0|0:0,0:0:0:0:
159,203,164296,1,8,0:3:0:0:
335,218,164477,2,0,P|423:182|432:100,1,160,10|8,0:0|0:0,0:0:0:0:
334,90,165019,1,10,0:3:0:0:
35,192,165200,6,0,L|29:281,1,80,14|8,0:0|0:1,0:0:0:0:
116,291,165561,1,10,0:0:0:0:
22,330,165742,1,10,0:3:0:0:
208,329,165923,2,0,L|304:330,1,80,10|8,0:0|0:1,0:0:0:0:
149,231,166284,2,0,L|240:226,1,80,10|8,0:0|0:3,0:0:0:0:
476,210,166646,6,0,P|488:151|412:97,1,160,14|8,0:0|0:0,0:0:0:0:
305,96,167188,1,10,0:3:0:0:
203,149,167368,2,0,P|227:215|321:249,1,160,10|8,0:0|0:0,0:0:0:0:
412,246,167911,1,10,0:3:0:0:
161,269,168091,6,0,L|154:181,1,80,14|8,0:0|0:1,0:0:0:0:
316,153,168453,1,10,0:0:0:0:
226,128,168634,1,8,0:3:0:0:
346,111,168814,2,0,L|353:211,1,80,10|10,0:0|0:1,0:0:0:0:
251,204,169176,1,10,0:0:0:0:
160,211,169356,1,8,0:3:0:0:
411,291,169537,5,12,3:2:0:0:
144,228,170079,1,2,0:0:0:0:
199,226,170260,2,0,L|374:220,1,160,2|2,0:0|0:0,0:0:0:0:
66,158,170983,5,4,0:0:0:0:
264,152,171525,1,2,0:0:0:0:
191,160,171706,2,0,L|17:174,1,160,2|2,0:0|0:0,0:0:0:0:
478,250,172429,5,12,3:2:0:0:
311,250,172790,2,0,L|301:169,1,80,0|2,0:0|0:0,0:0:0:0:
418,158,173152,2,0,L|256:143,1,160,2|2,0:0|0:0,0:0:0:0:
39,120,173874,6,0,L|32:290,1,160,2|2,0:0|0:0,0:0:0:0:
184,337,174597,2,0,L|17:345,1,160,2|2,0:0|0:0,0:0:0:0:
482,316,175320,6,0,P|479:252|285:274,1,320,8|8,3:2|0:3,0:0:0:0:
108,329,176766,6,0,P|50:302|136:126,1,320,8|8,0:0|0:3,0:0:0:0:
371,90,177850,2,0,L|380:178,1,80
194,197,178212,6,0,L|31:199,1,160,8|0,0:0|0:0,0:0:0:0:
270,310,178935,2,0,P|324:284|366:113,1,240,8|0,0:3|0:0,0:0:0:0:
188,121,179658,6,0,P|128:169|205:373,1,320,8|8,0:0|0:3,0:0:0:0:
426,308,180923,1,0,0:0:0:0:
244,301,181103,6,0,P|211:271|334:73,1,320,8|8,0:0|0:3,0:0:0:0:
142,63,182549,5,8,0:0:0:0:
350,187,183272,2,0,L|186:200,1,160,8|0,0:3|0:0,0:0:0:0:
104,210,183814,1,0,0:0:0:0:
290,303,183995,6,0,P|361:283|431:67,1,320,8|8,0:0|0:3,0:0:0:0:
135,214,185441,6,0,P|219:15|249:227,1,560,8|0,0:0|0:0,0:0:0:0:
84,272,186887,6,0,P|41:249|113:51,1,320,8|8,0:0|0:3,0:0:0:0:
419,214,188332,6,0,P|395:169|157:196,1,320,8|8,0:0|0:3,0:0:0:0:
324,288,189597,1,8,0:0:0:0:
497,267,189778,6,0,P|506:218|327:54,1,320,8|8,0:0|0:3,0:0:0:0:
114,201,191043,1,0,0:0:0:0:
296,208,191224,6,0,P|336:160|179:20,1,320,8|8,0:0|0:3,0:0:0:0:
391,269,192489,1,8,0:0:0:0:
206,272,192670,6,0,P|192:189|388:136,1,320,8|8,0:0|0:3,0:0:0:0:
147,94,193935,1,0,0:0:0:0:
329,130,194115,6,0,P|374:160|288:355,1,320,8|8,0:0|0:3,0:0:0:0:
470,273,195380,1,8,0:0:0:0:
286,270,195561,6,0,P|358:3|353:279,1,800,8|0,0:0|0:0,0:0:0:0:
197,272,197730,2,0,L|17:266,1,160,8|0,0:3|0:0,0:0:0:0:
464,260,198453,6,0,L|468:75,1,160,8|0,0:0|0:0,0:0:0:0:
369,97,198995,1,0,0:0:0:0:
467,64,199176,1,8,0:3:0:0:
206,83,199537,6,0,P|173:159|225:240,1,160,8|8,0:0|0:3,0:0:0:0:
354,260,200260,1,8,0:3:0:0:
58,261,200621,6,0,P|26:223|46:121,1,160,8|8,0:0|0:3,0:0:0:0:
225,103,201344,1,8,0:3:0:0:
405,89,201706,5,8,0:0:0:0:
116,150,202067,2,0,P|60:177|24:280,1,160,2|2,0:0|0:0,0:0:0:0:
477,282,202790,6,0,L|351:169,1,160,8|0,0:0|0:0,0:0:0:0:
445,126,203332,1,0,0:0:0:0:
354,95,203513,1,8,0:3:0:0:
65,280,203874,6,0,P|29:226|71:132,1,160,8|8,0:0|0:3,0:0:0:0:
230,118,204597,1,8,0:3:0:0:
480,224,204959,6,0,L|312:208,2,160,8|8|8,0:0|0:3|0:3,0:0:0:0:
190,330,206043,5,8,0:0:0:0:
468,316,206404,2,0,L|478:142,1,160,2|2,0:0|0:0,0:0:0:0:
34,211,207127,6,0,L|185:137,2,160,8|0|8,0:0|0:0|0:3,0:0:0:0:
264,301,208212,6,0,L|98:289,2,160,8|8|8,0:0|0:3|0:3,0:0:0:0:
476,294,209296,6,0,L|478:132,1,160,8|8,0:0|0:3,0:0:0:0:
318,137,210019,1,8,0:3:0:0:
84,277,210380,5,8,0:0:0:0:
305,273,210742,2,0,L|499:274,1,160,2|2,0:0|0:0,0:0:0:0:
41,91,211465,6,0,L|23:273,1,160,8|0,0:0|0:0,0:0:0:0:
181,313,212187,1,8,0:3:0:0:
454,296,212549,6,0,L|260:262,2,160,8|8|8,0:0|0:3|0:3,0:0:0:0:
263,313,213633,6,0,L|102:313,1,160,8|8,0:0|0:3,0:0:0:0:
43,207,214356,1,8,0:3:0:0:
477,174,214718,5,8,0:0:0:0:
323,257,215079,1,2,0:0:0:0:
475,155,215440,1,2,0:0:0:0:
