osu file format v14

[General]
AudioFilename: audio.mp3
AudioLeadIn: 0
PreviewTime: 104524
Countdown: 0
SampleSet: Soft
StackLeniency: 0.7
Mode: 0
LetterboxInBreaks: 0
WidescreenStoryboard: 0

[Editor]
Bookmarks: 1774,35774,73774,105774,121774,137774,153774,175274
DistanceSpacing: 1
BeatDivisor: 4
GridSize: 32
TimelineZoom: 1.6

[Metadata]
Title:From a Place of Love
TitleUnicode:From a Place of Love
Artist:Mili
ArtistUnicode:Mili
Creator:Phynta
Version:We don't talk about Love Town
Source:Library of Ruina
Tags:project moon hamhampangpang lobotomy corporation ost original soundtrack sound track vgm videogame video game music progressive pop english raburauza lurumic featured artist fa
BeatmapID:4445423
BeatmapSetID:2116801

[Difficulty]
HPDrainRate:5
CircleSize:4
OverallDifficulty:7.5
ApproachRate:8.6
SliderMultiplier:3.19999990463257
SliderTickRate:1

[Events]
//Background and Video events
0,0,"fromaplaceoflove.png",0,0
//Break Periods
//Storyboard Layer 0 (Background)
//Storyboard Layer 1 (Fail)
//Storyboard Layer 2 (Pass)
//Storyboard Layer 3 (Foreground)
//Storyboard Layer 4 (Overlay)
//Storyboard Sound Samples

[TimingPoints]
1774,500,4,2,1,40,1,0
1774,-200,4,2,1,40,0,0
21149,-263.157894736842,4,2,1,40,0,0
21524,-400,4,2,1,40,0,0
22274,-158.730158730159,4,2,1,40,0,0
23524,-133.333333333333,4,2,1,40,0,0
24024,-200,4,2,1,40,0,0
25774,-263.157894736842,4,2,1,40,0,0
26774,-200,4,2,1,40,0,0
27524,-158.730158730159,4,2,1,40,0,0
28024,-200,4,2,1,40,0,0
29774,-263.157894736842,4,2,1,40,0,0
38774,-200,4,2,1,40,0,0
39774,-158.730158730159,4,2,1,50,0,0
48149,-200,4,2,1,50,0,0
48774,-158.730158730159,4,2,1,50,0,0
49149,-200,4,2,1,50,0,0
49774,-263.157894736842,4,2,1,50,0,0
50149,-158.730158730159,4,2,1,50,0,0
50774,-200,4,2,1,50,0,0
61524,-158.730158730159,4,2,1,50,0,0
62524,-200,4,2,1,50,0,0
63774,-158.730158730159,4,2,1,50,0,0
64774,-200,4,2,1,50,0,0
66274,-158.730158730159,4,2,1,50,0,0
69274,-200,4,2,1,50,0,0
73774,-200,4,2,1,30,0,0
87024,-200,4,2,1,40,0,0
88274,-400,4,2,1,40,0,0
89774,-263.157894736842,4,2,1,40,0,0
97774,-263.157894736842,4,2,1,50,0,0
99274,-200,4,2,1,50,0,0
103024,-133.333333333333,4,2,1,60,0,0
104524,-133.333333333333,4,2,1,70,0,0
104774,-200,4,2,1,70,0,0
105024,-400,4,2,1,70,0,0
105274,-100,4,2,1,70,0,0
105774,-66.6666666666667,4,2,1,80,0,1
106149,-200,4,2,1,80,0,1
107274,-100,4,2,1,80,0,1
107774,-66.6666666666667,4,2,1,80,0,1
108149,-200,4,2,1,80,0,1
108524,-133.333333333333,4,2,1,80,0,1
109024,-100,4,2,1,80,0,1
109524,-200,4,2,1,80,0,1
109774,-66.6666666666667,4,2,1,80,0,1
110524,-200,4,2,1,80,0,1
111024,-133.333333333333,4,2,1,80,0,1
111524,-400,4,2,1,80,0,1
111774,-80,4,2,1,80,0,1
112024,-100,4,2,1,80,0,1
112774,-400,4,2,1,80,0,1
113274,-133.333333333333,4,2,1,80,0,1
113774,-66.6666666666667,4,2,1,80,0,1
114149,-200,4,2,1,80,0,1
114524,-133.333333333333,4,2,1,80,0,1
114774,-100,4,2,1,80,0,1
115149,-80,4,2,1,80,0,1
115524,-133.333333333333,4,2,1,80,0,1
115774,-200,4,2,1,80,0,1
116024,-100,4,2,1,80,0,1
116399,-200,4,2,1,80,0,1
116774,-100,4,2,1,80,0,1
118024,-200,4,2,1,80,0,1
118524,-100,4,2,1,80,0,1
120024,-66.6666666666667,4,2,1,80,0,1
121274,-400,4,2,1,80,0,1
121774,-400,4,2,1,50,0,0
130524,-526.315789473684,4,2,1,50,0,0
131524,-769.230769230769,4,2,1,50,0,0
133774,-400,4,2,1,40,0,0
134774,-526.315789473684,4,2,1,40,0,0
135774,-769.230769230769,4,2,1,40,0,0
137774,-769.230769230769,4,2,1,30,0,0
153774,-769.230769230769,4,2,1,20,0,0
170024,-769.230769230769,4,2,1,30,0,0
171024,-769.230769230769,4,2,1,35,0,0
172024,-769.230769230769,4,2,1,40,0,0
173024,-769.230769230769,4,2,1,35,0,0
174274,-100,4,2,1,40,0,0

[Colours]
Combo1 : 252,177,197
Combo2 : 255,202,210
Combo3 : 218,236,239
Combo4 : 230,200,253

[HitObjects]
9,340,774,5,2,0:0:0:0:
12,353,1149,5,2,0:0:0:0:
15,366,1524,5,2,0:0:0:0:
94,321,1774,6,0,P|110:260|107:193,1,119.999996423721,2|0,0:0|0:0,0:0:0:0:
108,203,2274,1,2,0:0:0:0:
4,250,2524,1,2,0:0:0:0:
97,333,2774,1,2,0:0:0:0:
503,340,4774,5,2,0:0:0:0:
500,353,5149,5,2,0:0:0:0:
497,366,5524,5,2,0:0:0:0:
418,321,5774,6,0,P|402:260|412:157,1,159.999995231628,2|0,0:0|0:0,0:0:0:0:
493,121,6524,1,2,0:0:0:0:
351,270,6774,1,2,0:0:0:0:
424,240,7024,2,0,P|424:198|404:157,1,79.9999976158142,2|0,0:0|0:0,0:0:0:0:
345,117,7524,1,2,0:0:0:0:
488,292,7774,1,2,0:0:0:0:
409,316,8024,2,0,P|409:274|429:233,1,79.9999976158142,2|0,0:0|0:0,0:0:0:0:
483,140,8524,5,2,0:0:0:0:
466,122,8649,1,2,0:0:0:0:
438,121,8774,1,2,0:0:0:0:
409,163,8940,2,0,P|420:229|420:284,1,106.666663487752,2|0,0:0|0:0,0:0:0:0:
504,342,9524,1,2,0:0:0:0:
359,357,9774,6,0,P|298:362|227:378,2,119.999996423721,2|2|2,0:0|0:0|0:0,0:0:0:0:
159,317,10774,5,2,0:0:0:0:
282,332,11149,5,2,0:0:0:0:
388,272,11524,5,2,0:0:0:0:
421,144,11774,6,0,P|419:96|405:51,1,79.9999976158142,2|0,0:0|0:0,0:0:0:0:
377,34,12149,1,2,0:0:0:0:
306,124,12399,1,2,0:0:0:0:
306,124,12524,1,2,0:0:0:0:
262,22,12774,1,2,0:0:0:0:
211,0,12940,2,0,P|168:2|139:73,1,106.666663487752,2|0,0:0|0:0,0:0:0:0:
31,218,13524,5,2,0:0:0:0:
111,164,13774,2,0,B|91:116|122:54|96:0,1,159.999995231628,2|0,0:0|0:0,0:0:0:0:
104,177,14774,2,0,P|110:131|121:87,1,79.9999976158142,2|0,0:0|0:0,0:0:0:0:
201,68,15274,1,2,0:0:0:0:
98,5,15524,1,2,0:0:0:0:
3,137,15774,6,0,P|55:118|111:198,1,159.999995231628,2|0,0:0|0:0,0:0:0:0:
31,218,16524,1,0,0:0:0:0:
170,258,16774,2,0,P|132:278|120:316,1,79.9999976158142,2|0,0:0|0:0,0:0:0:0:
56,345,17274,2,0,P|59:368|74:382,1,39.9999988079071,2|0,0:0|0:0,0:0:0:0:
179,382,17524,1,2,0:0:0:0:
210,374,17649,1,2,0:0:0:0:
259,362,17774,1,2,0:0:0:0:
506,191,18524,5,2,0:0:0:0:
507,208,18774,2,0,P|451:200|386:181,1,119.999996423721,2|0,0:0|0:0,0:0:0:0:
366,151,19274,1,2,0:0:0:0:
471,106,19524,1,2,0:0:0:0:
415,248,19774,1,2,0:0:0:0:
415,248,20274,1,2,0:0:0:0:
331,35,20524,1,2,0:0:0:0:
489,103,20774,6,0,P|429:119|408:129,1,79.9999976158142,2|0,0:0|0:0,0:0:0:0:
333,125,21149,2,0,P|306:150|292:174,1,60.7999974458314,2|0,0:0|0:0,0:0:0:0:
234,217,21524,2,0,P|232:233|234:252,1,19.9999994039536,2|0,0:0|0:0,0:0:0:0:
256,384,21774,1,2,0:0:0:0:
273,370,22274,6,0,P|288:348|288:310,1,50.3999969598771,2|0,0:0|0:0,0:0:0:0:
174,288,22524,2,0,P|159:266|159:228,1,50.3999969598771,2|0,0:0|0:0,0:0:0:0:
321,188,22774,2,0,P|336:166|336:128,1,50.3999969598771,2|0,0:0|0:0,0:0:0:0:
136,122,23024,2,0,P|121:100|121:62,1,50.3999969598771,2|0,0:0|0:0,0:0:0:0:
256,0,23274,1,2,0:0:0:0:
256,0,23524,6,0,B|248:26|248:26|206:57|219:114,1,120.000001001358,2|0,0:0|0:0,0:0:0:0:
225,124,23899,1,0,0:0:0:0:
278,191,24024,6,0,B|286:227|286:227|368:250|382:363|331:399|266:387|247:340|272:303,1,319.999990463257,2|0,0:0|0:0,0:0:0:0:
270,306,25274,1,0,0:0:0:0:
4,237,25774,6,0,P|48:246|105:188,1,121.599994891663,2|0,0:0|0:0,0:0:0:0:
102,199,26524,1,2,0:0:0:0:
0,132,26774,2,0,P|26:115|80:137,1,79.9999976158142,2|0,0:0|0:0,0:0:0:0:
1,42,27274,1,2,0:0:0:0:
151,129,27524,2,0,P|187:123|222:68,1,100.799993919754,2|0,0:0|0:0,0:0:0:0:
87,9,28024,2,0,B|155:72|126:191|118:198|110:207|87:260|119:312,1,319.999990463257,2|0,0:0|0:0,0:0:0:0:
119,313,29274,1,0,0:0:0:0:
197,281,29524,1,2,0:0:0:0:
326,384,29774,6,0,L|451:367,1,121.599994891663,2|2,0:0|0:0,0:0:0:0:
446,367,30524,1,2,0:0:0:0:
417,365,30774,1,2,0:0:0:0:
388,312,31024,1,2,0:0:0:0:
408,228,31274,1,2,0:0:0:0:
490,148,31524,1,2,0:0:0:0:
446,36,31774,6,0,B|455:-18|382:-31|370:22|370:22|346:-26|277:-12|255:53|313:89|319:90|326:90|369:90|375:150,1,364.799984674988,2|0,0:0|0:0,0:0:0:0:
15,332,35774,5,0,1:2:0:0:
13,343,36024,1,2,0:2:0:0:
21,363,36274,1,2,1:2:0:0:
72,379,36524,1,2,0:2:0:0:
141,348,36774,1,2,1:2:0:0:
158,269,37024,1,2,0:2:0:0:
107,196,37274,1,2,1:2:0:0:
21,175,37524,1,2,0:2:0:0:
0,70,37774,1,2,1:2:0:0:
82,2,38024,5,2,0:2:0:0:
23,79,38274,1,2,1:2:0:0:
32,162,38524,1,2,0:2:0:0:
187,130,38774,6,0,L|160:54,1,79.9999976158142,2|0,1:2|0:2,0:2:0:0:
103,123,39149,1,2,0:2:0:0:
103,123,39274,2,0,L|113:165,1,39.9999988079071,0|0,1:2|0:2,0:2:0:0:
176,209,39524,2,0,L|166:251,1,39.9999988079071,2|0,0:2|0:2,0:2:0:0:
0,301,39774,5,2,1:2:0:0:
125,374,40024,1,0,1:2:0:0:
107,362,40149,1,2,0:2:0:0:
121,311,40274,1,8,0:2:0:0:
241,255,40524,1,10,0:2:0:0:
42,230,40774,6,0,L|102:241,1,50.3999969598771,2|0,1:2|0:2,0:2:0:0:
200,322,41024,1,0,0:2:0:0:
216,343,41149,2,0,L|320:322,1,100.799993919754,2|0,0:2|0:2,0:2:0:0:
319,227,41524,1,2,1:2:0:0:
512,358,41774,6,0,P|471:325|469:243,1,100.799993919754,2|0,0:2|1:2,0:2:0:0:
413,368,42149,1,0,0:2:0:0:
386,297,42274,2,0,P|393:245|463:203,1,100.799993919754,10|0,0:2|0:2,0:2:0:0:
492,8,42774,5,2,1:2:0:0:
392,87,43024,1,0,1:2:0:0:
409,107,43149,1,2,0:2:0:0:
457,100,43274,1,8,0:2:0:0:
344,18,43524,1,2,0:2:0:0:
296,160,43774,6,0,P|308:223|315:280,1,100.799993919754,2|2,1:2|1:2,0:2:0:0:
278,287,44149,1,2,0:2:0:0:
286,247,44274,1,10,0:2:0:0:
381,188,44524,1,10,0:2:0:0:
159,97,44774,5,2,1:2:0:0:
149,146,44899,1,2,0:2:0:0:
142,196,45024,1,2,0:2:0:0:
177,224,45149,1,2,0:2:0:0:
169,184,45274,1,10,0:2:0:0:
74,125,45524,1,2,1:2:0:0:
253,8,45774,6,0,P|273:24|280:67,1,50.3999969598771,2|2,0:2|0:2,0:2:0:0:
301,119,46024,1,2,1:2:0:0:
267,132,46149,1,2,0:2:0:0:
233,107,46274,1,10,0:2:0:0:
91,33,46524,1,2,0:2:0:0:
6,170,46774,1,2,0:2:0:0:
17,182,46899,2,0,P|29:224|37:287,1,100.799993919754,2|0,0:2|0:2,0:2:0:0:
109,299,47274,1,8,0:2:0:0:
4,375,47524,1,2,0:2:0:0:
202,382,47774,6,0,P|256:355|249:278,1,100.799993919754,2|0,1:2|1:2,0:2:0:0:
302,247,48149,2,0,P|295:212|262:181,1,79.9999976158142,2|0,0:2|0:2,0:2:0:0:
190,189,48524,1,10,0:2:0:0:
316,4,48774,6,0,P|280:53|303:113,1,100.799993919754,2|0,1:2|0:2,0:2:0:0:
330,163,49149,2,0,P|367:167|405:139,1,79.9999976158142,2|0,0:2|0:2,0:2:0:0:
441,75,49524,1,2,1:2:0:0:
316,4,49774,5,2,0:2:0:0:
320,23,49899,2,0,L|328:57,1,30.3999987229157,2|0,0:2|1:2,0:2:0:0:
247,163,50149,2,0,P|195:156|172:98,1,100.799993919754,2|0,0:2|0:2,0:2:0:0:
216,48,50524,1,2,0:2:0:0:
100,0,50774,5,2,1:2:0:0:
96,19,50899,1,2,0:2:0:0:
90,39,51024,2,0,L|30:50,1,39.9999988079071,0|0,1:2|0:2,0:2:0:0:
4,117,51274,1,8,0:2:0:0:
149,96,51524,1,2,0:2:0:0:
97,218,51774,6,0,B|75:204|90:177|90:177|87:201|103:212,1,79.9999976158142,2|0,1:2|1:2,0:2:0:0:
273,255,52274,1,10,0:2:0:0:
173,315,52524,1,10,0:2:0:0:
257,135,52774,6,0,B|279:121|264:94|264:94|267:118|251:129,1,79.9999976158142,2|0,1:2|0:2,0:2:0:0:
438,89,53274,1,10,0:2:0:0:
369,180,53524,1,2,1:2:0:0:
493,265,53774,6,0,P|486:311|483:354,1,79.9999976158142,2|0,0:2|1:2,0:2:0:0:
325,371,54274,1,10,0:2:0:0:
313,287,54524,1,2,0:2:0:0:
483,344,54774,6,0,L|438:352,1,39.9999988079071,2|0,1:2|0:2,0:2:0:0:
404,359,55024,1,4,1:3:0:0:
503,217,55274,1,2,0:2:0:0:
296,111,55524,1,8,1:3:0:0:
344,100,55649,1,2,0:2:0:0:
363,53,55774,1,2,1:2:0:0:
304,199,56024,1,0,1:2:0:0:
394,277,56274,1,8,0:2:0:0:
478,210,56524,6,0,L|470:164,1,39.9999988079071,10|0,0:2|0:2,0:2:0:0:
397,293,56774,2,0,L|311:307,1,79.9999976158142,2|0,1:2|0:2,0:2:0:0:
221,260,57274,1,10,0:2:0:0:
291,377,57524,1,2,1:2:0:0:
397,293,57774,2,0,L|382:207,1,79.9999976158142,2|0,0:2|1:2,0:2:0:0:
221,260,58274,1,10,0:2:0:0:
366,136,58524,1,2,0:2:0:0:
497,275,58774,6,0,L|482:360,1,79.9999976158142,2|0,1:2|1:2,0:2:0:0:
467,368,59149,1,2,0:2:0:0:
457,347,59274,1,8,0:2:0:0:
291,377,59524,1,2,0:2:0:0:
337,221,59774,6,0,P|339:249|345:274,1,39.9999988079071,2|0,1:2|0:2,0:2:0:0:
378,326,60024,1,0,1:2:0:0:
196,249,60274,6,0,P|200:276|201:302,1,39.9999988079071,8|0,0:2|0:2,0:2:0:0:
183,361,60524,1,8,0:2:0:0:
342,260,60774,5,2,1:2:0:0:
150,180,61024,1,2,0:2:0:0:
320,73,61274,1,10,0:2:0:0:
20,0,61524,6,0,P|-6:53|39:129,1,151.199990879631,2|0,1:2|0:2,0:2:0:0:
51,135,62024,2,0,L|102:124,1,50.3999969598771,2|0,1:2|0:2,0:2:0:0:
141,54,62274,1,10,0:2:0:0:
337,153,62524,6,0,P|363:206|329:270,1,119.999996423721,2|0,0:2|0:2,0:2:0:0:
326,272,63024,2,0,L|282:263,1,39.9999988079071,2|0,1:2|0:2,0:2:0:0:
235,205,63274,1,10,0:2:0:0:
57,289,63524,1,2,0:2:0:0:
199,358,63774,6,0,B|190:365|188:382|188:382|157:356|159:292,1,100.799993919754,2|0,1:2|1:2,0:2:0:0:
138,266,64149,1,0,0:2:0:0:
149,216,64274,1,8,0:2:0:0:
37,160,64524,1,10,0:2:0:0:
9,359,64774,6,0,P|35:367|49:353,1,39.9999988079071,2|0,1:2|0:2,0:2:0:0:
131,339,65024,2,0,P|146:316|137:299,1,39.9999988079071,2|0,0:2|0:2,0:2:0:0:
149,216,65274,2,0,P|132:194|113:197,1,39.9999988079071,10|0,0:2|0:2,0:2:0:0:
4,70,65524,6,0,L|114:87,1,79.9999976158142,2|0,1:2|0:2,0:2:0:0:
166,3,65899,1,0,0:2:0:0:
196,28,66024,2,0,L|251:19,1,39.9999988079071,2|0,1:2|0:2,0:2:0:0:
338,9,66274,6,0,P|321:33|310:69,1,50.3999969598771,10|0,0:2|0:2,0:2:0:0:
247,112,66524,2,0,P|283:159|285:235,1,100.799993919754,2|0,0:2|1:2,0:2:0:0:
358,264,66899,1,0,0:2:0:0:
339,282,67024,2,0,P|314:286|291:272,1,50.3999969598771,2|0,1:2|0:2,0:2:0:0:
222,239,67274,5,10,0:2:0:0:
396,185,67524,1,2,0:2:0:0:
490,363,67774,2,0,P|486:302|480:261,1,100.799993919754,2|0,1:2|1:2,0:2:0:0:
468,244,68149,1,0,0:2:0:0:
493,196,68274,1,10,0:2:0:0:
389,100,68524,1,10,0:2:0:0:
498,2,68774,6,0,L|515:58,1,50.3999969598771,2|0,1:2|0:2,0:2:0:0:
467,69,69024,2,0,L|484:125,1,50.3999969598771,0|0,0:2|0:2,0:2:0:0:
298,19,69274,6,0,L|286:56,1,39.9999988079071,10|0,0:2|0:2,0:2:0:0:
318,64,69524,2,0,L|306:101,1,39.9999988079071,2|0,1:2|0:2,0:2:0:0:
164,195,69774,5,2,0:2:0:0:
149,203,70024,5,2,1:2:0:0:
175,167,70274,1,10,0:2:0:0:
247,155,70524,1,2,0:2:0:0:
311,205,70774,1,2,1:2:0:0:
310,297,71024,1,2,1:2:0:0:
229,358,71274,1,10,0:2:0:0:
116,344,71524,1,2,0:2:0:0:
42,251,71774,1,2,1:2:0:0:
75,122,72024,5,2,1:2:0:0:
75,265,72274,1,10,0:2:0:0:
163,340,72524,1,10,0:2:0:0:
274,338,72774,1,2,1:2:0:0:
345,267,73024,1,10,0:3:0:0:
345,175,73274,1,2,0:2:0:0:
302,107,73524,1,6,0:3:0:0:
256,96,73774,5,2,0:2:0:0:
261,108,74274,1,2,0:2:0:0:
253,123,74774,1,2,0:2:0:0:
262,142,75149,1,2,0:2:0:0:
244,171,75524,1,2,0:2:0:0:
265,241,75774,1,2,0:2:0:0:
253,253,76274,1,2,0:2:0:0:
268,277,76774,1,2,0:2:0:0:
236,323,77149,1,2,0:2:0:0:
267,370,77524,1,2,0:2:0:0:
256,192,77774,5,2,0:2:0:0:
256,192,78524,5,2,0:2:0:0:
251,184,79024,1,2,0:2:0:0:
280,133,79274,1,2,0:2:0:0:
241,9,79774,1,2,0:2:0:0:
232,133,80274,1,2,0:2:0:0:
271,9,80524,1,2,0:2:0:0:
256,0,81024,1,2,0:2:0:0:
231,54,81274,1,2,0:2:0:0:
275,126,81524,1,2,0:2:0:0:
230,273,82024,1,2,0:2:0:0:
230,273,83274,5,2,0:2:0:0:
301,241,83524,1,2,0:2:0:0:
353,298,83774,1,2,0:2:0:0:
239,351,84274,1,2,0:2:0:0:
256,384,84524,1,2,0:2:0:0:
282,48,85274,5,2,0:2:0:0:
211,16,85524,1,2,0:2:0:0:
159,73,85774,1,2,0:2:0:0:
273,126,86274,1,2,0:2:0:0:
256,159,86524,1,2,0:2:0:0:
448,192,87024,5,2,0:2:0:0:
256,352,87524,1,2,0:2:0:0:
64,192,88024,1,2,0:2:0:0:
64,192,88274,6,0,B|85:186|85:186|110:191|110:191|132:183|132:183|157:187|157:187|179:179,1,119.999996423721,2|0,0:2|0:2,0:2:0:0:
256,128,89274,5,2,0:2:0:0:
357,218,89524,1,2,0:2:0:0:
507,138,89774,2,0,L|440:149,1,60.7999974458314,2|0,3:2|3:2,0:2:0:0:
431,150,90149,1,0,3:2:0:0:
416,153,90274,1,0,3:2:0:0:
477,224,90524,5,2,0:2:0:0:
301,59,91024,1,2,0:2:0:0:
113,198,91524,1,2,0:2:0:0:
35,166,91774,2,0,P|16:132|24:76,1,91.199996168747,2|0,3:2|3:2,0:2:0:0:
35,64,92274,5,2,0:2:0:0:
133,107,92524,1,2,0:2:0:0:
219,50,92774,2,0,P|238:84|230:140,2,91.199996168747,2|2|2,0:2|0:2|0:2,0:2:0:0:
126,7,93774,1,2,3:2:0:0:
459,159,94524,6,0,P|427:174|377:152,1,91.199996168747,2|0,0:2|0:2,0:2:0:0:
365,134,95024,1,2,0:2:0:0:
359,36,95274,1,2,0:2:0:0:
450,0,95524,1,2,0:2:0:0:
512,75,95774,1,2,3:2:0:0:
512,75,96274,1,2,0:0:0:0:
459,159,96524,2,0,P|464:195|482:255,1,91.199996168747,2|0,3:2|3:0,0:0:0:0:
497,261,97024,5,2,3:2:0:0:
429,366,97274,1,2,3:2:0:0:
308,333,97524,2,0,P|276:317|267:294,1,60.7999974458314,2|2,3:2|3:3,0:2:0:0:
294,224,97899,1,0,0:2:0:0:
301,207,98024,2,0,P|310:155|275:94,1,121.599994891663,2|0,3:2|0:2,0:2:0:0:
223,32,98774,1,0,3:2:0:0:
229,7,98899,1,0,3:2:0:0:
245,26,99024,1,0,3:2:0:0:
188,173,99274,6,0,P|166:170|139:153,1,39.9999988079071,2|0,3:2|3:2,0:2:0:0:
86,116,99524,2,0,P|77:136|51:156,1,39.9999988079071,2|0,3:2|0:2,0:2:0:0:
0,194,99774,2,0,P|16:208|27:238,1,39.9999988079071,2|0,3:3|0:2,0:2:0:0:
100,247,100024,2,0,P|114:295|77:362,1,119.999996423721,2|0,3:2|3:2,0:2:0:0:
66,368,100524,6,0,L|13:361,1,39.9999988079071,2|0,3:2|0:2,0:2:0:0:
142,326,100774,2,0,L|233:338,1,79.9999976158142,2|0,3:2|0:2,0:2:0:0:
250,360,101149,1,0,3:2:0:0:
295,346,101274,1,2,3:2:0:0:
368,254,101524,1,2,0:2:0:0:
512,372,101774,6,0,P|494:365|479:334,1,39.9999988079071,2|0,3:3|3:2,0:2:0:0:
446,279,102024,2,0,P|446:251|473:207,1,79.9999976158142,2|0,3:2|0:2,0:2:0:0:
479,171,102399,1,0,3:2:0:0:
503,142,102524,1,2,3:2:0:0:
459,48,102774,1,2,3:2:0:0:
256,192,103024,5,2,0:2:0:0:
53,48,103274,1,2,3:2:0:0:
373,8,103524,1,2,0:2:0:0:
256,288,103774,1,2,3:3:0:0:
139,8,104024,6,0,P|222:14|224:99,1,180.000001502037,2|0,3:2|0:2,0:2:0:0:
327,119,104524,6,0,P|300:131|285:158,1,60.000000500679,2|0,0:2|0:2,0:2:0:0:
186,224,104774,2,0,P|209:235|216:253,1,39.9999988079071,2|0,0:2|0:2,0:2:0:0:
280,292,105024,2,0,P|273:304|273:314,1,19.9999994039535,2|0,0:2|0:2,0:2:0:0:
257,382,105274,6,0,P|247:277|238:211,1,159.999995231628,2|0,0:2|0:2,0:2:0:0:
219,202,105649,1,0,0:2:0:0:
271,25,105774,6,0,B|298:-38|411:9|360:178|263:157,1,240.000002002716,6|0,1:2|3:2,0:2:0:0:
204,188,106149,6,0,L|137:179,1,39.9999988079071,0|0,3:2|0:2,0:2:0:0:
93,213,106524,5,2,3:2:0:0:
191,162,106774,1,2,3:2:0:0:
323,259,107024,1,2,3:2:0:0:
484,148,107274,6,0,L|305:115,1,159.999995231628,2|0,0:2|1:2,0:2:0:0:
304,150,107649,1,0,0:2:0:0:
183,0,107774,6,0,B|98:14|103:123|166:126|172:124|201:112|227:153|226:183,1,240.000002002716,2|0,3:2|3:2,0:2:0:0:
275,231,108149,2,0,L|269:277,1,39.9999988079071,0|0,3:2|1:2,0:2:0:0:
161,367,108524,6,0,P|158:325|182:365,1,120.000001001358,2|0,0:2|3:2,0:2:0:0:
181,381,108899,1,0,3:2:0:0:
136,281,109024,6,0,P|59:258|1:308,1,159.999995231628,2|0,0:2|3:2,0:2:0:0:
0,327,109399,1,0,3:2:0:0:
71,378,109524,2,0,P|79:350|69:321,1,39.9999988079071,2|0,0:2|0:2,0:2:0:0:
28,131,109774,6,0,B|2:60|55:-7|114:-19|224:94|81:141|77:145|73:148|63:158|26:190|43:246,1,360.000003004074,6|0,1:2|3:2,0:2:0:0:
156,344,110274,1,2,0:2:0:0:
250,255,110399,1,0,3:2:0:0:
233,173,110524,2,0,P|234:132|239:87,1,79.9999976158142,2|0,0:2|3:2,0:2:0:0:
287,14,110899,1,0,3:2:0:0:
265,129,111024,6,0,P|260:202|276:283,1,120.000001001358,2|0,3:2|0:2,0:2:0:0:
335,360,111399,1,0,0:2:0:0:
355,339,111524,2,0,P|359:329|357:307,1,19.9999994039536,2|0,1:2|0:2,0:2:0:0:
346,91,111774,6,0,P|374:141|459:165,1,99.9999970197678,2|0,3:2|3:2,0:2:0:0:
462,294,112024,2,0,P|498:236|483:46,1,239.999992847443,2|0,3:2|3:2,0:2:0:0:
475,61,112524,1,0,3:2:0:0:
493,14,112649,1,0,0:2:0:0:
496,137,112774,6,0,P|475:143|451:148,1,39.9999988079071,2|0,3:2|0:2,0:2:0:0:
452,165,113149,1,0,0:2:0:0:
334,182,113274,6,0,P|335:149|340:110,1,60.0000005006791,2|0,3:2|3:2,0:2:0:0:
392,0,113524,2,0,P|395:29|395:59,1,60.0000005006791,0|0,0:2|0:2,0:2:0:0:
227,114,113774,6,0,B|271:169|143:267|306:238|302:323,1,240.000002002716,6|0,1:2|3:2,0:2:0:0:
230,377,114149,2,0,P|218:361|213:331,1,39.9999988079071,0|0,3:2|0:2,0:2:0:0:
319,162,114524,6,0,P|329:141|328:95,1,60.0000005006791,2|0,3:2|0:2,0:2:0:0:
194,28,114774,2,0,P|143:74|152:168,1,159.999995231628,2|0,3:2|0:2,0:2:0:0:
292,209,115149,2,0,P|361:125|306:30,1,199.999994039536,2|0,3:2|3:2,0:2:0:0:
209,219,115524,1,2,1:2:0:0:
155,280,115649,1,0,0:2:0:0:
78,264,115774,2,0,P|75:240|84:215,1,39.9999988079071,2|0,3:2|3:2,0:2:0:0:
3,0,116024,6,0,P|5:84|32:174,1,159.999995231628,2|0,3:2|1:2,0:2:0:0:
56,231,116399,2,0,P|71:258|88:271,1,39.9999988079071,0|0,3:2|0:2,0:2:0:0:
134,331,116649,1,0,0:2:0:0:
223,360,116774,2,0,P|282:360|363:288,1,159.999995231628,0|0,3:2|3:2,0:2:0:0:
131,348,117149,5,0,0:2:0:0:
284,263,117274,2,0,P|305:215|305:177,1,79.9999976158142,2|0,3:2|3:2,0:2:0:0:
237,140,117524,2,0,P|206:97|173:78,1,79.9999976158142,2|0,0:2|0:2,0:2:0:0:
115,336,117774,5,6,1:2:0:0:
182,261,117899,1,2,3:2:0:0:
284,263,118024,2,0,P|328:279|359:305,1,79.9999976158142,2|0,3:2|0:2,0:2:0:0:
19,1,118524,5,2,0:1:0:0:
0,38,118649,1,0,0:2:0:0:
2,100,118774,1,2,3:1:0:0:
42,165,118899,1,0,3:2:0:0:
120,197,119024,1,2,3:1:0:0:
212,160,119149,1,0,0:2:0:0:
254,72,119274,6,0,P|209:98|183:148,1,79.9999976158142,2|0,0:1|0:2,0:2:0:0:
475,231,119524,2,0,P|466:148|402:80,1,159.999995231628,2|0,1:1|3:2,0:2:0:0:
251,49,119899,1,0,3:2:0:0:
166,217,120024,2,0,P|208:320|432:329,1,360.000003004074,2|0,3:1|3:2,0:2:0:0:
443,313,120524,5,0,0:2:0:0:
446,286,120774,5,2,3:2:0:0:
426,316,120899,1,0,3:2:0:0:
382,346,121024,1,2,3:2:0:0:
302,350,121149,1,0,0:2:0:0:
231,296,121274,6,0,L|235:257,1,39.9999988079071,2|0,0:2|0:2,0:2:0:0:
5,363,121774,5,2,3:2:0:0:
30,377,121899,1,0,3:2:0:0:
48,375,122024,1,0,3:2:0:0:
53,372,122149,1,0,3:2:0:0:
235,256,122524,5,2,0:2:0:0:
159,306,122774,2,0,P|151:267|148:224,1,79.9999976158142,2|2,3:2|0:2,0:2:0:0:
278,183,123774,5,2,3:2:0:0:
253,169,123899,1,0,3:2:0:0:
235,171,124024,1,0,3:2:0:0:
230,174,124149,1,0,3:2:0:0:
235,256,124524,1,0,0:2:0:0:
318,306,124774,2,0,P|323:277|326:245,1,59.9999982118607,0|0,3:2|0:2,0:2:0:0:
404,93,125524,5,2,0:2:0:0:
443,163,125774,2,0,P|470:169|504:145,1,59.9999982118607,2|0,3:2|3:2,0:2:0:0:
512,137,126274,1,2,0:2:0:0:
422,204,126524,2,0,P|432:236|478:257,1,79.9999976158142,2|0,0:2|0:2,0:2:0:0:
512,327,127274,5,2,0:2:0:0:
450,375,127524,2,0,L|404:381,1,39.9999988079071,2|0,0:2|3:2,0:2:0:0:
293,348,128024,2,0,L|379:361,1,79.9999976158142,2|0,0:2|0:2,0:2:0:0:
450,375,128774,1,2,0:2:0:0:
324,216,129274,5,2,0:2:0:0:
267,279,129524,2,0,P|263:302|308:352,1,79.9999976158142,2|0,0:2|0:2,0:2:0:0:
322,208,130274,1,2,0:2:0:0:
389,264,130524,2,0,P|402:258|415:218,1,60.7999974458314,2|0,0:2|0:2,0:2:0:0:
320,200,131274,1,2,0:2:0:0:
335,121,131524,2,0,P|327:114|298:120,1,41.5999985063172,2|2,0:2|0:2,0:2:0:0:
258,147,132274,1,2,0:2:0:0:
187,110,132524,1,2,0:2:0:0:
103,183,132774,5,2,0:2:0:0:
0,94,133149,1,2,0:2:0:0:
118,0,133524,5,2,0:2:0:0:
204,48,133774,2,0,P|199:78|197:97,2,39.9999988079071,2|0|0,3:2|0:2|0:2,0:2:0:0:
323,108,134524,5,2,0:2:0:0:
249,152,134774,2,0,P|252:170|253:181,2,30.3999987229157,2|0|0,3:2|0:2|0:2,0:2:0:0:
146,212,135524,5,2,0:2:0:0:
216,245,135774,2,0,P|213:257|212:266,2,20.7999992531586,2|0|0,3:2|0:2|0:2,0:2:0:0:
261,338,136524,5,2,0:2:0:0:
261,338,137024,1,2,3:2:0:0:
242,351,137274,1,2,0:2:0:0:
256,384,137774,5,2,0:2:0:0:
256,384,138524,1,2,0:2:0:0:
256,384,138774,1,2,0:2:0:0:
284,346,139274,1,2,0:2:0:0:
256,256,139774,1,2,0:2:0:0:
256,256,140524,1,2,0:2:0:0:
228,166,141024,1,2,0:2:0:0:
219,131,141524,1,2,0:2:0:0:
295,46,141774,6,0,L|288:1,1,41.5999985063172,2|2,0:2|0:2,0:2:0:0:
219,131,142524,2,0,L|226:86,1,41.5999985063172,2|2,0:2|0:2,0:2:0:0:
295,216,143274,2,0,L|291:191,1,20.7999992531586,2|2,0:2|0:2,0:2:0:0:
219,301,143774,1,2,0:2:0:0:
222,280,144024,1,2,0:2:0:0:
256,384,144774,5,2,0:2:0:0:
287,359,145024,1,2,0:2:0:0:
219,301,145274,1,2,0:2:0:0:
297,234,145774,1,2,0:2:0:0:
297,234,146274,5,2,0:2:0:0:
269,164,146524,1,2,0:2:0:0:
196,171,146774,1,2,0:2:0:0:
320,104,147149,1,2,0:2:0:0:
196,20,147524,1,2,0:2:0:0:
196,20,148024,2,0,L|199:46,2,20.7999992531586,2|0|0,0:2|0:2|0:2,0:2:0:0:
192,4,148774,5,2,0:2:0:0:
153,114,149149,1,2,0:2:0:0:
263,153,149524,1,2,0:2:0:0:
320,87,149774,6,0,L|315:44,1,41.5999985063172,2|0,0:2|0:2,0:2:0:0:
397,124,150524,1,0,0:2:0:0:
408,45,150774,2,0,L|412:2,1,41.5999985063172,2|0,0:2|0:2,0:2:0:0:
478,105,151524,1,0,0:2:0:0:
394,142,151774,1,2,0:2:0:0:
510,313,152524,5,2,0:2:0:0:
512,349,152774,1,2,0:2:0:0:
487,375,153024,1,2,0:2:0:0:
450,375,153274,1,2,0:2:0:0:
418,280,153774,2,0,L|413:234,1,41.5999985063172,2|0,0:2|0:2,0:2:0:0:
475,186,154524,5,2,0:2:0:0:
500,200,154774,1,2,0:2:0:0:
386,137,155274,1,2,0:2:0:0:
300,227,155774,2,0,L|254:232,1,41.5999985063172,2|0,0:2|0:2,0:2:0:0:
222,234,156524,5,2,0:2:0:0:
317,327,157024,1,2,0:2:0:0:
189,375,157524,1,2,0:2:0:0:
122,337,157774,2,0,L|120:304,1,31.1999988797379,2|0,0:2|0:2,0:2:0:0:
109,291,158274,1,2,0:2:0:0:
125,251,158524,1,2,0:2:0:0:
0,315,159024,1,2,0:2:0:0:
10,180,159524,5,2,0:2:0:0:
26,220,159774,1,2,0:2:0:0:
100,172,160024,2,0,L|108:131,1,41.5999985063172,2|0,0:2|0:2,0:2:0:0:
32,96,160774,5,2,0:2:0:0:
129,0,161274,1,2,0:2:0:0:
242,52,161774,2,0,P|252:74|253:100,1,41.5999985063172,2|0,0:2|0:2,0:2:0:0:
236,126,162524,5,2,0:2:0:0:
256,159,162774,1,2,0:2:0:0:
240,275,163149,1,2,0:2:0:0:
332,345,163524,1,2,0:2:0:0:
394,362,163774,1,2,0:2:0:0:
447,327,164024,2,0,P|472:292|455:237,1,103.999996265793,2|0,0:2|0:2,0:2:0:0:
445,195,165524,6,0,L|452:174,1,20.7999992531586,2|2,0:2|0:2,0:2:0:0:
379,252,166024,2,0,L|372:227,1,20.7999992531586,2|2,0:2|0:2,0:2:0:0:
333,165,166524,2,0,L|339:140,1,20.7999992531586,2|2,0:2|0:2,0:2:0:0:
267,282,167024,2,0,L|259:258,1,20.7999992531586,2|2,0:2|0:2,0:2:0:0:
198,137,167524,1,2,0:2:0:0:
159,243,167774,1,2,0:2:0:0:
114,154,168024,1,2,0:2:0:0:
85,225,168274,1,2,0:2:0:0:
39,172,168524,1,2,0:2:0:0:
0,192,168774,6,0,L|22:197,3,20.7999992531586,2|0|0|0,0:2|0:2|0:2|0:2,0:2:0:0:
15,315,169774,5,0,0:2:0:0:
14,335,170024,1,2,0:2:0:0:
27,364,170274,1,2,0:2:0:0:
82,384,170524,1,2,0:2:0:0:
154,373,170774,1,2,0:2:0:0:
192,305,171024,1,2,0:2:0:0:
183,219,171274,1,2,0:2:0:0:
137,140,171524,1,2,0:2:0:0:
147,45,171774,1,2,0:2:0:0:
256,0,172024,5,2,0:2:0:0:
354,53,172274,1,2,0:2:0:0:
371,147,172524,1,2,0:2:0:0:
327,224,172774,1,2,0:2:0:0:
330,304,173024,1,2,0:2:0:0:
386,350,173274,1,2,0:2:0:0:
442,348,173524,1,2,0:2:0:0:
463,326,173774,1,2,0:2:0:0:
209,204,174274,6,0,B|198:197|193:185|193:185|201:187|207:193|207:193|209:185|215:181|215:181|216:193|209:203,1,79.9999976158142,2|0,0:2|0:2,0:2:0:0:
303,204,174774,6,0,B|313:197|318:185|318:185|310:187|304:193|304:193|303:185|296:181|296:181|295:193|302:203,1,79.9999976158142,2|0,0:2|0:2,0:2:0:0:
256,288,175274,5,0,0:2:0:0:
