osu file format v14

[General]
AudioFilename: audio.mp3
AudioLeadIn: 0
PreviewTime: 171447
Countdown: 0
SampleSet: Soft
StackLeniency: 0.4
Mode: 0
LetterboxInBreaks: 0
WidescreenStoryboard: 1

[Editor]
DistanceSpacing: 1.4
BeatDivisor: 6
GridSize: 32
TimelineZoom: 1.6

[Metadata]
Title:Flowerworks
TitleUnicode:Flowerworks
Artist:Mili
ArtistUnicode:Mili
Creator:SMOKELIND
Version:Lulala lila
Source:魔法使いの約束
Tags:Promise of Wizard momocashew cassie wei projectmili yamato kasai hamo project english classical ending ed video game Pepekcz
BeatmapID:3187837
BeatmapSetID:1560826

[Difficulty]
HPDrainRate:5.7
CircleSize:4.7
OverallDifficulty:7
ApproachRate:9
SliderMultiplier:2.07
SliderTickRate:1

[Events]
//Background and Video events
0,0,"BG.jpg",0,0
//Break Periods
//Storyboard Layer 0 (Background)
//Storyboard Layer 1 (Fail)
//Storyboard Layer 2 (Pass)
//Storyboard Layer 3 (Foreground)
//Storyboard Layer 4 (Overlay)
//Storyboard Sound Samples

[TimingPoints]
-605,357.142857142857,3,2,77,27,1,0
466,-212.765957446809,3,2,77,27,0,0
3591,-588.23529411765,3,2,77,5,0,0
3680,-212.765957446809,3,2,77,27,0,0
4752,-129.87012987013,3,2,77,47,0,0
9037,-129.87012987013,3,2,77,57,0,0
9305,-588.23529411765,3,2,77,5,0,0
9394,-129.87012987013,3,2,77,57,0,0
15109,-212.765957446809,3,2,77,57,0,0
15377,-588.23529411765,3,2,77,5,0,0
15466,-129.87012987013,3,2,77,57,0,0
16537,-212.765957446809,3,2,77,57,0,0
17519,-588.23529411765,3,2,77,5,0,0
17609,-212.765957446809,3,2,77,47,0,0
19752,-370.370370370372,3,2,77,47,0,0
21894,-175.438596491228,3,2,77,47,0,0
29394,-129.87012987013,3,2,77,57,0,0
30109,-212.765957446809,3,2,77,57,0,0
30377,-588.23529411765,3,2,77,5,0,0
30466,-129.87012987013,3,2,77,57,0,0
31180,-212.765957446809,3,2,77,57,0,0
31448,-588.23529411765,3,2,77,5,0,0
31537,-129.87012987013,3,2,77,57,0,0
37966,-175.438596491228,3,2,77,47,0,0
42252,-129.87012987013,3,2,77,57,0,0
42966,-212.765957446809,3,2,77,57,0,0
43234,-588.23529411765,3,2,77,5,0,0
43323,-129.87012987013,3,2,77,57,0,0
45109,-212.765957446809,3,2,77,57,0,0
45377,-588.23529411765,3,2,77,5,0,0
45466,-129.87012987013,3,2,77,57,0,0
46537,-212.765957446809,3,2,77,57,0,0
49752,357.142857142857,4,2,77,77,1,0
49752,-175.438596491228,4,2,77,77,0,0
51002,357.142857142857,3,2,77,77,1,0
51002,-78.7401574803149,3,2,77,77,0,0
51269,-588.23529411765,3,2,77,5,0,0
51359,-78.7401574803149,3,2,77,77,0,0
51894,357.142857142857,3,2,77,77,1,0
51894,-175.438596491228,3,2,77,77,0,0
52519,-588.23529411765,3,2,77,5,0,0
52608,-175.438596491228,3,2,77,77,0,0
52965,-93.4579439252336,3,2,77,77,0,0
54304,-588.23529411765,3,2,77,5,0,0
54394,-93.4579439252336,3,2,77,77,0,0
54751,-175.438596491228,3,2,77,77,0,0
55019,-588.23529411765,3,2,77,5,0,0
55108,-93.4579439252336,3,2,77,77,0,0
59036,-175.438596491228,3,2,77,77,0,0
59304,-588.23529411765,3,2,77,5,0,0
59394,-78.7401574803149,3,2,77,77,0,0
59661,-588.23529411765,3,2,77,5,0,0
59751,-78.7401574803149,3,2,77,77,0,0
60465,-129.87012987013,3,2,77,77,0,0
61090,-588.23529411765,3,2,77,5,0,0
61179,-129.87012987013,3,2,77,77,0,0
61417,-588.23529411765,3,2,77,5,0,0
61536,-93.4579439252336,3,2,77,77,0,0
63947,-588.23529411765,3,2,77,5,0,0
64036,-93.4579439252336,3,2,77,77,0,0
66536,-175.438596491228,3,2,77,77,0,0
66804,-588.23529411765,3,2,77,5,0,0
66894,-93.4579439252336,3,2,77,77,0,0
67608,-175.438596491228,3,2,77,77,0,0
67876,-588.23529411765,3,2,77,5,0,0
67965,-175.438596491228,3,2,77,77,0,0
69036,-103.092783505155,3,2,77,77,0,0
70019,-588.23529411765,3,2,77,5,0,0
70108,-103.092783505155,3,2,77,77,0,0
72161,-588.23529411765,3,2,77,5,0,0
72251,-103.092783505155,3,2,77,57,0,0
73322,-175.438596491228,3,2,77,47,0,0
75465,-212.765957446809,3,2,77,47,0,0
80197,-175.438596491228,3,2,77,47,0,0
89661,-588.23529411765,3,2,77,5,0,0
89751,-175.438596491228,3,2,77,47,0,0
93679,-129.87012987013,3,2,77,57,0,0
94126,-588.23529411765,3,2,77,5,0,0
94215,-129.87012987013,3,2,77,57,0,0
94393,-212.765957446809,3,2,77,57,0,0
94661,-588.23529411765,3,2,77,5,0,0
94751,-129.87012987013,3,2,77,57,0,0
95197,-588.23529411765,3,2,77,5,0,0
95286,-129.87012987013,3,2,77,57,0,0
95465,-212.765957446809,3,2,77,57,0,0
95733,-588.23529411765,3,2,77,5,0,0
95822,-129.87012987013,3,2,77,57,0,0
96268,-588.23529411765,3,2,77,5,0,0
96358,-129.87012987013,3,2,77,57,0,0
96536,-212.765957446809,3,2,77,57,0,0
96804,-588.23529411765,3,2,77,5,0,0
96893,-129.87012987013,3,2,77,57,0,0
97340,-588.23529411765,3,2,77,5,0,0
97429,-129.87012987013,3,2,77,57,0,0
97608,-212.765957446809,3,2,77,57,0,0
97876,-588.23529411765,3,2,77,5,0,0
97965,-129.87012987013,3,2,77,57,0,0
98411,-588.23529411765,3,2,77,5,0,0
98501,-129.87012987013,3,2,77,57,0,0
98679,-212.765957446809,3,2,77,57,0,0
98947,-588.23529411765,3,2,77,5,0,0
99036,-129.87012987013,3,2,77,57,0,0
100286,-588.23529411765,3,2,77,5,0,0
100376,-129.87012987013,3,2,77,57,0,0
100554,-588.23529411765,3,2,77,5,0,0
100643,-129.87012987013,3,2,77,57,0,0
102251,-175.438596491228,3,2,77,47,0,0
106536,-129.87012987013,3,2,77,57,0,0
107251,-212.765957446809,3,2,77,57,0,0
107518,-588.23529411765,3,2,77,5,0,0
107608,-129.87012987013,3,2,77,57,0,0
109393,-212.765957446809,3,2,77,57,0,0
109661,-588.23529411765,3,2,77,5,0,0
109751,-129.87012987013,3,2,77,57,0,0
110822,-212.765957446809,3,2,77,57,0,0
114751,-212.765957446809,3,2,77,27,0,0
115018,-588.23529411765,3,2,77,5,0,0
115108,-212.765957446809,3,2,77,27,0,0
117161,-588.23529411765,3,2,77,5,0,0
117251,-212.765957446809,3,2,77,27,0,0
121536,-175.438596491228,3,2,77,47,0,0
125822,-129.87012987013,3,2,77,57,0,0
131447,-588.23529411765,3,2,77,5,0,0
131536,-129.87012987013,3,2,77,57,0,0
132340,-588.23529411765,3,2,77,5,0,0
132429,-129.87012987013,3,2,77,57,0,0
133322,-129.87012987013,3,2,77,47,0,0
134393,-175.438596491228,3,2,77,47,0,0
138679,-129.87012987013,3,2,77,57,0,0
139126,-588.23529411765,3,2,77,5,0,0
139215,-129.87012987013,3,2,77,57,0,0
139393,-212.765957446809,3,2,77,57,0,0
139661,-588.23529411765,3,2,77,5,0,0
139751,-129.87012987013,3,2,77,57,0,0
141268,-588.23529411765,3,2,77,5,0,0
141358,-129.87012987013,3,2,77,57,0,0
141536,-212.765957446809,3,2,77,57,0,0
141804,-588.23529411765,3,2,77,5,0,0
141893,-129.87012987013,3,2,77,57,0,0
142965,-93.4579439252337,3,2,77,57,0,0
143233,-588.23529411765,3,2,77,5,0,0
143322,-212.765957446809,3,2,77,57,0,0
145108,-212.765957446809,3,2,77,67,0,0
146179,357.142857142857,4,2,77,77,1,0
146179,-103.092783505155,4,2,77,77,0,0
146268,-588.23529411765,3,2,77,5,0,0
146357,-103.092783505155,4,2,77,77,0,0
146446,-588.23529411765,3,2,77,5,0,0
146536,-103.092783505155,4,2,77,77,0,0
146804,-588.23529411765,3,2,77,5,0,0
146893,-103.092783505155,4,2,77,77,0,0
146982,-588.23529411765,3,2,77,5,0,0
147429,357.142857142857,3,2,77,77,1,0
147429,-78.7401574803149,3,2,77,77,0,0
147696,-588.23529411765,3,2,77,5,0,0
147786,-78.7401574803149,3,2,77,77,0,0
148322,357.142857142857,3,2,77,77,1,0
148322,-175.438596491228,3,2,77,77,0,0
148947,-588.23529411765,3,2,77,5,0,0
149036,-175.438596491228,3,2,77,77,0,0
149393,-93.4579439252336,3,2,77,77,0,0
150732,-588.23529411765,3,2,77,5,0,0
150822,-93.4579439252336,3,2,77,77,0,0
151179,-175.438596491228,3,2,77,77,0,0
151447,-588.23529411765,3,2,77,5,0,0
151536,-93.4579439252336,3,2,77,77,0,0
155375,-588.23529411765,3,2,77,5,0,0
155464,-175.438596491228,3,2,77,77,0,0
155732,-588.23529411765,3,2,77,5,0,0
155822,-78.7401574803149,3,2,77,77,0,0
156089,-588.23529411765,3,2,77,5,0,0
156179,-78.7401574803149,3,2,77,77,0,0
156893,-129.87012987013,3,2,77,77,0,0
157518,-588.23529411765,3,2,77,5,0,0
157607,-129.87012987013,3,2,77,77,0,0
157964,-93.4579439252336,3,2,77,77,0,0
160375,-588.23529411765,3,2,77,5,0,0
160464,-93.4579439252336,3,2,77,77,0,0
162964,-175.438596491228,3,2,77,77,0,0
163232,-588.23529411765,3,2,77,5,0,0
163321,-93.4579439252336,3,2,77,77,0,0
164036,-175.438596491228,3,2,77,77,0,0
164304,-588.23529411765,3,2,77,5,0,0
164393,-175.438596491228,3,2,77,77,0,0
165464,-103.092783505155,3,2,77,77,0,0
168589,-588.23529411765,3,2,77,5,0,0
168679,-175.438596491228,3,2,77,57,0,0
170822,-175.438596491228,3,2,77,47,0,0
171536,-370.370370370372,3,2,77,47,0,0
171893,357.142857142857,4,2,77,47,1,0
173143,357.142857142857,3,2,77,77,1,0
173143,-78.7401574803149,3,2,77,77,0,0
173410,-588.23529411765,3,2,77,5,0,0
173500,-78.7401574803149,3,2,77,77,0,0
174036,357.142857142857,3,2,77,77,1,0
174036,-175.438596491228,3,2,77,77,0,0
175107,-93.4579439252336,3,2,77,77,0,0
176446,-588.23529411765,3,2,77,5,0,0
176536,-93.4579439252336,3,2,77,77,0,0
176893,-175.438596491228,3,2,77,77,0,0
177161,-588.23529411765,3,2,77,5,0,0
177250,-93.4579439252336,3,2,77,77,0,0
181178,-175.438596491228,3,2,77,77,0,0
181446,-588.23529411765,3,2,77,5,0,0
181536,-78.7401574803149,3,2,77,77,0,0
181803,-588.23529411765,3,2,77,5,0,0
181893,-78.7401574803149,3,2,77,77,0,0
182607,-129.87012987013,3,2,77,77,0,0
183678,-93.4579439252336,3,2,77,77,0,0
187161,-588.23529411765,3,2,77,5,0,0
187250,-93.4579439252336,3,2,77,77,0,0
187518,-588.23529411765,3,2,77,5,0,0
187607,-93.4579439252336,3,2,77,77,0,0
187875,-588.23529411765,3,2,77,5,0,0
187964,-93.4579439252336,3,2,77,77,0,0
188678,-175.438596491228,3,2,77,77,0,0
188946,-588.23529411765,3,2,77,5,0,0
189036,-93.4579439252336,3,2,77,77,0,0
189482,-588.23529411765,3,2,77,5,0,0
189571,-93.4579439252336,3,2,77,77,0,0
189750,-175.438596491228,3,2,77,77,0,0
190018,-588.23529411765,3,2,77,5,0,0
190107,-175.438596491228,3,2,77,77,0,0
191178,-103.092783505155,3,2,77,77,0,0
194303,-588.23529411765,3,2,77,5,0,0
194393,-103.092783505155,3,2,77,57,0,0
195464,-175.438596491228,3,2,77,47,0,0
197607,-212.765957446809,3,2,77,47,0,0
198678,-270.270270270271,3,2,77,27,0,0

[Colours]
Combo1 : 255,149,189
Combo2 : 255,222,106

[HitObjects]
179,97,109,5,0,0:0:0:0:
187,168,287,1,0,0:0:0:0:
113,60,466,6,0,P|81:54|52:47,1,48.6449992577362,2|0,0:0|0:0,0:0:0:0:
253,127,823,2,0,P|276:122|300:118,1,48.6449992577362,2|0,0:0|0:0,0:0:0:0:
121,216,1180,2,0,P|89:210|60:203,1,48.6449992577362,2|0,0:0|0:0,0:0:0:0:
264,373,1537,6,0,P|282:293|387:272,1,194.579997030945,2|0,0:0|0:0,0:0:0:0:
381,269,2609,5,2,0:0:0:0:
463,62,3323,6,0,P|459:97|452:136,1,72.9674988866043,2|0,0:0|0:0,0:0:0:0:
392,165,3680,1,2,0:0:0:0:
102,288,4394,5,2,0:0:0:0:
172,270,4573,1,2,0:0:0:0:
79,359,4752,6,0,B|107:272|21:301|50:214,1,159.389996838272,6|0,1:0|0:0,0:0:0:0:
50,213,5287,1,0,1:0:0:0:
172,114,5466,5,10,0:0:0:0:
102,96,5645,1,2,0:0:0:0:
190,189,5823,6,0,P|257:156|349:144,1,159.389996838272,2|0,1:0|0:0,0:0:0:0:
340,143,6359,1,0,1:0:0:0:
483,84,6537,5,10,0:0:0:0:
503,17,6716,1,2,0:0:0:0:
407,87,6894,6,0,P|454:120|472:227,1,159.389996838272,2|0,1:0|0:0,0:0:0:0:
475,215,7430,1,0,1:0:0:0:
314,290,7609,5,10,0:0:0:0:
223,266,7788,1,2,0:0:0:0:
334,375,7966,6,0,B|389:360|398:295|398:295|405:331|446:343,1,159.389996838272,2|0,1:0|0:0,0:0:0:0:
425,334,8502,1,0,1:0:0:0:
284,204,8680,5,10,0:0:0:0:
264,137,8859,1,2,0:0:0:0:
129,300,9037,6,0,P|185:281|244:267,1,119.542497628704,14|0,0:0|0:0,0:0:0:0:
284,204,9394,5,10,0:0:0:0:
244,267,9573,1,4,0:3:0:0:
168,139,9752,5,10,0:3:0:0:
334,91,9930,1,8,0:3:0:0:
401,294,10109,6,0,P|360:281|319:271,1,79.6949984191361,14|0,0:0|0:0,0:0:0:0:
480,206,10466,5,0,0:0:0:0:
479,198,10555,1,0,0:0:0:0:
478,190,10644,1,0,0:0:0:0:
477,182,10733,1,0,0:0:0:0:
476,174,10823,1,0,0:0:0:0:
512,110,11002,5,0,0:0:0:0:
324,272,11180,1,4,1:0:0:0:
73,56,11537,5,0,0:0:0:0:
147,99,11716,1,0,0:0:0:0:
96,145,11894,1,0,0:0:0:0:
101,157,12073,1,0,0:0:0:0:
17,283,12252,6,0,B|-25:277|-17:214|48:201|82:269,1,159.389996838272,6|2,1:0|0:0,0:0:0:0:
260,343,12787,1,2,1:0:0:0:
198,384,12966,2,0,P|187:335|189:293,1,79.6949984191361,10|0,0:0|0:0,0:0:0:0:
242,252,13264,5,2,0:0:0:0:
249,249,13323,1,2,1:0:0:0:
289,106,13621,5,2,0:0:0:0:
287,113,13680,1,2,0:0:0:0:
400,212,13978,5,2,0:0:0:0:
395,206,14037,1,10,0:0:0:0:
306,189,14394,5,2,1:0:0:0:
306,189,14930,5,0,1:0:0:0:
460,40,15109,2,0,P|423:31|383:24,1,72.9674988866043,10|0,0:0|0:0,0:0:0:0:
344,91,15466,6,0,P|386:75|522:49,1,159.389996838272,2|0,1:0|0:0,0:0:0:0:
497,50,16002,1,0,1:0:0:0:
395,206,16180,1,10,0:0:0:0:
21,26,16537,6,0,B|50:0|105:4|129:61|129:61|152:118|207:121|237:96,1,267.547495917549,6|0,1:0|0:0,0:0:0:0:
263,29,17609,1,4,1:0:0:0:
68,115,18680,5,0,1:0:0:0:
61,121,18859,1,0,0:0:0:0:
74,134,19037,1,0,0:0:0:0:
46,161,19216,1,0,0:0:0:0:
99,216,19394,1,0,0:0:0:0:
8,336,19573,5,0,0:0:0:0:
9,326,19662,1,0,0:0:0:0:
10,316,19752,2,0,P|87:294|183:270,1,167.670004093506,4|4,3:2|1:0,0:0:0:0:
480,286,21716,5,0,0:0:0:0:
406,306,21894,2,0,P|409:273|416:243,1,58.9949992798462,10|0,0:0|0:0,0:0:0:0:
235,306,22252,2,0,P|260:326|283:347,1,58.9949992798462,2|0,0:0|0:0,0:0:0:0:
322,145,22609,2,0,P|291:155|260:163,1,58.9949992798462,2|0,0:0|0:0,0:0:0:0:
317,248,22966,5,2,1:0:0:0:
41,75,23859,5,2,0:0:0:0:
86,16,24037,2,0,P|107:45|74:193,1,176.984997839539,10|0,0:0|0:0,0:0:0:0:
199,52,24752,2,0,P|228:58|267:67,1,58.9949992798462,2|0,0:0|0:0,0:0:0:0:
375,181,25109,6,0,B|386:192|386:222|386:222|352:205|353:138|353:138|328:193|264:184,1,235.979997119385,2|0,1:0|0:0,0:0:0:0:
472,55,26002,5,0,0:0:0:0:
466,56,26091,1,0,0:0:0:0:
460,57,26180,2,0,P|454:91|450:130,1,58.9949992798462,10|0,0:0|0:0,0:0:0:0:
309,13,26537,2,0,P|328:41|352:72,1,58.9949992798462,2|0,0:0|0:0,0:0:0:0:
173,87,26894,2,0,P|206:94|245:99,1,58.9949992798462,2|0,0:0|0:0,0:0:0:0:
82,188,27252,5,2,1:0:0:0:
180,372,28144,5,2,0:0:0:0:
240,327,28323,2,0,P|204:279|74:250,1,176.984997839539,10|0,0:0|0:0,0:0:0:0:
278,172,29037,2,0,P|271:200|264:229,1,58.9949992798462,2|0,0:0|0:0,0:0:0:0:
186,82,29394,6,0,P|149:94|107:103,1,79.6949984191361,6|0,1:0|0:0,0:0:0:0:
351,203,29752,2,0,P|388:191|430:182,1,79.6949984191361,0|0,0:0|1:0,0:0:0:0:
276,333,30109,6,0,P|263:311|279:330,1,72.9674988866043,8|0,0:0|0:0,0:0:0:0:
187,359,30466,6,0,P|182:320|176:280,1,79.6949984191361,6|0,1:0|0:0,0:0:0:0:
143,61,30823,2,0,P|148:100|153:139,1,79.6949984191361,2|0,0:0|1:0,0:0:0:0:
357,48,31180,6,0,P|341:29|354:51,1,72.9674988866043,10|0,0:0|0:0,0:0:0:0:
405,101,31537,6,0,P|440:113|481:124,1,79.6949984191361,2|0,1:0|0:0,0:0:0:0:
313,211,31894,2,0,P|283:234|253:263,1,79.6949984191361,0|0,0:0|1:0,0:0:0:0:
261,78,32252,2,0,P|256:40|248:0,1,79.6949984191361,8|0,0:0|0:0,0:0:0:0:
25,164,32609,6,0,B|112:134|83:222|170:193,1,159.389996838272,2|0,1:0|0:0,0:0:0:0:
170,193,33144,1,2,1:0:0:0:
321,309,33323,5,10,0:0:0:0:
306,236,33502,1,0,0:0:0:0:
469,207,33680,6,0,B|532:197|545:292|454:337|377:251,1,239.084995257408,6|0,1:0|1:0,0:0:0:0:
302,52,34394,1,10,0:0:0:0:
302,52,34752,6,0,P|295:89|284:142,1,79.6949984191361,2|0,1:0|0:0,0:0:0:0:
129,174,35109,2,0,P|136:211|147:264,1,79.6949984191361,2|0,0:0|1:0,0:0:0:0:
333,281,35466,2,0,P|326:318|315:371,1,79.6949984191361,10|0,0:0|0:0,0:0:0:0:
71,296,35823,6,0,B|120:310|128:367|128:367|138:335|170:324,1,159.389996838272,2|0,1:0|0:0,0:0:0:0:
169,324,36359,1,0,1:0:0:0:
55,224,36537,5,8,0:0:0:0:
42,151,36716,1,0,0:0:0:0:
212,43,36894,1,4,1:0:0:0:
212,43,37252,5,0,0:0:0:0:
261,91,37430,1,0,0:0:0:0:
279,74,37609,1,2,0:0:0:0:
290,80,37787,1,0,0:0:0:0:
426,121,37966,6,0,B|433:100|417:86|417:86|390:165|496:138|469:217,1,176.984997839539,6|0,3:2|0:0,0:0:0:0:
412,257,38680,2,0,P|381:264|342:277,1,58.9949992798462,2|0,3:0|0:0,0:0:0:0:
319,331,38948,1,0,0:0:0:0:
316,336,39037,2,0,P|253:314|195:304,2,117.989998559692,0|0|2,3:0|3:0|3:0,0:0:0:0:
316,336,39930,1,0,1:0:0:0:
225,224,40109,6,0,P|194:269|122:248,1,117.989998559692,2|0,1:0|3:0,0:0:0:0:
22,43,40823,2,0,P|35:69|54:97,1,58.9949992798462,2|0,3:0|0:0,0:0:0:0:
225,63,41180,6,0,P|164:46|95:24,1,117.989998559692,2|0,3:0|3:0,0:0:0:0:
111,29,41716,1,0,0:0:0:0:
258,130,41894,1,2,3:0:0:0:
300,70,42073,5,0,0:0:0:0:
301,61,42162,1,0,0:0:0:0:
303,53,42252,2,0,B|382:26|356:132|436:106,1,159.389996838272,6|0,1:0|0:0,0:0:0:0:
436,105,42787,1,0,1:0:0:0:
303,223,42966,6,0,P|267:211|222:202,1,72.9674988866043,10|0,0:0|0:0,0:0:0:0:
166,250,43323,6,0,P|160:290|181:331,1,79.6949984191361,2|0,1:0|0:0,0:0:0:0:
218,92,43680,2,0,P|187:65|141:61,1,79.6949984191361,2|0,0:0|1:0,0:0:0:0:
324,220,44037,2,0,P|362:207|390:171,1,79.6949984191361,10|0,0:0|0:0,0:0:0:0:
470,344,44394,6,0,P|444:309|479:197,1,159.389996838272,2|0,1:0|0:0,0:0:0:0:
469,204,44930,1,0,1:0:0:0:
299,351,45109,6,0,P|263:358|228:370,1,72.9674988866043,8|0,0:0|0:0,0:0:0:0:
165,332,45466,6,0,P|147:295|125:256,1,79.6949984191361,2|0,1:0|0:0,0:0:0:0:
227,103,45823,2,0,P|201:135|175:172,1,79.6949984191361,2|0,0:0|1:0,0:0:0:0:
4,140,46180,2,0,P|45:146|89:148,1,79.6949984191361,10|0,0:0|0:0,0:0:0:0:
216,258,46537,6,0,B|291:286|369:252|398:176|398:176|427:101|478:89|478:89|503:130|474:205|474:205|472:151|439:127,1,535.094991835098,6|0,1:0|0:0,0:0:0:0:
390,118,48591,5,2,0:0:0:0:
380,119,48680,1,6,1:0:0:0:
209,56,49394,6,0,P|217:83|222:116,1,48.6449992577362,2|0,0:0|1:0,0:0:0:0:
186,170,49662,5,0,1:0:0:0:
177,178,49752,2,0,B|131:191|114:136|114:136|250:91|205:271|340:226,1,353.969995679077,14|0,0:0|0:0,0:0:0:0:
356,150,51002,6,0,B|302:143|312:63|395:46|439:133,1,197.167498495731,6|0,1:0|0:0,0:0:0:0:
414,207,51359,2,0,B|447:218|475:182|475:182|445:202|412:190,1,131.444998997154,8|0,0:0|0:0,0:0:0:0:
260,48,51716,1,8,0:0:0:0:
228,114,51894,6,0,B|122:150|157:8|51:43,1,206.482497479462,4|0,1:0|0:0,0:0:0:0:
36,107,52608,5,10,0:0:0:0:
141,306,52786,1,2,0:0:0:0:
143,296,52875,1,0,0:0:0:0:
145,286,52965,2,0,P|104:249|40:242,1,110.744996620331,6|0,1:0|0:0,0:0:0:0:
317,76,53322,2,0,P|307:130|335:188,1,110.744996620331,2|0,0:0|1:0,0:0:0:0:
157,107,53679,1,10,0:0:0:0:
339,261,53858,5,0,0:0:0:0:
349,259,53947,1,0,0:0:0:0:
359,256,54036,2,0,P|400:203|412:99,1,166.117494930496,2|0,1:0|0:0,0:0:0:0:
369,49,54394,1,0,0:0:0:0:
491,181,54572,1,0,1:0:0:0:
285,280,54751,6,0,P|253:251|190:261,1,88.4924989197693,10|0,0:0|0:0,0:0:0:0:
226,328,55108,6,0,P|283:306|445:284,1,221.489993240662,6|0,1:0|0:0,0:0:0:0:
441,283,55644,1,0,1:0:0:0:
222,159,55822,2,0,P|230:101|242:45,1,110.744996620331,10|0,0:0|0:0,0:0:0:0:
106,159,56179,6,0,P|68:127|-1:117,1,110.744996620331,2|0,1:0|0:0,0:0:0:0:
215,246,56536,2,0,P|262:230|307:177,1,110.744996620331,2|0,0:0|1:0,0:0:0:0:
110,279,56894,2,0,P|97:327|119:393,1,110.744996620331,10|0,0:0|0:0,0:0:0:0:
394,207,57251,6,0,B|431:94|281:132|319:20,2,221.489993240662,2|0|8,1:0|0:0|0:0,0:0:0:0:
258,342,58144,1,0,0:0:0:0:
227,267,58322,6,0,B|259:250|291:283|291:283|259:266|226:282,1,110.744996620331,2|0,1:0|0:0,0:0:0:0:
99,348,58679,2,0,B|67:364|35:332|35:332|66:348|99:332,1,110.744996620331,2|0,0:0|1:0,0:0:0:0:
133,171,59036,6,0,P|123:127|116:84,1,88.4924989197693,10|0,0:0|0:0,0:0:0:0:
118,11,59394,6,0,B|198:-39|264:20|229:98|177:75,1,197.167498495731,6|0,1:0|0:0,0:0:0:0:
116,84,59751,5,8,0:3:0:0:
269,212,59929,1,4,0:3:0:0:
264,134,60108,5,8,0:3:0:0:
190,283,60286,1,4,0:3:0:0:
314,384,60465,6,0,B|365:306|474:294|474:294|420:299|377:245,1,278.932494466976,12|0,0:0|0:0,0:0:0:0:
339,215,61179,5,2,0:0:0:0:
390,167,61298,2,0,P|393:135|400:96,1,53.1299989460907,2|0,0:0|0:0,0:0:0:0:
265,220,61536,6,0,B|211:195|205:133|205:133|185:192|127:203,1,221.489993240662,6|0,1:0|0:0,0:0:0:0:
126,203,62072,1,0,1:0:0:0:
29,136,62251,5,10,0:0:0:0:
93,93,62429,1,0,0:0:0:0:
194,262,62608,6,0,P|184:316|171:376,1,110.744996620331,2|0,1:0|0:0,0:0:0:0:
348,207,62965,2,0,P|399:186|457:166,1,110.744996620331,2|0,0:0|1:0,0:0:0:0:
308,349,63322,1,10,0:0:0:0:
242,162,63501,5,0,0:0:0:0:
243,150,63590,1,0,0:0:0:0:
244,138,63679,2,0,P|223:111|96:101,1,166.117494930496,6|0,1:0|0:0,0:0:0:0:
78,159,64036,5,0,0:0:0:0:
103,232,64215,1,0,1:0:0:0:
0,337,64393,5,10,0:0:0:0:
35,226,64572,1,2,0:0:0:0:
243,354,64751,6,0,B|318:345|318:345|320:342|320:342|285:346,1,110.744996620331,2|0,1:0|0:0,0:0:0:0:
191,164,65108,2,0,B|159:231|159:231|161:235|161:235|175:204,1,110.744996620331,2|0,0:0|1:0,0:0:0:0:
380,229,65465,2,0,B|332:170|332:170|328:170|328:170|350:197,1,110.744996620331,10|0,0:0|0:0,0:0:0:0:
440,335,65822,5,2,1:0:0:0:
440,335,66179,5,0,0:0:0:0:
471,250,66358,1,0,1:0:0:0:
377,100,66536,6,0,P|403:132|451:136,1,88.4924989197693,10|0,0:0|0:0,0:0:0:0:
440,68,66894,6,0,B|328:30|365:179|254:142,1,221.489993240662,6|0,1:0|0:0,0:0:0:0:
255,142,67429,1,0,1:0:0:0:
60,278,67608,6,0,P|100:250|103:190,1,88.4924989197693,10|0,0:0|0:0,0:0:0:0:
73,153,67965,5,6,1:0:0:0:
177,184,68144,1,0,0:0:0:0:
217,253,68322,5,2,0:0:0:0:
341,215,68501,1,0,1:0:0:0:
414,84,68679,5,8,0:0:0:0:
339,129,68858,1,2,0:0:0:0:
460,326,69036,6,0,P|471:275|479:213,1,100.395002374455,2|0,1:0|0:0,0:0:0:0:
422,177,69304,1,0,0:0:0:0:
416,168,69394,2,0,P|412:218|404:267,1,100.395002374455,2|0,0:0|1:0,0:0:0:0:
219,360,69751,2,0,B|176:369|148:322|148:322|181:350|223:341,1,150.592503561682,10|0,0:0|0:0,0:0:0:0:
273,312,70108,5,2,1:0:0:0:
272,115,70644,1,0,1:0:0:0:
162,13,70822,5,8,0:0:0:0:
171,105,71001,1,2,0:0:0:0:
370,65,71179,6,0,P|317:51|262:34,1,100.395002374455,2|0,1:0|0:0,0:0:0:0:
10,128,71536,2,0,P|58:142|106:155,1,100.395002374455,2|0,0:0|1:0,0:0:0:0:
273,312,71894,2,0,B|315:321|343:274|343:274|310:302|268:293,1,150.592503561682,10|0,0:0|0:0,0:0:0:0:
219,264,72251,5,6,1:0:0:0:
467,335,73144,5,2,0:0:0:0:
395,353,73322,2,0,P|376:288|377:224,2,117.989998559692,6|2|2,1:0|0:0|0:0,0:0:0:0:
290,125,74393,5,2,1:0:0:0:
278,122,74572,1,0,0:0:0:0:
258,135,74750,1,0,0:0:0:0:
223,195,74929,1,0,0:0:0:0:
259,267,75107,1,0,0:0:0:0:
138,357,75286,5,2,0:0:0:0:
128,356,75375,1,0,0:0:0:0:
121,352,75465,2,0,P|172:335|221:323,2,97.2899985154724,6|2|2,3:2|0:0|0:0,0:0:0:0:
50,78,76536,5,2,1:0:0:0:
50,78,76893,5,0,0:0:0:0:
48,91,77072,1,0,0:0:0:0:
46,120,77251,1,0,0:0:0:0:
42,178,77429,1,0,0:0:0:0:
36,259,77608,1,10,0:0:0:0:
36,259,77965,5,0,0:0:0:0:
49,257,78144,1,0,0:0:0:0:
78,255,78323,1,0,0:0:0:0:
136,251,78501,1,0,0:0:0:0:
217,245,78680,1,2,1:0:0:0:
217,245,79036,5,0,0:0:0:0:
219,232,79215,1,0,0:0:0:0:
221,203,79394,1,0,0:0:0:0:
225,145,79572,1,0,0:0:0:0:
231,64,79751,1,10,0:0:0:0:
367,237,80108,5,2,0:0:0:0:
372,242,80197,2,0,P|409:229|467:212,2,88.4924989197693,2|2|0,0:0|0:0|0:0,0:0:0:0:
349,309,80822,5,2,1:0:0:0:
200,149,81179,1,2,0:0:0:0:
253,100,81358,2,0,P|297:129|291:204,1,117.989998559692,0|0,0:0|3:0,0:0:0:0:
237,222,81804,1,0,3:0:0:0:
228,220,81893,1,8,0:0:0:0:
88,366,82251,5,0,0:0:0:0:
132,310,82429,1,0,0:0:0:0:
113,241,82608,1,0,0:0:0:0:
149,179,82786,1,2,0:0:0:0:
51,59,82965,6,0,P|47:119|77:179,2,117.989998559692,2|2|2,1:0|0:0|0:0,0:0:0:0:
246,145,84036,6,0,P|303:162|368:146,2,117.989998559692,14|2|2,0:0|0:0|0:0,0:0:0:0:
454,342,85108,5,6,1:0:0:0:
454,342,85465,5,0,0:0:0:0:
445,333,85643,1,0,0:0:0:0:
422,341,85822,1,0,0:0:0:0:
374,305,86001,1,2,0:0:0:0:
303,346,86179,2,0,P|271:334|232:321,1,58.9949992798462,2|0,0:0|3:0,0:0:0:0:
122,165,86536,2,0,P|149:174|177:185,1,58.9949992798462,2|8,3:0|0:0,0:0:0:0:
371,98,86893,2,0,P|339:86|300:73,1,58.9949992798462,2|0,0:0|3:0,0:0:0:0:
409,260,87251,5,2,1:0:0:0:
409,260,87608,5,0,0:0:0:0:
421,247,87786,1,0,0:0:0:0:
412,212,87965,1,0,0:0:0:0:
440,153,88143,1,2,0:0:0:0:
371,98,88322,2,0,P|365:66|357:26,1,58.9949992798462,2|0,0:0|3:0,0:0:0:0:
252,158,88679,2,0,P|257:186|263:215,1,58.9949992798462,2|8,3:0|0:0,0:0:0:0:
89,144,89036,2,0,P|83:115|77:86,1,58.9949992798462,2|0,0:0|3:0,0:0:0:0:
124,273,89393,6,0,P|154:240|216:248,1,88.4924989197693,2|0,1:0|0:0,0:0:0:0:
246,289,89751,2,0,P|291:309|352:281,1,117.989998559692
498,177,90286,5,2,0:0:0:0:
490,247,90465,2,0,P|460:242|435:228,1,58.9949992798462,2|0,0:0|0:0,0:0:0:0:
435,228,90822,5,2,3:0:0:0:
366,74,91001,1,8,0:0:0:0:
385,177,91179,5,2,3:0:0:0:
422,120,91358,1,0,3:0:0:0:
233,51,91536,6,0,P|254:89|328:140,2,117.989998559692,2|0|0,1:0|0:0|0:0,0:0:0:0:
233,51,92429,1,2,0:0:0:0:
47,109,92608,5,2,3:0:0:0:
103,142,92786,1,0,3:0:0:0:
160,100,92965,5,0,3:0:0:0:
58,248,93143,1,8,0:0:0:0:
39,182,93322,5,0,3:0:0:0:
188,321,93501,1,0,0:0:0:0:
199,319,93590,1,0,0:0:0:0:
210,316,93679,2,0,B|176:215|309:248|276:148,1,199.23749604784,6|0,1:0|0:0,0:0:0:0:
220,110,94215,5,0,1:0:0:0:
342,284,94393,2,0,P|376:291|419:304,1,72.9674988866043,8|0,0:0|0:0,0:0:0:0:
484,270,94751,6,0,B|496:321|419:340|375:269|439:199,1,199.23749604784,6|0,1:0|0:0,0:0:0:0:
512,201,95286,5,0,1:0:0:0:
357,37,95465,2,0,P|322:47|286:54,1,72.9674988866043,10|0,0:0|0:0,0:0:0:0:
230,97,95822,6,0,P|168:62|26:38,1,199.23749604784,6|0,1:0|0:0,0:0:0:0:
13,99,96358,5,0,1:0:0:0:
148,271,96536,2,0,P|154:246|141:268,1,72.9674988866043,8|0,0:0|0:0,0:0:0:0:
113,283,96893,6,0,B|134:304|177:304|199:261|199:261|220:218|263:218|285:239,1,199.23749604784,2|0,1:0|0:0,0:0:0:0:
310,295,97429,5,0,1:0:0:0:
480,184,97608,2,0,P|489:142|489:110,1,72.9674988866043,10|0,0:0|0:0,0:0:0:0:
428,79,97965,6,0,P|405:175|403:275,1,199.23749604784,6|0,1:0|0:0,0:0:0:0:
462,317,98501,5,0,1:0:0:0:
296,156,98679,2,0,P|261:141|216:149,1,72.9674988866043,8|0,0:0|0:0,0:0:0:0:
180,199,99036,6,0,P|183:239|186:294,1,79.6949984191361,2|0,1:0|0:0,0:0:0:0:
78,116,99393,2,0,P|42:97|-5:70,1,79.6949984191361,2|0,0:0|1:0,0:0:0:0:
206,51,99751,2,0,P|240:30|288:3,1,79.6949984191361,10|0,0:0|0:0,0:0:0:0:
463,132,100108,6,0,P|436:108|387:114,1,79.6949984191361,2|0,1:0|0:0,0:0:0:0:
371,181,100376,2,0,P|398:205|447:199,1,79.6949984191361,2|0,0:0|0:0,0:0:0:0:
508,188,100643,5,0,1:0:0:0:
414,332,100822,1,8,0:0:0:0:
350,319,101001,1,0,0:0:0:0:
286,306,101179,1,4,1:0:0:0:
286,306,101536,5,0,0:0:0:0:
220,337,101715,1,0,0:0:0:0:
190,325,101893,1,2,0:0:0:0:
179,326,102072,1,0,0:0:0:0:
35,363,102251,6,0,P|59:276|77:192,1,176.984997839539,6|0,3:2|0:0,0:0:0:0:
21,67,102965,2,0,P|35:102|72:115,1,58.9949992798462,2|0,3:0|0:0,0:0:0:0:
127,131,103233,1,0,0:0:0:0:
133,124,103322,2,0,P|197:106|260:96,2,117.989998559692,2|0|2,3:0|3:0|3:0,0:0:0:0:
133,124,104215,1,0,1:0:0:0:
329,254,104393,6,0,B|348:192|293:210|307:145,1,117.989998559692,2|0,1:0|3:0,0:0:0:0:
474,310,105108,2,0,P|442:316|406:327,1,58.9949992798462,2|0,3:0|0:0,0:0:0:0:
360,365,105376,1,0,0:0:0:0:
352,360,105465,2,0,P|323:336|226:310,2,117.989998559692,2|0|2,3:0|3:0|3:0,0:0:0:0:
139,367,106358,5,0,0:0:0:0:
147,363,106447,1,0,0:0:0:0:
157,357,106536,2,0,P|175:312|148:185,1,159.389996838272,6|0,1:0|0:0,0:0:0:0:
160,204,107072,1,0,1:0:0:0:
332,59,107251,6,0,P|314:91|309:131,1,72.9674988866043,10|0,0:0|0:0,0:0:0:0:
239,145,107608,6,0,P|199:132|156:124,1,79.6949984191361,2|0,1:0|0:0,0:0:0:0:
280,232,107965,2,0,P|242:250|205:274,1,79.6949984191361,2|0,0:0|1:0,0:0:0:0:
387,237,108322,2,0,P|373:276|363:319,1,79.6949984191361,10|0,0:0|0:0,0:0:0:0:
512,148,108679,6,0,P|478:183|417:117,1,159.389996838272,2|0,1:0|0:0,0:0:0:0:
416,119,109215,1,0,1:0:0:0:
231,20,109393,2,0,P|201:39|158:38,1,72.9674988866043,8|0,0:0|0:0,0:0:0:0:
85,15,109751,6,0,P|101:52|81:98,1,79.6949984191361,2|0,1:0|0:0,0:0:0:0:
265,207,110108,2,0,P|225:200|196:159,1,79.6949984191361,2|0,0:0|1:0,0:0:0:0:
10,255,110465,2,0,P|36:224|86:222,1,79.6949984191361,10|0,0:0|0:0,0:0:0:0:
234,321,110822,6,0,B|268:372|351:362|372:304|372:304|393:246|330:197|282:259|316:310|372:304|372:304|403:222|484:248|484:248|444:241|430:196,1,583.739991092835,6|0,1:0|0:0,0:0:0:0:
40,57,114751,6,0,P|80:48|115:76,1,72.9674988866043
120,134,115108,2,0,B|165:178|221:226|322:161|294:51|221:69,1,291.869995546417,2|0,0:0|0:0,0:0:0:0:
61,246,116893,6,0,P|97:251|131:261,1,72.9674988866043
156,330,117251,2,0,B|259:343|306:241|306:241|309:247|309:247|295:299|334:339,1,291.869995546417,2|0,0:0|0:0,0:0:0:0:
463,342,119036,1,0,0:0:0:0:
480,203,119304,5,0,0:0:0:0:
485,197,119393,2,0,P|473:264|461:349,1,145.934997773209,2|0,0:0|0:0,0:0:0:0:
315,190,120108,2,0,P|319:157|325:124,1,48.6449992577362
209,262,120465,6,0,B|183:274|158:249|158:249|183:262|209:249,2,97.2899985154724,2|0|0,0:0|0:0|0:0,0:0:0:0:
383,31,121536,6,0,B|353:120|472:90|442:179,1,176.984997839539,6|0,1:0|0:0,0:0:0:0:
443,179,122251,1,0,0:0:0:0:
396,238,122429,1,0,1:0:0:0:
496,316,122608,6,0,B|470:301|465:268|465:268|450:300|423:307,2,117.989998559692,0|0|2,1:0|0:0|0:0,0:0:0:0:
336,354,123679,2,0,P|306:325|223:294,1,117.989998559692,2|0,1:0|0:0,0:0:0:0:
236,295,124215,5,0,0:0:0:0:
281,238,124393,1,0,0:0:0:0:
191,145,124572,5,0,1:0:0:0:
181,210,124751,2,0,P|231:216|294:158,2,117.989998559692,0|0|2,1:0|0:0|0:0,0:0:0:0:
181,210,125822,6,0,P|194:119|210:34,1,159.389996838272,6|0,1:0|0:0,0:0:0:0:
206,52,126358,1,0,1:0:0:0:
350,137,126536,1,8,0:0:0:0:
318,73,126715,1,0,0:0:0:0:
181,210,126893,6,0,P|141:198|93:187,1,79.6949984191361,0|0,1:0|0:0,0:0:0:0:
259,297,127251,2,0,P|270:336|286:383,1,79.6949984191361,0|0,0:0|1:0,0:0:0:0:
297,197,127608,2,0,P|324:166|356:127,1,79.6949984191361,10|0,0:0|0:0,0:0:0:0:
501,301,127965,6,0,P|453:247|377:284,1,159.389996838272,2|0,1:0|0:0,0:0:0:0:
381,275,128501,1,0,1:0:0:0:
481,128,128679,1,10,0:0:0:0:
481,128,129036,6,0,P|443:117|391:107,1,79.6949984191361,2|0,1:0|0:0,0:0:0:0:
188,58,129393,2,0,P|226:66|265:76,1,79.6949984191361,2|0,0:0|1:0,0:0:0:0:
307,253,129751,1,10,0:0:0:0:
307,253,130108,5,6,1:0:0:0:
61,356,131090,5,0,0:0:0:0:
67,351,131179,2,0,P|82:290|89:215,1,119.542497628704,4|0,1:0|0:0,0:0:0:0:
39,183,131536,5,8,0:3:0:0:
164,297,131715,1,8,0:3:0:0:
236,271,131893,1,4,0:3:0:0:
168,288,132072,1,4,0:3:0:0:
415,355,132251,6,0,L|423:299,1,39.847499209568,12|0,0:0|0:0,0:0:0:0:
488,127,133143,5,0,0:0:0:0:
489,117,133232,1,0,0:0:0:0:
491,106,133322,1,4,3:2:0:0:
491,106,133679,5,0,0:0:0:0:
416,164,133858,1,0,0:0:0:0:
448,229,134036,1,2,0:0:0:0:
444,247,134215,1,0,0:0:0:0:
337,334,134393,6,0,P|299:316|162:283,1,176.984997839539,6|0,1:0|0:0,0:0:0:0:
45,262,135108,2,0,P|82:245|111:238,1,58.9949992798462,2|0,3:0|0:0,0:0:0:0:
166,206,135375,1,0,0:0:0:0:
172,200,135465,2,0,P|181:135|193:70,2,117.989998559692,2|0|0,3:0|3:0|3:0,0:0:0:0:
172,200,136357,1,0,1:0:0:0:
313,81,136536,2,0,B|345:65|377:96|377:96|345:81|313:96,1,117.989998559692,2|0,1:0|3:0,0:0:0:0:
459,273,137251,6,0,P|469:238|481:201,1,58.9949992798462,2|0,3:0|0:0,0:0:0:0:
411,175,137518,1,0,0:0:0:0:
403,179,137608,2,0,P|411:207|440:313,1,117.989998559692,2|0,3:0|3:0,0:0:0:0:
435,292,138143,1,0,0:0:0:0:
256,346,138321,1,2,3:0:0:0:
202,298,138501,5,0,0:0:0:0:
203,289,138590,1,0,0:0:0:0:
204,279,138679,2,0,B|167:169|313:206|276:97,1,199.23749604784,6|0,1:0|0:0,0:0:0:0:
225,77,139215,1,0,1:0:0:0:
106,146,139393,6,0,P|141:138|189:131,1,72.9674988866043,10|0,0:0|0:0,0:0:0:0:
225,77,139751,6,0,P|232:37|242:-4,1,79.6949984191361,2|0,1:0|0:0,0:0:0:0:
365,157,140108,2,0,P|357:117|350:75,1,79.6949984191361,2|0,0:0|1:0,0:0:0:0:
510,214,140465,2,0,P|487:180|465:143,1,79.6949984191361,10|0,0:0|0:0,0:0:0:0:
315,319,140822,6,0,B|252:314|229:246|229:246|226:290|187:307,1,199.23749604784,2|0,1:0|0:0,0:0:0:0:
162,243,141358,5,0,1:0:0:0:
17,366,141536,2,0,P|24:332|33:283,1,72.9674988866043,8|0,0:0|0:0,0:0:0:0:
84,237,141893,6,0,P|59:205|24:173,1,79.6949984191361,2|0,1:0|0:0,0:0:0:0:
263,95,142251,2,0,P|249:133|240:179,1,79.6949984191361,2|0,0:0|1:0,0:0:0:0:
70,30,142608,2,0,P|109:21|153:4,1,79.6949984191361,10|0,0:0|0:0,0:0:0:0:
390,178,142965,6,0,B|417:136|386:78|386:78|330:112|341:163,1,166.117494930496,10|0,0:0|0:0,0:0:0:0:
317,195,143322,2,0,B|248:216|221:138|221:138|382:84|328:298|488:245,1,437.804993319626,4|0,1:0|0:0,0:0:0:0:
265,362,145108,5,12,0:0:0:0:
163,205,145286,1,8,0:3:0:0:
233,187,145465,1,4,0:3:0:0:
55,375,145643,5,12,0:0:0:0:
157,218,145821,1,10,0:3:0:0:
87,200,146000,1,4,0:3:0:0:
269,350,146179,6,0,P|285:325|285:290,1,50.1975011872273,14|0,0:0|0:0,0:0:0:0:
207,122,146357,2,0,P|219:148|249:167,1,50.1975011872273,8|0,0:0|0:0,0:0:0:0:
376,194,146536,1,2,0:0:0:0:
210,301,146714,6,0,P|180:295|155:270,1,50.1975011872273,12|0,0:0|0:0,0:0:0:0:
125,79,146893,2,0,P|135:106|128:141,1,50.1975011872273,10|0,0:0|0:0,0:0:0:0:
444,160,147429,6,0,B|475:114|431:58|431:58|450:111|419:157,1,197.167498495731,6|0,1:0|0:0,0:0:0:0:
358,195,147786,2,0,P|322:136|366:95,1,131.444998997154,8|0,0:0|0:0,0:0:0:0:
436,289,148143,1,8,0:0:0:0:
375,332,148322,6,0,P|322:313|160:272,1,206.482497479462,4|0,1:0|0:0,0:0:0:0:
138,216,149035,5,10,0:0:0:0:
10,71,149214,1,2,0:0:0:0:
8,60,149304,1,0,0:0:0:0:
7,48,149393,2,0,B|39:32|71:64|71:64|39:48|7:64,1,110.744996620331,6|0,1:0|0:0,0:0:0:0:
54,251,149750,2,0,B|23:232|33:188|33:188|37:223|67:242,1,110.744996620331,2|0,0:0|1:0,0:0:0:0:
217,120,150107,2,0,B|217:155|174:170|174:170|202:148|202:112,1,110.744996620331,10|0,0:0|0:0,0:0:0:0:
156,70,150375,5,0,0:0:0:0:
161,60,150464,2,0,B|243:32|216:142|299:115,1,166.117494930496,2|0,1:0|0:0,0:0:0:0:
330,53,150821,1,0,0:0:0:0:
220,182,151000,1,0,1:0:0:0:
427,246,151179,6,0,P|460:217|460:160,1,88.4924989197693,10|0,0:0|0:0,0:0:0:0:
388,177,151536,6,0,B|351:287|498:250|461:361,1,221.489993240662,6|0,1:0|0:0,0:0:0:0:
461,361,152071,1,0,1:0:0:0:
205,280,152250,2,0,P|262:262|321:241,1,110.744996620331,10|0,0:0|0:0,0:0:0:0:
40,159,152607,6,0,B|31:88|31:88|35:86|35:86|40:123,1,110.744996620331,2|0,1:0|0:0,0:0:0:0:
226,174,152964,2,0,B|170:218|170:218|166:216|166:216|196:192,1,110.744996620331,2|0,0:0|1:0,0:0:0:0:
145,4,153322,2,0,B|212:27|212:27|212:31|212:31|176:19,1,110.744996620331,10|0,0:0|0:0,0:0:0:0:
396,173,153679,6,0,P|315:128|344:13,1,221.489993240662,2|0,1:0|0:0,0:0:0:0:
339,16,154214,1,0,1:0:0:0:
492,184,154393,5,8,0:0:0:0:
449,129,154571,1,0,0:0:0:0:
297,299,154750,6,0,P|245:311|179:329,1,110.744996620331,2|0,1:0|0:0,0:0:0:0:
24,168,155107,2,0,P|77:153|192:129,1,166.117494930496,2|0,0:0|0:0,0:0:0:0:
264,155,155464,6,0,P|268:112|226:83,1,88.4924989197693,10|0,0:0|0:0,0:0:0:0:
185,130,155822,6,0,P|168:232|149:330,1,197.167498495731,14|0,0:0|0:0,0:0:0:0:
209,363,156178,5,8,0:3:0:0:
412,290,156356,1,4,0:3:0:0:
377,364,156535,5,8,0:3:0:0:
306,230,156713,1,4,0:3:0:0:
471,103,156893,6,0,B|526:90|546:173|468:221|398:153|398:153|401:191|375:209,1,278.932494466976,14|0,0:0|0:0,0:0:0:0:
330,156,157606,5,2,0:0:0:0:
330,156,157964,6,0,B|307:133|261:133|238:178|238:178|216:224|170:224|147:201,1,221.489993240662,6|0,1:0|0:0,0:0:0:0:
147,201,158499,1,0,1:0:0:0:
116,60,158678,5,10,0:0:0:0:
131,130,158856,1,0,0:0:0:0:
0,292,159036,6,0,P|37:257|97:264,1,110.744996620331,2|0,1:0|0:0,0:0:0:0:
316,363,159393,2,0,P|268:338|254:286,1,110.744996620331,2|0,0:0|1:0,0:0:0:0:
233,57,159750,2,0,P|236:110|199:149,1,110.744996620331,10|0,0:0|0:0,0:0:0:0:
134,165,160018,5,0,0:0:0:0:
139,174,160107,2,0,P|202:194|324:215,1,166.117494930496,2|0,1:0|0:0,0:0:0:0:
342,153,160463,5,0,0:0:0:0:
369,222,160642,1,0,1:0:0:0:
423,86,160822,5,10,0:0:0:0:
300,212,160999,1,2,0:0:0:0:
98,98,161179,6,0,P|93:60|106:95,1,110.744996620331,2|0,1:0|0:0,0:0:0:0:
39,211,161536,2,0,P|9:186|43:203,1,110.744996620331,2|0,0:0|1:0,0:0:0:0:
86,340,161893,2,0,P|47:343|84:331,1,110.744996620331,10|0,0:0|0:0,0:0:0:0:
198,213,162249,5,2,1:0:0:0:
198,213,162606,5,0,0:0:0:0:
310,171,162785,1,0,1:0:0:0:
504,265,162964,6,0,B|513:329|513:329|504:307,1,88.4924989197693,10|0,0:0|0:0,0:0:0:0:
433,279,163321,6,0,B|321:241|358:390|247:353,1,221.489993240662,2|0,1:0|0:0,0:0:0:0:
248,353,163856,1,0,1:0:0:0:
423,184,164036,2,0,L|436:83,1,88.4924989197693,10|0,0:0|0:0,0:0:0:0:
383,45,164392,5,6,1:0:0:0:
265,83,164571,1,0,0:0:0:0:
209,34,164749,5,0,0:0:0:0:
92,5,164928,1,0,1:0:0:0:
40,140,165106,5,10,0:0:0:0:
116,101,165285,1,2,0:0:0:0:
230,260,165464,6,0,P|201:218|147:217,1,100.395002374455,2|0,1:0|0:0,0:0:0:0:
111,268,165732,1,0,0:0:0:0:
105,276,165822,2,0,P|134:318|188:319,1,100.395002374455,2|0,0:0|1:0,0:0:0:0:
250,330,166089,5,0,0:0:0:0:
251,340,166179,1,10,0:0:0:0:
439,90,166536,5,2,1:0:0:0:
47,280,167071,1,0,1:0:0:0:
42,158,167249,5,10,0:0:0:0:
150,212,167428,1,2,0:0:0:0:
285,110,167607,6,0,P|279:57|274:10,1,100.395002374455,2|0,1:0|0:0,0:0:0:0:
274,10,167964,1,2,0:0:0:0:
461,186,168143,1,0,1:0:0:0:
512,134,168322,6,0,P|448:104|373:143,1,150.592503561682,10|0,0:0|0:0,0:0:0:0:
400,203,168679,6,0,B|372:258|261:258|233:203|261:175|261:175|282:235|325:196|344:237|334:307,1,353.969995679077,6|6,1:0|1:0,0:0:0:0:
336,289,170822,5,2,1:0:0:0:
80,53,171536,6,0,L|43:47,2,27.945000682251,2|0|2,0:0|0:0|0:0,0:0:0:0:
388,263,172250,5,10,0:3:0:0:
388,270,172339,1,8,0:3:0:0:
389,278,172428,1,8,0:3:0:0:
496,109,172607,1,14,0:0:0:0:
496,109,173143,6,0,B|444:93|433:30|433:30|421:77|370:93,1,197.167498495731,6|0,1:0|0:0,0:0:0:0:
307,128,173500,2,0,B|302:93|281:68|281:68|311:56|331:27,1,131.444998997154,8|0,0:0|0:0,0:0:0:0:
192,160,173857,1,8,0:0:0:0:
246,206,174036,6,0,P|307:223|373:248,2,117.989998559692,4|0|10,1:0|0:0|0:0,0:0:0:0:
147,373,174928,1,2,0:0:0:0:
102,316,175107,2,0,P|152:289|201:305,1,110.744996620331,6|0,1:0|0:0,0:0:0:0:
81,120,175464,2,0,P|131:145|146:194,1,110.744996620331,2|0,0:0|1:0,0:0:0:0:
224,2,175821,2,0,P|232:58|200:98,1,110.744996620331,10|0,0:0|0:0,0:0:0:0:
385,241,176178,6,0,P|325:195|343:108,1,166.117494930496,2|0,1:0|0:0,0:0:0:0:
405,104,176536,1,0,0:0:0:0:
301,203,176714,1,0,1:0:0:0:
493,307,176893,6,0,P|449:319|398:337,1,88.4924989197693,10|0,0:0|0:0,0:0:0:0:
338,357,177250,6,0,P|271:325|125:284,1,221.489993240662,6|0,1:0|0:0,0:0:0:0:
129,284,177786,1,0,1:0:0:0:
237,129,177964,1,10,0:0:0:0:
237,129,178321,6,0,B|269:113|301:144|301:144|269:129|237:144,1,110.744996620331,2|0,1:0|0:0,0:0:0:0:
278,358,178678,2,0,B|247:339|257:295|257:295|261:330|291:349,1,110.744996620331,2|0,0:0|1:0,0:0:0:0:
468,199,179036,2,0,B|468:234|425:249|425:249|453:227|453:191,1,110.744996620331,10|0,0:0|0:0,0:0:0:0:
336,231,179393,5,2,1:0:0:0:
190,77,179750,5,0,0:0:0:0:
170,144,179928,1,0,1:0:0:0:
142,29,180107,5,8,0:0:0:0:
240,134,180286,1,0,0:0:0:0:
110,264,180464,6,0,P|54:251|-3:241,1,110.744996620331,2|0,1:0|0:0,0:0:0:0:
262,65,180821,2,0,P|316:75|370:87,1,110.744996620331,2|0,0:0|1:0,0:0:0:0:
429,280,181178,6,0,B|425:299|425:299|415:228,1,88.4924989197693,10|0,0:0|0:0,0:0:0:0:
496,228,181536,6,0,B|451:243|416:186|416:186|367:233|328:207,1,197.167498495731,14|0,0:0|0:0,0:0:0:0:
301,144,181893,5,8,0:3:0:0:
212,294,182071,1,4,0:3:0:0:
276,326,182250,5,8,0:3:0:0:
210,219,182428,1,4,0:3:0:0:
50,355,182607,6,0,B|11:239|165:277|127:162|127:162|128:211|88:239,1,318.779993676544,14|2,0:0|0:0,0:0:0:0:
492,29,183678,6,0,P|389:50|266:80,1,221.489993240662,6|0,1:0|0:0,0:0:0:0:
275,77,184213,1,0,1:0:0:0:
374,232,184392,5,10,0:0:0:0:
409,153,184570,1,0,0:0:0:0:
210,237,184750,6,0,P|264:260|322:289,1,110.744996620331,2|0,1:0|0:0,0:0:0:0:
201,117,185107,2,0,P|152:150|97:184,1,110.744996620331,2|0,0:0|1:0,0:0:0:0:
144,380,185464,2,0,P|135:321|128:257,1,110.744996620331,10|0,0:0|0:0,0:0:0:0:
60,251,185732,1,0,0:0:0:0:
56,257,185821,2,0,P|62:312|70:366,1,110.744996620331,6|0,1:0|0:0,0:0:0:0:
312,286,186177,5,0,0:0:0:0:
245,266,186356,1,0,1:0:0:0:
376,243,186536,5,10,0:0:0:0:
213,328,186713,1,2,0:0:0:0:
65,143,186893,6,0,B|48:95|98:56|98:56|70:98|87:145,1,166.117494930496,2|0,1:0|0:0,0:0:0:0:
145,210,187250,2,0,B|112:248|53:224|53:224|103:227|136:189,1,166.117494930496,2|0,0:0|0:0,0:0:0:0:
163,105,187607,2,0,B|212:114|221:177|221:177|198:132|149:122,1,166.117494930496,10|0,0:0|0:0,0:0:0:0:
145,210,187963,5,2,1:0:0:0:
145,210,188320,5,0,0:0:0:0:
282,291,188499,1,0,1:0:0:0:
445,134,188678,6,0,P|466:115|446:136,1,88.4924989197693,10|0,0:0|0:0,0:0:0:0:
502,146,189036,6,0,B|471:172|414:168|390:109|390:109|365:50|309:46|278:73,1,276.862491550827,2|0,1:0|0:0,0:0:0:0:
254,137,189570,1,0,1:0:0:0:
468,310,189750,6,0,P|452:285|466:310,1,88.4924989197693,10|0,0:0|0:0,0:0:0:0:
391,341,190106,5,6,1:0:0:0:
336,234,190285,1,0,0:0:0:0:
272,215,190463,5,2,0:0:0:0:
161,276,190642,1,0,1:0:0:0:
53,154,190820,5,8,0:0:0:0:
134,190,190999,1,2,0:0:0:0:
44,330,191178,6,0,P|59:281|71:224,1,100.395002374455,2|0,1:0|0:0,0:0:0:0:
55,163,191446,1,0,0:0:0:0:
53,154,191536,2,0,P|68:105|80:48,1,100.395002374455,2|0,0:0|1:0,0:0:0:0:
141,13,191803,5,0,0:0:0:0:
150,15,191893,1,10,0:0:0:0:
333,325,192250,5,2,1:0:0:0:
366,69,192785,1,0,1:0:0:0:
452,156,192963,5,8,0:0:0:0:
423,272,193142,1,2,0:0:0:0:
301,114,193321,6,0,P|251:127|200:139,1,100.395002374455,2|0,1:0|0:0,0:0:0:0:
203,138,193678,1,2,0:0:0:0:
18,64,193857,1,0,1:0:0:0:
53,11,194036,2,0,P|100:60|71:143,1,150.592503561682,10|0,0:0|0:0,0:0:0:0:
13,167,194393,5,6,1:0:0:0:
13,167,195286,5,2,0:0:0:0:
41,240,195464,2,0,P|81:253|162:235,2,117.989998559692,6|2|2,1:0|0:0|0:0,0:0:0:0:
41,240,196536,1,2,1:0:0:0:
336,311,197428,5,2,0:0:0:0:
284,265,197607,2,0,B|267:239|290:210|290:210|280:238|297:263,2,97.2899985154724,6|2|2,3:2|0:0|0:0,0:0:0:0:
462,157,198678,6,0,P|445:150|420:146,2,38.2950009349365,2|0|0,0:0|0:0|0:0,0:0:0:0:
405,74,199214,2,0,P|387:80|367:95,1,38.2950009349365
371,91,199571,1,0,0:0:0:0:
243,198,199750,2,0,P|225:189|207:183,1,38.2950009349365,2|0,0:0|0:0,0:0:0:0:
303,99,200107,2,0,P|303:118|306:137,1,38.2950009349365
194,80,200464,2,0,P|210:69|225:57,1,38.2950009349365
225,57,200821,1,2,0:0:0:0:
40,245,201714,5,0,0:0:0:0:
96,206,201893,2,0,P|104:167|112:126,2,76.5900018698731,2|0|0,0:0|0:0|0:0,0:0:0:0:
241,330,202964,6,0,P|262:326|284:324,2,38.2950009349365,2|0|0,0:0|0:0|0:0,0:0:0:0:
307,255,203500,2,0,P|324:266|342:280,1,38.2950009349365
338,277,203857,1,0,0:0:0:0:
224,249,204036,2,0,P|221:229|218:211,2,38.2950009349365,2|0|0,0:0|0:0|0:0,0:0:0:0:
224,249,204571,1,0,0:0:0:0:
57,118,204928,5,0,0:0:0:0:
93,177,205107,2,0,P|129:179|183:178,1,76.5900018698731,2|0,0:0|0:0,0:0:0:0:
232,94,205643,2,0,P|237:72|245:51,1,38.2950009349365
242,57,206000,1,0,0:0:0:0:
326,127,206178,2,0,P|319:145|315:163,1,38.2950009349365,2|0,0:0|0:0,0:0:0:0:
315,163,206536,1,0,0:0:0:0:
429,136,206714,2,0,P|434:114|442:93,1,38.2950009349365
439,99,207071,1,0,0:0:0:0:
438,256,207250,6,0,P|421:247|399:239,2,38.2950009349365,2|0|0,0:0|0:0|0:0,0:0:0:0:
351,329,207786,2,0,P|368:322|387:317,1,38.2950009349365
387,316,208143,1,0,0:0:0:0:
270,264,208321,2,0,P|278:301|256:342,3,76.5900018698731,2|0|0|0,0:0|0:0|0:0|0:0,0:0:0:0:
113,285,210286,5,0,0:0:0:0:
51,328,210464,2,0,P|34:294|38:247,3,76.5900018698731,2|0|0|0,0:0|0:0|0:0|0:0,0:0:0:0:
