osu file format v14

[General]
AudioFilename: excalibur.mp3
AudioLeadIn: 0
PreviewTime: 44812
Countdown: 0
SampleSet: Normal
StackLeniency: 0.4
Mode: 1
LetterboxInBreaks: 0
WidescreenStoryboard: 1

[Editor]
Bookmarks: 101018
DistanceSpacing: 1.4
BeatDivisor: 4
GridSize: 32
TimelineZoom: 1.9

[Metadata]
Title:Excalibur
TitleUnicode:Excαlibur
Artist:Mili
ArtistUnicode:Mili
Creator:iloveyou4ever
Version:Oni
Source:
Tags:momocashew cassie wei saihate records projectmili yamato kasai hamo millennium mother hue project english classical female vocal vocalist
BeatmapID:3670647
BeatmapSetID:1791220

[Difficulty]
HPDrainRate:6
CircleSize:4
OverallDifficulty:5.5
ApproachRate:9
SliderMultiplier:1.4
SliderTickRate:1

[Events]
//Background and Video events
0,0,"EXCALIBUR.jpg",0,-100
//Break Periods
2,161218,163241
//Storyboard Layer 0 (Background)
//Storyboard Layer 1 (Fail)
//Storyboard Layer 2 (Pass)
//Storyboard Layer 3 (Foreground)
//Storyboard Layer 4 (Overlay)
//Storyboard Sound Samples

[TimingPoints]
77,352.941176470588,4,1,0,40,1,0
77,-111.111111111111,4,1,0,40,0,0
9934,-109.098843552258,4,1,0,55,0,0
10287,-107.146683810136,4,1,0,55,0,0
10640,-105.263157894737,4,1,0,55,0,0
10816,-103.455410717981,4,1,0,55,0,0
10993,-101.698362656361,4,1,0,70,0,0
11346,-100,4,1,0,70,0,0
22728,-105.263157894737,4,1,0,65,0,0
27140,-102.564102564103,4,1,0,70,0,0
27228,-101.522842639594,4,1,0,70,0,0
27404,-99.009900990099,4,1,0,70,0,0
27757,-95.6937799043062,4,1,0,70,0,0
27934,-92.5925925925926,4,1,0,75,0,0
28287,-105.263157894737,4,1,0,65,0,0
32522,-90.9090909090909,4,1,0,70,0,0
32699,-92.1658986175115,4,1,0,70,0,0
32875,-93.4579439252336,4,1,0,70,0,0
33051,-94.7867298578199,4,1,0,70,0,0
33140,-95.9232613908873,4,1,0,70,0,0
33228,-97.0873786407767,4,1,0,70,0,0
33404,-98.5221674876847,4,1,0,70,0,0
33581,-100,4,1,0,70,0,0
33934,-105.263157894737,4,1,0,70,0,0
39581,-101.010101010101,4,1,0,75,0,0
39934,-96.6183574879227,4,1,0,75,0,0
40287,-92.5925925925926,4,1,0,75,0,0
40640,-93.984962406015,4,1,0,75,0,0
40993,-100,4,1,0,75,0,0
41346,-104.166666666667,4,1,0,75,0,0
43816,-100,4,1,0,75,0,0
43993,-99.3443274389033,4,1,0,75,0,0
44169,-98.0446946545052,4,1,0,75,0,0
44346,-96.7786266338652,4,1,0,75,0,0
44434,-96.1578219099443,4,1,0,75,0,0
44522,-95.5448396709818,4,1,0,75,0,0
44699,-94.3422037017994,4,1,0,75,0,0
44787,-93.7520801242778,4,1,0,75,0,0
44875,-93.1693800695789,4,1,0,75,0,0
44963,-92.5937928825003,4,1,0,75,0,0
45051,-92.0253585077904,4,1,0,75,0,0
45253,-90.0900900900901,4,1,0,75,0,1
55135,-90.0900900900901,4,1,0,75,0,0
55287,-91.0746812386157,4,1,0,75,0,0
55463,-93.1098696461825,4,1,0,75,0,0
55640,-94.1619585687382,4,1,0,75,0,0
55728,-95.2380952380952,4,1,0,75,0,0
55816,-96.3391136801541,4,1,0,75,0,0
55993,-98.6193293885601,4,1,0,75,0,0
56169,-99.7008973080758,4,1,0,75,0,0
56547,-90.0900900900901,4,1,0,75,0,1
66429,-91.743119266055,4,1,0,75,0,0
66581,-93.4579439252336,4,1,0,75,0,0
66934,-95.2380952380952,4,1,0,75,0,0
67287,-97.0873786407767,4,1,0,75,0,0
67463,-99.009900990099,4,1,0,75,0,0
67816,-90.0900900900901,4,1,0,75,0,0
67993,-105.263157894737,4,1,0,70,0,0
73287,-103.092783505155,4,1,0,70,0,0
73463,-101.010101010101,4,1,0,70,0,0
73816,-97.0873786407767,4,1,0,70,0,0
74169,-93.4579439252336,4,1,0,70,0,0
74522,-96.1538461538461,4,1,0,70,0,0
74875,-99.009900990099,4,1,0,70,0,0
75051,-101.010101010101,4,1,0,70,0,0
75228,-103.092783505155,4,1,0,70,0,0
75581,-105.263157894737,4,1,0,70,0,0
77522,-107.146683810136,4,1,0,70,0,0
77610,-109.098843552258,4,1,0,70,0,0
77699,-111.111111111111,4,1,0,70,0,0
78051,-116.279069767442,4,1,0,65,0,0
78404,-121.951219512195,4,1,0,60,0,0
79110,-95.2380952380952,4,1,0,75,0,0
79816,-111.111111111111,4,1,0,75,0,0
84757,-95.2380952380952,4,1,0,75,0,0
84934,-111.111111111111,4,1,0,75,0,0
88993,-105.263157894737,4,1,0,75,0,0
89699,-102.564102564103,4,1,0,55,0,0
89743,-102.564102564103,4,1,0,56,0,0
89787,-102.564102564103,4,1,0,57,0,0
89831,-102.564102564103,4,1,0,58,0,0
89875,-102.564102564103,4,1,0,59,0,0
89919,-102.564102564103,4,1,0,60,0,0
89963,-102.564102564103,4,1,0,62,0,0
90007,-102.564102564103,4,1,0,63,0,0
90051,-102.564102564103,4,1,0,64,0,0
90096,-102.564102564103,4,1,0,65,0,0
90140,-102.564102564103,4,1,0,66,0,0
90184,-102.564102564103,4,1,0,68,0,0
90228,-102.564102564103,4,1,0,69,0,0
90404,-90.9090909090909,4,1,0,70,0,0
90757,-93.8159350118255,4,1,0,70,0,0
90934,-95.3401546035947,4,1,0,70,0,0
91110,-96.9148138169512,4,1,0,70,0,0
91287,-98.5422642844403,4,1,0,70,0,0
91463,-100.225406940209,4,1,0,70,0,0
91640,-101.966942317301,4,1,0,70,0,0
91816,-86.2068965517241,4,1,0,70,0,0
92169,-90.2062204405491,4,1,0,70,0,0
92346,-92.3482971435748,4,1,0,70,0,0
92522,-94.594581811543,4,1,0,70,0,0
92699,-96.9528683021323,4,1,0,70,0,0
92875,-99.4318464295018,4,1,0,70,0,0
93051,-102.040816326531,4,1,0,70,0,0
93228,-90.9090909090909,4,1,0,70,0,0
93581,-93.8338053173741,4,1,0,70,0,0
93757,-95.3678863901443,4,1,0,70,0,0
93934,-96.9528683021323,4,1,0,70,0,0
94110,-98.5915215235151,4,1,0,70,0,0
94287,-100.286518583593,4,1,0,70,0,0
94463,-102.040816326531,4,1,0,70,0,0
94640,-86.2068965517241,4,1,0,70,0,0
94993,-89.2857142857143,4,1,0,70,0,0
95346,-92.5925925925926,4,1,0,70,0,0
95522,-95.2380952380952,4,1,0,70,0,0
95699,-98.0392156862745,4,1,0,70,0,0
96051,-88.4955752212389,4,1,0,70,0,0
96404,-90.9090909090909,4,1,0,70,0,0
96757,-93.4579439252336,4,1,0,70,0,0
97110,-96.1538461538461,4,1,0,70,0,0
97463,-90.0900900900901,4,1,0,70,0,0
97816,-92.5925925925926,4,1,0,70,0,0
98169,-95.2380952380952,4,1,0,70,0,0
98522,-98.0392156862745,4,1,0,70,0,0
98875,-91.743119266055,4,1,0,70,0,0
99581,-95.6937799043062,4,1,0,70,0,0
100110,-94.3396226415094,4,1,0,70,0,0
100199,-93.0232558139535,4,1,0,70,0,0
100287,-91.743119266055,4,1,0,70,0,0
100640,-88.1057268722467,4,1,0,70,0,0
100993,-84.7457627118644,4,1,0,70,0,0
101724,-87.719298245614,4,1,0,82,0,1
113018,-102.040816326531,4,1,0,50,0,0
113522,-105.263157894737,4,1,0,50,0,0
114051,-108.695652173913,4,1,0,50,0,0
114404,-111.111111111111,4,1,0,50,0,0
117934,-108.108108108108,4,1,0,50,0,0
118640,-105.263157894737,4,1,0,50,0,0
119875,-103.896103896104,4,1,0,50,0,0
120051,-102.564102564103,4,1,0,50,0,0
121463,-100.502512562814,4,1,0,53,0,0
121640,-98.5221674876847,4,1,0,56,0,0
121816,-96.6183574879227,4,1,0,59,0,0
121993,-95.2380952380952,4,1,0,62,0,0
122346,-92.1658986175115,4,1,0,66,0,0
122522,-90.4977375565611,4,1,0,70,0,0
122699,-88.8888888888889,4,1,0,70,0,0
123493,-88.8888888888889,4,1,0,40,0,0
124110,-108.695652173913,4,1,0,40,0,0
129757,-107.52688172043,4,1,0,50,0,0
129846,-106.382978723404,4,1,0,50,0,0
129934,-105.263157894737,4,1,0,50,0,0
134169,-102.040816326531,4,1,0,65,0,0
134346,-100.502512562814,4,1,0,65,0,0
134522,-99.009900990099,4,1,0,65,0,0
134699,-97.5609756097561,4,1,0,65,0,0
134875,-96.1538461538461,4,1,0,65,0,0
135228,-93.4579439252336,4,1,0,65,0,0
135606,-90.0900900900901,4,1,0,75,0,1
145488,-90.0900900900901,4,1,0,75,0,0
145640,-91.0746812386157,4,1,0,75,0,0
145728,-92.0810313075506,4,1,0,75,0,0
145816,-93.1098696461825,4,1,0,75,0,0
145993,-95.2380952380952,4,1,0,75,0,0
146081,-96.3391136801541,4,1,0,75,0,0
146169,-97.4658869395711,4,1,0,75,0,0
146346,-98.9119683481701,4,1,0,75,0,0
146522,-100.401606425703,4,1,0,75,0,0
146900,-90.0900900900901,4,1,0,75,0,1
158194,-80,4,1,0,75,0,0
158346,-80,4,1,0,75,0,0
158434,-80,4,1,0,74,0,0
158522,-80,4,1,0,73,0,0
158610,-80,4,1,0,72,0,0
158699,-80,4,1,0,72,0,0
158787,-80,4,1,0,71,0,0
158875,-80,4,1,0,70,0,0
158963,-80,4,1,0,69,0,0
159051,-80,4,1,0,68,0,0
159140,-80,4,1,0,68,0,0
159228,-80,4,1,0,67,0,0
159316,-80,4,1,0,66,0,0
159404,-80,4,1,0,65,0,0
159493,-80,4,1,0,64,0,0
159581,-90.9090909090909,4,1,0,63,0,0
159669,-90.9090909090909,4,1,0,62,0,0
159757,-90.9090909090909,4,1,0,62,0,0
159846,-90.9090909090909,4,1,0,61,0,0
159934,-90.9090909090909,4,1,0,60,0,0
160022,-90.9090909090909,4,1,0,59,0,0
160110,-90.9090909090909,4,1,0,58,0,0
160199,-90.9090909090909,4,1,0,58,0,0
160287,-90.9090909090909,4,1,0,57,0,0
160375,-90.9090909090909,4,1,0,56,0,0
160463,-90.9090909090909,4,1,0,55,0,0
160551,-90.9090909090909,4,1,0,54,0,0
160640,-90.9090909090909,4,1,0,53,0,0
160728,-90.9090909090909,4,1,0,52,0,0
160816,-90.9090909090909,4,1,0,52,0,0
160904,-90.9090909090909,4,1,0,51,0,0
160993,-105.263157894737,4,1,0,50,0,0
163816,-111.111111111111,4,1,0,50,0,0
168757,-114.942528735632,4,1,0,47,0,0
169463,-119.047619047619,4,1,0,45,0,0
169816,-120.627261761158,4,1,0,40,0,0
170169,-122.249388753056,4,1,0,40,0,0
170522,-123.915737298637,4,1,0,40,0,0
170875,-125.628140703518,4,1,0,40,0,0
171228,-127.388535031847,4,1,0,40,0,0
171581,-129.198966408269,4,1,0,40,0,0
171934,-131.061598951507,4,1,0,40,0,0
172287,-132.978723404255,4,1,0,40,0,0

[Colours]
Combo1 : 121,255,121
Combo2 : 198,255,121

[HitObjects]
383,173,77,5,0,0:0:0:0:
383,173,429,1,0,0:0:0:0:
432,180,606,1,8,0:0:0:0:
405,167,959,1,0,0:0:0:0:
406,168,1135,1,0,0:0:0:0:
363,197,1312,1,8,0:0:0:0:
465,202,1665,1,0,0:0:0:0:
465,202,1841,1,0,0:0:0:0:
387,184,2018,1,8,0:0:0:0:
372,181,2371,1,0,0:0:0:0:
376,188,2547,1,8,0:0:0:0:
395,255,2900,1,0,0:0:0:0:
387,179,3253,1,0,0:0:0:0:
393,187,3429,1,8,0:0:0:0:
391,181,3782,1,0,0:0:0:0:
425,190,3959,1,0,0:0:0:0:
387,179,4135,1,8,0:0:0:0:
447,202,4488,1,0,0:0:0:0:
402,175,4665,1,0,0:0:0:0:
410,186,4841,1,8,0:0:0:0:
424,206,5194,1,0,0:0:0:0:
390,178,5371,1,8,0:0:0:0:
394,178,5724,1,8,0:0:0:0:
408,186,6076,1,0,0:0:0:0:
420,187,6253,1,8,0:0:0:0:
448,266,6606,1,0,0:0:0:0:
443,209,6782,1,8,0:0:0:0:
437,224,6959,1,8,0:0:0:0:
448,266,7312,1,0,0:0:0:0:
443,209,7488,1,8,0:0:0:0:
425,183,7665,1,8,0:0:0:0:
450,209,8018,1,0,0:0:0:0:
433,191,8194,1,8,0:0:0:0:
419,257,8547,1,0,0:0:0:0:
486,175,8900,1,0,0:0:0:0:
416,192,9076,1,8,0:0:0:0:
448,224,9429,1,0,0:0:0:0:
448,224,9606,1,0,0:0:0:0:
416,192,9782,1,8,0:0:0:0:
448,192,9959,1,0,0:0:0:0:
448,224,10312,1,0,0:0:0:0:
448,224,10665,1,0,0:0:0:0:
448,224,10841,1,0,0:0:0:0:
320,192,11018,1,8,0:0:0:0:
384,192,11371,1,4,0:0:0:0:
352,224,11635,1,0,0:0:0:0:
320,160,11724,1,0,0:0:0:0:
352,192,11900,1,8,0:0:0:0:
416,192,12076,1,0,0:0:0:0:
416,160,12429,1,8,0:0:0:0:
384,160,12606,1,8,0:0:0:0:
384,160,12782,1,0,0:0:0:0:
352,192,13047,1,8,0:0:0:0:
352,160,13135,1,0,0:0:0:0:
416,192,13312,1,8,0:0:0:0:
417,203,13488,1,0,0:0:0:0:
416,192,13665,1,0,0:0:0:0:
416,192,13841,1,8,0:0:0:0:
448,256,14194,1,0,0:0:0:0:
416,288,14459,1,0,0:0:0:0:
448,192,14547,1,0,0:0:0:0:
416,192,14724,1,8,0:0:0:0:
416,192,14900,1,0,0:0:0:0:
384,192,15253,1,0,0:0:0:0:
416,192,15429,1,8,0:0:0:0:
384,192,15606,1,0,0:0:0:0:
416,288,15871,1,0,0:0:0:0:
416,192,15959,1,8,0:0:0:0:
384,192,16135,1,8,0:0:0:0:
416,288,16400,1,8,0:0:0:0:
416,192,16488,1,0,0:0:0:0:
416,192,16665,1,8,0:0:0:0:
448,192,17018,1,12,0:0:0:0:
394,193,17282,1,0,0:0:0:0:
352,160,17371,1,0,0:0:0:0:
352,192,17547,1,8,0:0:0:0:
416,192,17724,1,0,0:0:0:0:
384,192,18076,1,0,0:0:0:0:
384,192,18253,1,8,0:0:0:0:
416,192,18429,1,0,0:0:0:0:
384,192,18694,1,8,0:0:0:0:
416,192,18782,1,0,0:0:0:0:
416,192,18959,1,8,0:0:0:0:
351,189,19135,1,0,0:0:0:0:
416,192,19312,1,0,0:0:0:0:
416,192,19488,1,8,0:0:0:0:
416,192,19841,1,0,0:0:0:0:
437,264,20106,1,0,0:0:0:0:
416,192,20194,1,0,0:0:0:0:
384,192,20371,1,8,0:0:0:0:
448,192,20547,1,0,0:0:0:0:
384,192,20724,1,8,0:0:0:0:
372,229,20812,1,8,0:0:0:0:
363,184,20900,1,0,0:0:0:0:
416,192,21076,1,12,0:0:0:0:
448,224,21429,1,0,0:0:0:0:
448,224,21606,1,0,0:0:0:0:
448,224,21782,1,12,0:0:0:0:
416,192,22135,1,0,0:0:0:0:
416,192,22312,1,8,0:0:0:0:
416,224,22665,1,4,0:0:0:0:
450,227,22929,1,0,0:0:0:0:
368,183,23018,1,8,0:0:0:0:
399,180,23194,1,0,0:0:0:0:
358,162,23724,1,8,0:0:0:0:
400,194,24076,1,8,0:0:0:0:
412,181,24341,1,0,0:0:0:0:
378,178,24429,1,8,0:0:0:0:
410,186,24606,1,0,0:0:0:0:
425,172,25135,1,8,0:0:0:0:
424,167,25488,1,0,0:0:0:0:
413,177,25753,1,0,0:0:0:0:
377,206,25841,1,8,0:0:0:0:
389,187,26018,1,8,0:0:0:0:
412,304,26547,1,0,0:0:0:0:
402,177,26724,1,8,0:0:0:0:
402,177,26812,1,8,0:0:0:0:
344,184,26900,1,0,0:0:0:0:
373,215,27165,1,0,0:0:0:0:
401,195,27253,1,8,0:0:0:0:
404,247,27429,1,0,0:0:0:0:
359,171,27782,1,8,0:0:0:0:
406,171,27959,1,4,0:0:0:0:
402,184,28312,1,8,0:0:0:0:
388,175,28576,1,0,0:0:0:0:
399,182,28665,1,8,0:0:0:0:
380,158,28841,1,0,0:0:0:0:
369,165,29371,1,8,0:0:0:0:
408,160,29724,1,8,0:0:0:0:
409,186,29988,1,0,0:0:0:0:
379,177,30076,1,8,0:0:0:0:
428,178,30253,1,0,0:0:0:0:
479,173,30782,1,8,0:0:0:0:
465,173,30959,1,8,0:0:0:0:
350,193,31047,1,8,0:0:0:0:
420,173,31135,1,0,0:0:0:0:
454,193,31400,1,0,0:0:0:0:
416,160,31488,1,8,0:0:0:0:
448,192,31665,1,0,0:0:0:0:
454,193,32018,1,0,0:0:0:0:
416,192,32194,1,8,0:0:0:0:
448,192,32547,1,8,0:0:0:0:
448,192,32724,1,0,0:0:0:0:
448,192,32900,1,8,0:0:0:0:
416,192,33076,1,0,0:0:0:0:
416,192,33165,1,0,0:0:0:0:
416,192,33253,1,0,0:0:0:0:
416,192,33429,1,0,0:0:0:0:
416,192,33606,1,8,0:0:0:0:
416,160,33959,1,4,0:0:0:0:
384,192,34665,1,8,0:0:0:0:
448,192,35018,1,0,0:0:0:0:
448,192,35371,1,0,0:0:0:0:
416,192,36076,1,8,0:0:0:0:
416,192,36429,1,0,0:0:0:0:
416,192,36606,1,8,0:0:0:0:
416,192,36782,1,8,0:0:0:0:
384,160,37312,1,8,0:0:0:0:
352,160,37488,1,0,0:0:0:0:
416,192,37841,1,8,0:0:0:0:
480,224,38194,1,0,0:0:0:0:
448,192,38900,1,8,0:0:0:0:
384,192,39606,1,4,0:0:0:0:
416,192,39959,1,8,0:0:0:0:
416,192,40312,1,8,0:0:0:0:
448,192,40665,1,0,0:0:0:0:
448,256,41018,1,0,0:0:0:0:
416,192,41724,1,8,0:0:0:0:
448,224,42076,1,8,0:0:0:0:
448,224,42253,1,8,0:0:0:0:
416,192,42429,1,0,0:0:0:0:
400,188,42959,1,8,0:0:0:0:
428,171,43135,1,0,0:0:0:0:
443,179,43488,1,0,0:0:0:0:
393,250,43841,1,12,0:0:0:0:
448,224,44018,1,0,0:0:0:0:
420,262,44194,1,0,0:0:0:0:
403,283,44371,1,0,0:0:0:0:
393,250,44459,1,0,0:0:0:0:
416,160,44547,1,8,0:0:0:0:
416,160,44724,1,8,0:0:0:0:
438,265,44812,1,8,0:0:0:0:
384,192,44900,1,8,0:0:0:0:
416,160,44988,1,8,0:0:0:0:
416,160,45076,1,8,0:0:0:0:
384,160,45253,1,4,0:0:0:0:
441,193,45518,1,0,0:0:0:0:
416,192,45606,1,8,0:0:0:0:
384,192,45782,1,0,0:0:0:0:
416,192,45959,1,8,0:0:0:0:
416,192,46047,1,8,0:0:0:0:
416,192,46135,1,0,0:0:0:0:
384,160,46312,1,8,0:0:0:0:
372,181,46488,1,8,0:0:0:0:
416,160,46665,1,0,0:0:0:0:
384,288,46929,1,0,0:0:0:0:
384,160,47018,1,8,0:0:0:0:
437,183,47194,1,8,0:0:0:0:
384,176,47371,1,0,0:0:0:0:
416,160,47547,1,0,0:0:0:0:
416,160,47635,1,0,0:0:0:0:
352,160,47724,1,8,0:0:0:0:
384,192,47900,1,8,0:0:0:0:
384,160,48076,1,0,0:0:0:0:
383,211,48341,1,0,0:0:0:0:
416,192,48429,1,8,0:0:0:0:
416,160,48606,1,0,0:0:0:0:
448,160,48782,1,8,0:0:0:0:
416,160,48959,1,8,0:0:0:0:
403,168,49047,1,8,0:0:0:0:
448,160,49135,1,0,0:0:0:0:
412,165,49312,1,0,0:0:0:0:
406,175,49488,1,8,0:0:0:0:
384,192,49753,1,8,0:0:0:0:
384,192,49841,1,0,0:0:0:0:
416,192,50018,1,8,0:0:0:0:
416,192,50194,1,0,0:0:0:0:
416,192,50282,1,8,0:0:0:0:
416,160,50371,1,0,0:0:0:0:
416,160,50547,1,8,0:0:0:0:
416,192,50900,1,4,0:0:0:0:
448,192,51165,1,0,0:0:0:0:
416,192,51253,1,8,0:0:0:0:
384,192,51429,1,0,0:0:0:0:
416,192,51606,1,8,0:0:0:0:
320,192,51782,1,0,0:0:0:0:
395,194,51871,1,0,0:0:0:0:
384,192,51959,1,8,0:0:0:0:
352,192,52135,1,8,0:0:0:0:
416,192,52312,1,0,0:0:0:0:
384,256,52576,1,0,0:0:0:0:
416,192,52665,1,8,0:0:0:0:
384,192,52841,1,0,0:0:0:0:
416,192,53018,1,8,0:0:0:0:
416,192,53106,1,8,0:0:0:0:
384,160,53194,1,0,0:0:0:0:
448,192,53371,1,8,0:0:0:0:
448,224,53547,1,0,0:0:0:0:
416,160,53635,1,8,0:0:0:0:
384,192,53724,1,0,0:0:0:0:
350,188,53988,1,0,0:0:0:0:
448,192,54076,1,8,0:0:0:0:
416,160,54253,1,0,0:0:0:0:
416,192,54429,1,8,0:0:0:0:
416,160,54518,1,0,0:0:0:0:
416,160,54606,1,0,0:0:0:0:
416,160,54694,1,0,0:0:0:0:
416,160,54782,1,8,0:0:0:0:
416,160,54959,1,8,0:0:0:0:
407,188,55135,1,4,0:0:0:0:
432,191,55312,1,0,0:0:0:0:
399,168,55488,1,8,0:0:0:0:
412,181,55665,1,8,0:0:0:0:
413,182,55753,1,0,0:0:0:0:
422,174,55841,1,8,0:0:0:0:
407,231,56018,1,8,0:0:0:0:
370,222,56194,1,0,0:0:0:0:
384,192,56547,1,12,0:0:0:0:
384,160,56812,1,0,0:0:0:0:
416,192,56900,1,8,0:0:0:0:
416,160,57076,1,0,0:0:0:0:
416,192,57165,1,0,0:0:0:0:
384,160,57253,1,8,0:0:0:0:
384,224,57429,1,0,0:0:0:0:
416,160,57606,1,8,0:0:0:0:
416,160,57694,1,8,0:0:0:0:
384,192,57782,1,0,0:0:0:0:
384,192,57871,1,0,0:0:0:0:
384,192,57959,1,8,0:0:0:0:
384,192,58224,1,0,0:0:0:0:
384,192,58312,1,8,0:0:0:0:
448,160,58488,1,0,0:0:0:0:
448,160,58665,1,8,0:0:0:0:
416,192,58753,1,8,0:0:0:0:
416,160,58841,1,0,0:0:0:0:
448,160,59018,1,8,0:0:0:0:
448,160,59194,1,0,0:0:0:0:
448,192,59282,1,8,0:0:0:0:
448,160,59371,1,0,0:0:0:0:
373,210,59635,1,0,0:0:0:0:
459,190,59724,1,8,0:0:0:0:
448,160,59900,1,0,0:0:0:0:
416,160,60076,1,8,0:0:0:0:
384,182,60253,1,8,0:0:0:0:
448,160,60341,1,8,0:0:0:0:
444,179,60429,1,0,0:0:0:0:
431,190,60606,1,0,0:0:0:0:
447,165,60782,1,8,0:0:0:0:
391,175,61047,1,8,0:0:0:0:
448,178,61135,1,8,0:0:0:0:
423,170,61312,1,0,0:0:0:0:
449,172,61488,1,8,0:0:0:0:
448,172,61576,1,8,0:0:0:0:
445,183,61665,1,0,0:0:0:0:
434,182,61841,1,8,0:0:0:0:
394,169,62194,1,4,0:0:0:0:
449,204,62459,1,0,0:0:0:0:
408,175,62547,1,8,0:0:0:0:
429,180,62724,1,0,0:0:0:0:
447,182,62900,1,8,0:0:0:0:
433,184,62988,1,0,0:0:0:0:
454,180,63076,1,0,0:0:0:0:
415,167,63253,1,8,0:0:0:0:
440,188,63429,1,8,0:0:0:0:
422,194,63606,1,0,0:0:0:0:
461,208,63871,1,0,0:0:0:0:
424,187,63959,1,8,0:0:0:0:
452,179,64135,1,0,0:0:0:0:
430,181,64312,1,8,0:0:0:0:
429,181,64400,1,8,0:0:0:0:
409,180,64488,1,0,0:0:0:0:
436,178,64665,1,8,0:0:0:0:
424,187,64841,1,0,0:0:0:0:
424,187,64929,1,8,0:0:0:0:
414,186,65018,1,0,0:0:0:0:
381,186,65282,1,0,0:0:0:0:
398,179,65371,1,8,0:0:0:0:
388,178,65547,1,8,0:0:0:0:
349,175,65724,1,0,0:0:0:0:
409,178,65900,1,0,0:0:0:0:
353,228,65988,1,0,0:0:0:0:
414,174,66076,1,8,0:0:0:0:
397,211,66253,1,8,0:0:0:0:
371,223,66429,1,0,0:0:0:0:
429,183,66606,1,0,0:0:0:0:
402,174,66959,1,8,0:0:0:0:
446,172,67312,1,0,0:0:0:0:
419,189,67488,1,8,0:0:0:0:
384,160,67841,1,12,0:0:0:0:
384,160,68547,1,8,0:0:0:0:
416,160,68900,1,0,0:0:0:0:
416,192,69253,1,8,0:0:0:0:
416,160,69959,1,8,0:0:0:0:
416,160,70665,1,0,0:0:0:0:
416,192,71018,1,0,0:0:0:0:
416,192,71371,1,8,0:0:0:0:
416,192,71724,1,0,0:0:0:0:
416,192,72076,1,0,0:0:0:0:
448,192,72606,1,8,0:0:0:0:
384,192,72782,1,0,0:0:0:0:
480,192,73312,1,0,0:0:0:0:
416,192,73488,1,12,0:0:0:0:
384,224,73841,1,8,0:0:0:0:
384,224,74194,1,8,0:0:0:0:
384,192,74547,1,0,0:0:0:0:
416,224,74900,1,0,0:0:0:0:
416,192,75076,1,8,0:0:0:0:
416,192,75253,1,0,0:0:0:0:
384,192,75606,1,8,0:0:0:0:
288,224,75959,1,0,0:0:0:0:
384,192,76312,1,8,0:0:0:0:
416,192,76665,1,0,0:0:0:0:
416,192,77018,1,8,0:0:0:0:
480,192,77371,1,0,0:0:0:0:
441,192,77547,1,8,0:0:0:0:
439,192,77635,1,8,0:0:0:0:
448,192,77724,1,8,0:0:0:0:
416,224,78076,1,8,0:0:0:0:
448,256,78429,1,0,0:0:0:0:
384,192,79135,1,12,0:0:0:0:
416,192,80194,1,0,0:0:0:0:
416,160,80547,1,8,0:0:0:0:
416,160,81253,1,0,0:0:0:0:
448,160,81606,1,8,0:0:0:0:
448,160,81959,1,8,0:0:0:0:
448,160,83018,1,0,0:0:0:0:
448,192,83371,1,8,0:0:0:0:
384,192,84076,1,8,0:0:0:0:
416,192,84429,1,8,0:0:0:0:
416,160,84782,1,4,0:0:0:0:
416,192,85312,1,8,0:0:0:0:
448,160,85841,1,0,0:0:0:0:
416,192,86194,1,8,0:0:0:0:
448,224,87253,1,8,0:0:0:0:
352,192,87606,1,8,0:0:0:0:
320,160,89018,1,0,0:0:0:0:
256,192,89724,12,0,90253,0:0:0:0:
416,224,90429,5,12,0:0:0:0:
416,192,90782,1,8,0:0:0:0:
416,192,90959,1,8,0:0:0:0:
416,160,91135,1,0,0:0:0:0:
416,160,91312,1,0,0:0:0:0:
416,160,91488,1,0,0:0:0:0:
416,160,91665,1,0,0:0:0:0:
384,160,91841,1,12,0:0:0:0:
416,192,92194,1,8,0:0:0:0:
416,192,92371,1,8,0:0:0:0:
416,192,92547,1,0,0:0:0:0:
416,192,92724,1,0,0:0:0:0:
448,160,92900,1,8,0:0:0:0:
448,160,93076,1,8,0:0:0:0:
416,160,93253,1,4,0:0:0:0:
448,192,93606,1,0,0:0:0:0:
448,192,93782,1,0,0:0:0:0:
448,192,93959,1,8,0:0:0:0:
448,192,94135,1,8,0:0:0:0:
416,192,94312,1,0,0:0:0:0:
416,192,94488,1,0,0:0:0:0:
416,192,94665,1,12,0:0:0:0:
416,192,95018,1,0,0:0:0:0:
416,192,95371,1,0,0:0:0:0:
416,160,95547,1,8,0:0:0:0:
416,160,95724,1,8,0:0:0:0:
448,128,96076,1,4,0:0:0:0:
416,192,96429,1,8,0:0:0:0:
416,160,96782,1,8,0:0:0:0:
416,160,97135,1,0,0:0:0:0:
384,160,97488,1,4,0:0:0:0:
448,192,97841,1,8,0:0:0:0:
416,192,98194,1,8,0:0:0:0:
416,192,98547,1,0,0:0:0:0:
448,192,98900,1,12,0:0:0:0:
448,224,99606,1,0,0:0:0:0:
384,160,100135,1,8,0:0:0:0:
384,160,100224,1,8,0:0:0:0:
448,160,100312,1,4,0:0:0:0:
384,160,100665,1,0,0:0:0:0:
416,160,101018,1,8,0:0:0:0:
416,192,101724,1,12,0:0:0:0:
432,230,101900,1,0,0:0:0:0:
448,192,102253,1,0,0:0:0:0:
448,160,102429,1,12,0:0:0:0:
397,182,102606,1,8,0:0:0:0:
412,183,102959,1,8,0:0:0:0:
425,194,103135,1,4,0:0:0:0:
397,182,103312,1,8,0:0:0:0:
416,192,103665,1,0,0:0:0:0:
401,191,103841,1,12,0:0:0:0:
448,160,104194,1,8,0:0:0:0:
381,206,104547,1,4,0:0:0:0:
410,175,104724,1,8,0:0:0:0:
416,160,105076,1,8,0:0:0:0:
361,195,105253,1,4,0:0:0:0:
354,186,105429,1,8,0:0:0:0:
411,195,105782,1,0,0:0:0:0:
431,180,105959,1,12,0:0:0:0:
393,189,106135,1,0,0:0:0:0:
384,160,106488,1,8,0:0:0:0:
384,160,106665,1,4,0:0:0:0:
384,160,106841,1,8,0:0:0:0:
416,160,107018,1,0,0:0:0:0:
416,160,107371,1,12,0:0:0:0:
440,190,107547,1,0,0:0:0:0:
448,160,107900,1,0,0:0:0:0:
384,160,108076,1,12,0:0:0:0:
411,183,108253,1,0,0:0:0:0:
394,172,108606,1,8,0:0:0:0:
355,198,108782,1,12,0:0:0:0:
397,210,108959,1,0,0:0:0:0:
388,181,109312,1,8,0:0:0:0:
388,176,109488,1,4,0:0:0:0:
437,168,109841,1,8,0:0:0:0:
388,179,110194,1,4,0:0:0:0:
401,173,110371,1,8,0:0:0:0:
379,161,110724,1,8,0:0:0:0:
425,168,110900,1,4,0:0:0:0:
426,190,111076,1,0,0:0:0:0:
353,198,111253,1,8,0:0:0:0:
369,190,111606,1,4,0:0:0:0:
419,191,111959,1,0,0:0:0:0:
416,192,112312,1,12,0:0:0:0:
384,160,112488,1,0,0:0:0:0:
384,192,112665,1,8,0:0:0:0:
416,164,113018,1,0,0:0:0:0:
391,168,113547,1,8,0:0:0:0:
410,183,114076,1,8,0:0:0:0:
410,182,114429,1,0,0:0:0:0:
410,189,115488,1,0,0:0:0:0:
377,183,115841,1,8,0:0:0:0:
423,161,116194,1,0,0:0:0:0:
377,183,116371,1,8,0:0:0:0:
388,181,116724,1,8,0:0:0:0:
416,179,116900,1,0,0:0:0:0:
397,188,117253,1,8,0:0:0:0:
451,173,117959,1,8,0:0:0:0:
404,187,118665,1,0,0:0:0:0:
416,179,119018,1,0,0:0:0:0:
418,185,119371,1,8,0:0:0:0:
425,256,119724,1,0,0:0:0:0:
419,182,119900,1,8,0:0:0:0:
402,182,120076,1,0,0:0:0:0:
412,188,120429,1,0,0:0:0:0:
384,192,120782,1,8,0:0:0:0:
416,192,120959,1,0,0:0:0:0:
442,201,121135,1,8,0:0:0:0:
416,224,121488,1,0,0:0:0:0:
358,224,121665,1,0,0:0:0:0:
384,192,121841,1,0,0:0:0:0:
416,192,122018,1,8,0:0:0:0:
384,192,122371,1,0,0:0:0:0:
384,192,122547,1,8,0:0:0:0:
192,224,122724,2,4,L|352:160,1,157.500006008148
416,192,123606,1,8,0:0:0:0:
422,179,124135,1,0,0:0:0:0:
416,224,124224,1,0,0:0:0:0:
416,160,124312,1,8,0:0:0:0:
413,211,124665,1,8,0:0:0:0:
416,192,124841,1,0,0:0:0:0:
384,192,125018,1,8,0:0:0:0:
408,174,125547,1,8,0:0:0:0:
415,176,125635,1,0,0:0:0:0:
459,176,125724,1,8,0:0:0:0:
448,192,126076,1,0,0:0:0:0:
438,259,126253,1,0,0:0:0:0:
416,192,126429,1,8,0:0:0:0:
448,192,126959,1,8,0:0:0:0:
448,192,127047,1,8,0:0:0:0:
448,192,127135,1,8,0:0:0:0:
416,192,127488,1,0,0:0:0:0:
416,224,127665,1,8,0:0:0:0:
416,192,127841,1,0,0:0:0:0:
394,214,128018,1,8,0:0:0:0:
416,192,128194,1,8,0:0:0:0:
448,192,128371,1,8,0:0:0:0:
448,192,128547,1,0,0:0:0:0:
379,190,128900,1,0,0:0:0:0:
384,192,129076,1,8,0:0:0:0:
480,192,129782,1,0,0:0:0:0:
480,192,129871,1,0,0:0:0:0:
416,192,129959,1,8,0:0:0:0:
448,192,130312,1,0,0:0:0:0:
416,192,130665,1,8,0:0:0:0:
416,192,131018,1,8,0:0:0:0:
384,192,131371,1,0,0:0:0:0:
352,160,132076,1,0,0:0:0:0:
384,160,132429,1,8,0:0:0:0:
384,160,132782,1,0,0:0:0:0:
448,224,133488,1,8,0:0:0:0:
384,192,133841,1,8,0:0:0:0:
384,192,134194,1,0,0:0:0:0:
384,160,134371,1,8,0:0:0:0:
415,284,134547,1,0,0:0:0:0:
363,271,134724,1,0,0:0:0:0:
384,192,134900,1,8,0:0:0:0:
352,160,135253,1,0,0:0:0:0:
448,160,135606,1,12,0:0:0:0:
448,192,135959,1,0,0:0:0:0:
448,192,136135,1,8,0:0:0:0:
416,192,136224,1,0,0:0:0:0:
448,192,136312,1,8,0:0:0:0:
416,192,136488,1,0,0:0:0:0:
416,160,136665,1,8,0:0:0:0:
420,181,136753,1,8,0:0:0:0:
433,181,136841,1,0,0:0:0:0:
448,160,136929,1,0,0:0:0:0:
448,192,137018,1,8,0:0:0:0:
443,215,137371,1,0,0:0:0:0:
384,160,137547,1,0,0:0:0:0:
384,160,137635,1,0,0:0:0:0:
416,192,137724,1,8,0:0:0:0:
378,179,137900,1,0,0:0:0:0:
416,192,138076,1,8,0:0:0:0:
398,182,138253,1,8,0:0:0:0:
406,180,138429,1,0,0:0:0:0:
416,192,138782,1,8,0:0:0:0:
382,185,138959,1,0,0:0:0:0:
416,192,139135,1,8,0:0:0:0:
413,272,139224,1,0,0:0:0:0:
448,192,139312,1,0,0:0:0:0:
448,192,139400,1,0,0:0:0:0:
416,192,139488,1,8,0:0:0:0:
416,256,139665,1,0,0:0:0:0:
480,160,139841,1,8,0:0:0:0:
451,238,140018,1,0,0:0:0:0:
389,189,140106,1,8,0:0:0:0:
416,192,140194,1,8,0:0:0:0:
416,192,140371,1,0,0:0:0:0:
416,160,140547,1,8,0:0:0:0:
405,175,140635,1,0,0:0:0:0:
391,190,140724,1,0,0:0:0:0:
384,192,140900,1,8,0:0:0:0:
384,192,140988,1,8,0:0:0:0:
384,192,141076,1,8,0:0:0:0:
448,160,141165,1,8,0:0:0:0:
416,160,141253,1,4,0:0:0:0:
384,192,141518,1,0,0:0:0:0:
416,160,141606,1,8,0:0:0:0:
416,160,141782,1,0,0:0:0:0:
416,160,141959,1,8,0:0:0:0:
384,160,142047,1,8,0:0:0:0:
384,160,142135,1,0,0:0:0:0:
416,192,142312,1,8,0:0:0:0:
416,160,142488,1,8,0:0:0:0:
416,160,142665,1,0,0:0:0:0:
384,160,142929,1,0,0:0:0:0:
416,160,143018,1,8,0:0:0:0:
416,160,143194,1,0,0:0:0:0:
384,160,143371,1,8,0:0:0:0:
416,160,143459,1,0,0:0:0:0:
416,160,143547,1,0,0:0:0:0:
416,160,143635,1,0,0:0:0:0:
416,160,143724,1,8,0:0:0:0:
384,192,143900,1,8,0:0:0:0:
416,160,144076,1,0,0:0:0:0:
416,192,144341,1,0,0:0:0:0:
384,160,144429,1,8,0:0:0:0:
345,178,144606,1,8,0:0:0:0:
448,192,144782,1,0,0:0:0:0:
384,192,144959,1,0,0:0:0:0:
384,192,145047,1,0,0:0:0:0:
352,192,145135,1,8,0:0:0:0:
416,224,145312,1,8,0:0:0:0:
352,192,145488,1,4,0:0:0:0:
448,192,145665,1,8,0:0:0:0:
448,192,145753,1,8,0:0:0:0:
448,192,145841,1,0,0:0:0:0:
448,192,146018,1,8,0:0:0:0:
384,192,146106,1,0,0:0:0:0:
416,192,146194,1,8,0:0:0:0:
416,192,146371,1,0,0:0:0:0:
416,192,146547,1,8,0:0:0:0:
384,224,146900,1,4,0:0:0:0:
448,192,147165,1,0,0:0:0:0:
384,192,147253,1,8,0:0:0:0:
392,217,147429,1,0,0:0:0:0:
384,192,147606,1,8,0:0:0:0:
384,192,147694,1,8,0:0:0:0:
416,192,147782,1,0,0:0:0:0:
384,192,147871,1,0,0:0:0:0:
448,160,147959,1,8,0:0:0:0:
416,160,148135,1,8,0:0:0:0:
448,192,148312,1,0,0:0:0:0:
394,235,148576,1,0,0:0:0:0:
384,192,148665,1,8,0:0:0:0:
352,192,148841,1,0,0:0:0:0:
352,192,148929,1,0,0:0:0:0:
416,160,149018,1,8,0:0:0:0:
361,188,149194,1,0,0:0:0:0:
416,160,149371,1,8,0:0:0:0:
448,192,149547,1,8,0:0:0:0:
384,192,149635,1,8,0:0:0:0:
384,192,149724,1,0,0:0:0:0:
448,192,149900,1,0,0:0:0:0:
448,192,150076,1,8,0:0:0:0:
386,188,150165,1,0,0:0:0:0:
448,192,150253,1,0,0:0:0:0:
384,192,150341,1,0,0:0:0:0:
416,192,150429,1,8,0:0:0:0:
416,192,150606,1,0,0:0:0:0:
384,160,150782,1,8,0:0:0:0:
448,192,150959,1,8,0:0:0:0:
395,190,151047,1,8,0:0:0:0:
384,160,151135,1,0,0:0:0:0:
384,224,151400,1,0,0:0:0:0:
384,192,151488,1,8,0:0:0:0:
416,192,151665,1,0,0:0:0:0:
416,192,151841,1,8,0:0:0:0:
384,160,151929,1,0,0:0:0:0:
416,192,152018,1,8,0:0:0:0:
384,192,152194,1,0,0:0:0:0:
416,160,152547,1,12,0:0:0:0:
448,192,152812,1,0,0:0:0:0:
416,192,152900,1,8,0:0:0:0:
416,192,153076,1,0,0:0:0:0:
416,192,153253,1,8,0:0:0:0:
439,183,153341,1,8,0:0:0:0:
383,185,153429,1,0,0:0:0:0:
405,193,153518,1,8,0:0:0:0:
448,192,153606,1,8,0:0:0:0:
448,192,153782,1,8,0:0:0:0:
448,160,153959,1,0,0:0:0:0:
396,180,154135,1,0,0:0:0:0:
400,179,154224,1,0,0:0:0:0:
448,192,154312,1,8,0:0:0:0:
423,199,154488,1,0,0:0:0:0:
442,177,154665,1,8,0:0:0:0:
448,192,155018,1,8,0:0:0:0:
448,192,155194,1,8,0:0:0:0:
407,183,155282,1,8,0:0:0:0:
448,192,155371,1,0,0:0:0:0:
448,192,155547,1,0,0:0:0:0:
369,192,155635,1,0,0:0:0:0:
448,192,155724,1,8,0:0:0:0:
416,192,155900,1,0,0:0:0:0:
416,210,156076,1,0,0:0:0:0:
416,210,156165,1,0,0:0:0:0:
400,202,156253,1,8,0:0:0:0:
384,192,156341,1,0,0:0:0:0:
416,160,156429,1,8,0:0:0:0:
416,160,156606,1,8,0:0:0:0:
384,192,156782,1,0,0:0:0:0:
448,192,156959,1,0,0:0:0:0:
406,216,157047,1,0,0:0:0:0:
403,187,157135,1,8,0:0:0:0:
416,192,157488,1,0,0:0:0:0:
388,178,157665,1,0,0:0:0:0:
388,178,157753,1,0,0:0:0:0:
392,175,157841,1,8,0:0:0:0:
416,160,158194,1,4,0:0:0:0:
256,192,158371,12,0,161018,0:0:0:0:
448,192,163841,5,0,0:0:0:0:
384,256,164194,1,0,0:0:0:0:
416,192,164371,1,8,0:0:0:0:
416,192,164724,1,0,0:0:0:0:
416,192,164900,1,0,0:0:0:0:
448,192,165076,1,8,0:0:0:0:
416,192,165429,1,0,0:0:0:0:
416,192,165606,1,0,0:0:0:0:
448,192,165782,1,8,0:0:0:0:
448,192,166135,1,0,0:0:0:0:
416,192,166312,1,8,0:0:0:0:
416,272,166665,1,0,0:0:0:0:
448,224,167018,1,0,0:0:0:0:
423,189,167194,1,8,0:0:0:0:
445,183,167547,1,0,0:0:0:0:
422,182,167724,1,8,0:0:0:0:
420,183,167900,1,8,0:0:0:0:
402,177,168782,1,8,0:0:0:0:
423,175,169488,1,0,0:0:0:0:
443,172,169841,1,0,0:0:0:0:
443,172,170194,1,0,0:0:0:0:
443,172,170547,1,0,0:0:0:0:
423,184,170900,1,8,0:0:0:0:
450,175,171253,1,0,0:0:0:0:
432,165,171606,1,8,0:0:0:0:
432,165,171959,1,8,0:0:0:0:
432,165,172312,1,8,0:0:0:0:
