osu file format v14

[General]
AudioFilename: excalibur.mp3
AudioLeadIn: 0
PreviewTime: 44812
Countdown: 0
SampleSet: Normal
StackLeniency: 0.4
Mode: 1
LetterboxInBreaks: 0
WidescreenStoryboard: 1

[Editor]
Bookmarks: 101018
DistanceSpacing: 1.4
BeatDivisor: 4
GridSize: 32
TimelineZoom: 2

[Metadata]
Title:Excalibur
TitleUnicode:Excαlibur
Artist:Mili
ArtistUnicode:Mili
Creator:iloveyou4ever
Version:Kantan
Source:
Tags:momocashew cassie wei saihate records projectmili yamato kasai hamo millennium mother hue project english classical female vocal vocalist
BeatmapID:3670645
BeatmapSetID:1791220

[Difficulty]
HPDrainRate:8
CircleSize:4
OverallDifficulty:3
ApproachRate:9
SliderMultiplier:1.4
SliderTickRate:1

[Events]
//Background and Video events
0,0,"EXCALIBUR.jpg",0,-100
//Break Periods
2,161218,163241
//Storyboard Layer 0 (Background)
//Storyboard Layer 1 (Fail)
//Storyboard Layer 2 (Pass)
//Storyboard Layer 3 (Foreground)
//Storyboard Layer 4 (Overlay)
//Storyboard Sound Samples

[TimingPoints]
77,352.941176470588,4,1,0,40,1,0
77,-111.111111111111,4,1,0,40,0,0
9934,-109.098843552258,4,1,0,55,0,0
10287,-107.146683810136,4,1,0,55,0,0
10640,-105.263157894737,4,1,0,55,0,0
10993,-101.698362656361,4,1,0,70,0,0
11346,-100,4,1,0,70,0,0
32875,-101.522842639594,4,1,0,70,0,0
33228,-103.092783505155,4,1,0,70,0,0
33934,-105.263157894737,4,1,0,70,0,0
45253,-100.022304974009,4,1,0,70,0,1
55135,-100.022304974009,4,1,0,70,0,0
56547,-100.022304974009,4,1,0,70,0,1
66429,-100.022304974009,4,1,0,70,0,0
67993,-105.263157894737,4,1,0,70,0,0
79816,-111.111111111111,4,1,0,75,0,0
88993,-105.263157894737,4,1,0,75,0,0
89699,-102.564102564103,4,1,0,55,0,0
89743,-102.564102564103,4,1,0,56,0,0
89787,-102.564102564103,4,1,0,57,0,0
89831,-102.564102564103,4,1,0,58,0,0
89875,-102.564102564103,4,1,0,59,0,0
89919,-102.564102564103,4,1,0,60,0,0
89963,-102.564102564103,4,1,0,62,0,0
90007,-102.564102564103,4,1,0,63,0,0
90051,-102.564102564103,4,1,0,64,0,0
90096,-102.564102564103,4,1,0,65,0,0
90140,-102.564102564103,4,1,0,66,0,0
90184,-102.564102564103,4,1,0,68,0,0
90228,-102.564102564103,4,1,0,69,0,0
90404,-100,4,1,0,69,0,0
101724,-95.2380952380952,4,1,0,82,0,1
113018,-111.111111111111,4,1,0,50,0,0
117934,-108.108108108108,4,1,0,50,0,0
118640,-105.263157894737,4,1,0,50,0,0
121463,-105.263157894737,4,1,0,53,0,0
121640,-105.263157894737,4,1,0,56,0,0
121816,-105.263157894737,4,1,0,59,0,0
121993,-105.263157894737,4,1,0,62,0,0
122346,-105.263157894737,4,1,0,66,0,0
122522,-105.263157894737,4,1,0,70,0,0
122699,-95.2380952380952,4,1,0,70,0,0
123581,-108.695652173913,4,1,0,40,0,0
129581,-106.951871657754,4,1,0,50,0,0
129934,-105.263157894737,4,1,0,50,0,0
135606,-100,4,1,0,75,0,1
145488,-100,4,1,0,75,0,0
146900,-100,4,1,0,75,0,1
158194,-100,4,1,0,75,0,0
158346,-100,4,1,0,75,0,0
158434,-100,4,1,0,74,0,0
158522,-100,4,1,0,73,0,0
158610,-100,4,1,0,72,0,0
158699,-100,4,1,0,72,0,0
158787,-100,4,1,0,71,0,0
158875,-100,4,1,0,70,0,0
158963,-100,4,1,0,69,0,0
159051,-100,4,1,0,68,0,0
159140,-100,4,1,0,68,0,0
159228,-100,4,1,0,67,0,0
159316,-100,4,1,0,66,0,0
159404,-100,4,1,0,65,0,0
159493,-100,4,1,0,64,0,0
159581,-102.564102564103,4,1,0,63,0,0
159669,-102.564102564103,4,1,0,62,0,0
159757,-102.564102564103,4,1,0,62,0,0
159846,-102.564102564103,4,1,0,61,0,0
159934,-102.564102564103,4,1,0,60,0,0
160022,-102.564102564103,4,1,0,59,0,0
160110,-102.564102564103,4,1,0,58,0,0
160199,-102.564102564103,4,1,0,58,0,0
160287,-102.564102564103,4,1,0,57,0,0
160375,-102.564102564103,4,1,0,56,0,0
160463,-102.564102564103,4,1,0,55,0,0
160551,-102.564102564103,4,1,0,54,0,0
160640,-102.564102564103,4,1,0,53,0,0
160728,-102.564102564103,4,1,0,52,0,0
160816,-102.564102564103,4,1,0,52,0,0
160904,-102.564102564103,4,1,0,51,0,0
160993,-105.263157894737,4,1,0,50,0,0
163816,-111.111111111111,4,1,0,50,0,0
168757,-114.942528735632,4,1,0,47,0,0
169463,-119.047619047619,4,1,0,45,0,0
170875,-125.628140703518,4,1,0,40,0,0
172287,-132.978723404255,4,1,0,40,0,0

[Colours]
Combo1 : 121,255,121
Combo2 : 198,255,121

[HitObjects]
383,173,77,5,0,0:0:0:0:
384,224,2547,1,0,0:0:0:0:
411,304,2900,1,0,0:0:0:0:
412,225,5371,1,0,0:0:0:0:
394,178,5724,1,8,0:0:0:0:
433,191,8194,1,8,0:0:0:0:
391,266,8547,1,0,0:0:0:0:
448,192,9959,1,0,0:0:0:0:
448,224,10312,1,0,0:0:0:0:
448,224,10665,1,0,0:0:0:0:
320,192,11018,1,8,0:0:0:0:
384,192,11371,1,4,0:0:0:0:
384,160,12782,1,0,0:0:0:0:
382,210,13488,1,0,0:0:0:0:
389,211,13841,1,8,0:0:0:0:
448,256,14194,1,0,0:0:0:0:
379,214,15606,1,0,0:0:0:0:
379,183,16312,1,0,0:0:0:0:
365,192,16665,1,8,0:0:0:0:
448,192,17018,1,12,0:0:0:0:
416,228,18429,1,8,0:0:0:0:
424,270,19135,1,0,0:0:0:0:
407,184,19488,1,8,0:0:0:0:
434,184,19841,1,0,0:0:0:0:
377,185,21076,1,12,0:0:0:0:
423,178,21782,1,12,0:0:0:0:
407,171,22312,1,8,0:0:0:0:
416,224,22665,1,0,0:0:0:0:
436,203,23724,1,0,0:0:0:0:
400,194,24076,1,8,0:0:0:0:
425,172,25135,1,8,0:0:0:0:
424,167,25488,1,0,0:0:0:0:
401,182,26900,1,8,0:0:0:0:
416,256,27959,1,0,0:0:0:0:
402,184,28312,1,8,0:0:0:0:
360,188,29371,1,0,0:0:0:0:
408,160,29724,1,8,0:0:0:0:
384,192,30782,1,8,0:0:0:0:
449,198,31135,1,8,0:0:0:0:
416,192,32547,1,8,0:0:0:0:
416,192,32900,1,8,0:0:0:0:
416,192,33253,1,0,0:0:0:0:
416,160,33959,1,4,0:0:0:0:
448,192,35018,1,0,0:0:0:0:
448,192,35371,1,0,0:0:0:0:
405,182,36429,1,0,0:0:0:0:
416,192,36782,1,8,0:0:0:0:
384,160,37312,1,8,0:0:0:0:
416,192,37841,1,8,0:0:0:0:
480,224,38194,1,0,0:0:0:0:
448,192,38900,1,8,0:0:0:0:
384,192,39606,1,4,0:0:0:0:
416,192,40312,1,8,0:0:0:0:
448,192,40665,1,0,0:0:0:0:
448,256,41018,1,0,0:0:0:0:
448,224,42076,1,8,0:0:0:0:
416,192,42429,1,0,0:0:0:0:
400,188,42959,1,8,0:0:0:0:
443,179,43488,1,0,0:0:0:0:
416,256,43841,1,8,0:0:0:0:
419,161,44900,1,8,0:0:0:0:
384,160,45253,1,4,0:0:0:0:
416,224,45959,1,0,0:0:0:0:
384,160,46312,1,8,0:0:0:0:
416,160,46665,1,0,0:0:0:0:
427,205,47371,1,0,0:0:0:0:
352,160,47724,1,8,0:0:0:0:
453,181,48076,1,8,0:0:0:0:
401,149,48782,1,8,0:0:0:0:
453,202,49135,1,0,0:0:0:0:
384,192,49488,1,0,0:0:0:0:
416,160,50547,1,8,0:0:0:0:
416,192,50900,1,4,0:0:0:0:
416,192,51606,1,8,0:0:0:0:
384,192,51959,1,8,0:0:0:0:
416,192,52312,1,0,0:0:0:0:
377,219,53018,1,0,0:0:0:0:
384,192,53371,1,8,0:0:0:0:
425,187,53724,1,8,0:0:0:0:
384,224,54429,1,0,0:0:0:0:
416,160,54782,1,8,0:0:0:0:
407,188,55135,1,4,0:0:0:0:
370,217,56194,1,0,0:0:0:0:
384,192,56547,1,12,0:0:0:0:
384,160,57253,1,8,0:0:0:0:
364,160,57606,1,0,0:0:0:0:
384,192,57959,1,8,0:0:0:0:
447,204,58665,1,0,0:0:0:0:
448,160,59018,1,8,0:0:0:0:
434,283,59371,1,0,0:0:0:0:
416,160,60076,1,8,0:0:0:0:
444,179,60429,1,0,0:0:0:0:
421,194,60782,1,0,0:0:0:0:
378,197,61841,1,8,0:0:0:0:
394,169,62194,1,4,0:0:0:0:
447,182,62900,1,8,0:0:0:0:
415,167,63253,1,8,0:0:0:0:
422,194,63606,1,0,0:0:0:0:
448,256,64312,1,0,0:0:0:0:
436,178,64665,1,8,0:0:0:0:
414,186,65018,1,0,0:0:0:0:
414,174,66076,1,8,0:0:0:0:
371,223,66429,1,0,0:0:0:0:
357,194,67135,1,8,0:0:0:0:
384,160,67841,1,12,0:0:0:0:
416,160,68900,1,0,0:0:0:0:
416,192,69253,1,8,0:0:0:0:
416,160,69959,1,8,0:0:0:0:
417,247,70665,1,8,0:0:0:0:
439,201,71724,1,0,0:0:0:0:
437,288,72076,1,8,0:0:0:0:
384,192,72782,1,0,0:0:0:0:
416,192,73488,1,12,0:0:0:0:
384,237,74018,1,0,0:0:0:0:
372,189,74547,1,8,0:0:0:0:
416,224,74900,1,0,0:0:0:0:
421,240,75606,1,0,0:0:0:0:
384,192,76312,1,8,0:0:0:0:
427,206,77371,1,8,0:0:0:0:
403,219,77724,1,0,0:0:0:0:
448,256,78429,1,0,0:0:0:0:
384,192,79135,1,12,0:0:0:0:
416,192,80194,1,0,0:0:0:0:
416,160,80547,1,8,0:0:0:0:
448,160,81606,1,8,0:0:0:0:
448,160,81959,1,8,0:0:0:0:
448,160,83018,1,0,0:0:0:0:
448,192,83371,1,8,0:0:0:0:
384,192,84076,1,8,0:0:0:0:
416,192,84429,1,8,0:0:0:0:
416,160,84782,1,4,0:0:0:0:
416,192,85312,1,8,0:0:0:0:
448,160,85841,1,0,0:0:0:0:
416,192,86194,1,8,0:0:0:0:
448,224,87253,1,8,0:0:0:0:
352,192,87606,1,8,0:0:0:0:
320,160,89018,1,0,0:0:0:0:
256,192,89724,12,0,90253,0:0:0:0:
416,224,90429,5,12,0:0:0:0:
416,160,91135,1,0,0:0:0:0:
416,160,91488,1,0,0:0:0:0:
384,160,91841,1,12,0:0:0:0:
386,187,92547,1,8,0:0:0:0:
448,160,92900,1,8,0:0:0:0:
416,160,93253,1,4,0:0:0:0:
386,199,93959,1,0,0:0:0:0:
416,192,94312,1,0,0:0:0:0:
416,192,94665,1,12,0:0:0:0:
416,192,95018,1,0,0:0:0:0:
416,192,95371,1,8,0:0:0:0:
448,128,96076,1,4,0:0:0:0:
427,185,97135,1,8,0:0:0:0:
384,160,97488,1,4,0:0:0:0:
434,201,98194,1,0,0:0:0:0:
416,192,98547,1,0,0:0:0:0:
448,192,98900,1,12,0:0:0:0:
448,224,99606,1,0,0:0:0:0:
448,160,100312,1,4,0:0:0:0:
416,192,101724,1,12,0:0:0:0:
448,160,102429,1,12,0:0:0:0:
461,192,103135,1,12,0:0:0:0:
391,193,103841,1,12,0:0:0:0:
399,180,104547,1,4,0:0:0:0:
361,195,105253,1,4,0:0:0:0:
373,214,105959,1,4,0:0:0:0:
431,174,106665,1,4,0:0:0:0:
412,183,107371,1,12,0:0:0:0:
370,181,108076,1,12,0:0:0:0:
340,194,108782,1,12,0:0:0:0:
360,169,109488,1,12,0:0:0:0:
394,192,110194,1,4,0:0:0:0:
356,170,110900,1,4,0:0:0:0:
369,190,111606,1,4,0:0:0:0:
419,191,111959,1,0,0:0:0:0:
320,160,112312,1,12,0:0:0:0:
416,164,113018,1,0,0:0:0:0:
410,182,114429,1,0,0:0:0:0:
412,194,115841,1,0,0:0:0:0:
377,183,116371,1,8,0:0:0:0:
446,212,117253,1,0,0:0:0:0:
451,173,117959,1,8,0:0:0:0:
404,187,118665,1,0,0:0:0:0:
418,185,119371,1,8,0:0:0:0:
402,182,120076,1,0,0:0:0:0:
384,192,120782,1,8,0:0:0:0:
442,201,121135,1,8,0:0:0:0:
256,192,121488,12,0,122900,0:0:0:0:
420,201,124312,5,0,0:0:0:0:
398,200,125724,1,0,0:0:0:0:
424,200,127135,1,8,0:0:0:0:
345,213,128547,1,0,0:0:0:0:
439,197,129606,1,0,0:0:0:0:
416,192,129959,1,8,0:0:0:0:
416,192,130665,1,8,0:0:0:0:
384,192,131371,1,0,0:0:0:0:
352,160,132076,1,0,0:0:0:0:
440,193,132782,1,8,0:0:0:0:
448,224,133488,1,8,0:0:0:0:
384,192,133841,1,8,0:0:0:0:
384,192,134194,1,0,0:0:0:0:
376,196,135253,1,0,0:0:0:0:
448,160,135606,1,12,0:0:0:0:
448,192,136312,1,8,0:0:0:0:
357,177,136665,1,0,0:0:0:0:
448,192,137018,1,8,0:0:0:0:
416,192,137724,1,8,0:0:0:0:
416,192,138076,1,8,0:0:0:0:
406,180,138429,1,0,0:0:0:0:
428,219,139135,1,0,0:0:0:0:
413,227,139488,1,8,0:0:0:0:
416,192,139841,1,0,0:0:0:0:
384,192,140900,1,8,0:0:0:0:
416,160,141253,1,4,0:0:0:0:
441,235,141959,1,8,0:0:0:0:
416,192,142312,1,8,0:0:0:0:
416,160,142665,1,0,0:0:0:0:
374,181,143371,1,0,0:0:0:0:
416,160,143724,1,8,0:0:0:0:
396,280,144076,1,0,0:0:0:0:
399,183,145135,1,8,0:0:0:0:
352,192,145488,1,4,0:0:0:0:
384,224,146900,1,4,0:0:0:0:
453,182,147606,1,8,0:0:0:0:
355,177,147959,1,0,0:0:0:0:
401,193,148312,1,8,0:0:0:0:
420,203,149018,1,0,0:0:0:0:
416,160,149371,1,8,0:0:0:0:
400,201,149724,1,8,0:0:0:0:
432,209,150429,1,0,0:0:0:0:
434,298,150782,1,8,0:0:0:0:
411,211,151135,1,0,0:0:0:0:
384,192,152194,1,0,0:0:0:0:
416,160,152547,1,12,0:0:0:0:
416,192,153253,1,8,0:0:0:0:
448,192,153606,1,8,0:0:0:0:
448,160,153959,1,0,0:0:0:0:
397,226,154312,1,0,0:0:0:0:
448,192,155018,1,8,0:0:0:0:
448,192,155371,1,0,0:0:0:0:
357,198,156429,1,8,0:0:0:0:
453,235,156782,1,0,0:0:0:0:
420,195,157135,1,8,0:0:0:0:
416,192,157488,1,0,0:0:0:0:
420,195,157841,1,8,0:0:0:0:
416,160,158194,1,4,0:0:0:0:
256,192,158371,12,0,161018,0:0:0:0:
448,192,163841,5,0,0:0:0:0:
387,226,166312,1,0,0:0:0:0:
416,272,166665,1,0,0:0:0:0:
430,190,167900,1,8,0:0:0:0:
410,172,168782,1,8,0:0:0:0:
439,181,169488,1,0,0:0:0:0:
432,165,172312,1,8,0:0:0:0:
