osu file format v14

[General]
AudioFilename: excalibur.mp3
AudioLeadIn: 0
PreviewTime: 44812
Countdown: 0
SampleSet: Normal
StackLeniency: 0.4
Mode: 1
LetterboxInBreaks: 0
WidescreenStoryboard: 1

[Editor]
Bookmarks: 101018
DistanceSpacing: 1.4
BeatDivisor: 4
GridSize: 32
TimelineZoom: 0.6999998

[Metadata]
Title:Excalibur
TitleUnicode:Excαlibur
Artist:Mili
ArtistUnicode:Mili
Creator:iloveyou4ever
Version:Futsuu
Source:
Tags:momocashew cassie wei saihate records projectmili yamato kasai hamo millennium mother hue project english classical female vocal vocalist
BeatmapID:3670643
BeatmapSetID:1791220

[Difficulty]
HPDrainRate:7
CircleSize:4
OverallDifficulty:4
ApproachRate:9
SliderMultiplier:1.4
SliderTickRate:1

[Events]
//Background and Video events
0,0,"EXCALIBUR.jpg",0,-100
//Break Periods
2,161218,163241
//Storyboard Layer 0 (Background)
//Storyboard Layer 1 (Fail)
//Storyboard Layer 2 (Pass)
//Storyboard Layer 3 (Foreground)
//Storyboard Layer 4 (Overlay)
//Storyboard Sound Samples

[TimingPoints]
77,352.941176470588,4,1,0,40,1,0
77,-111.111111111111,4,1,0,40,0,0
9934,-109.098843552258,4,1,0,55,0,0
10287,-107.146683810136,4,1,0,55,0,0
10640,-105.263157894737,4,1,0,55,0,0
10816,-103.455410717981,4,1,0,55,0,0
10993,-101.698362656361,4,1,0,70,0,0
11346,-100,4,1,0,70,0,0
32699,-101.010101010101,4,1,0,70,0,0
33051,-102.040816326531,4,1,0,70,0,0
33228,-103.092783505155,4,1,0,70,0,0
33581,-104.166666666667,4,1,0,70,0,0
33934,-105.263157894737,4,1,0,70,0,0
45253,-100.022304974009,4,1,0,70,0,1
55135,-100.022304974009,4,1,0,70,0,0
56547,-100.022304974009,4,1,0,70,0,1
66429,-100.022304974009,4,1,0,70,0,0
67816,-90.9090909090909,4,1,0,70,0,0
67993,-105.263157894737,4,1,0,70,0,0
78404,-113.636363636364,4,1,0,70,0,0
79110,-90.9090909090909,4,1,0,70,0,0
79816,-111.111111111111,4,1,0,75,0,0
88993,-105.263157894737,4,1,0,75,0,0
89699,-102.564102564103,4,1,0,55,0,0
89743,-102.564102564103,4,1,0,56,0,0
89787,-102.564102564103,4,1,0,57,0,0
89831,-102.564102564103,4,1,0,58,0,0
89875,-102.564102564103,4,1,0,59,0,0
89919,-102.564102564103,4,1,0,60,0,0
89963,-102.564102564103,4,1,0,62,0,0
90007,-102.564102564103,4,1,0,63,0,0
90051,-102.564102564103,4,1,0,64,0,0
90096,-102.564102564103,4,1,0,65,0,0
90140,-102.564102564103,4,1,0,66,0,0
90184,-102.564102564103,4,1,0,68,0,0
90228,-102.564102564103,4,1,0,69,0,0
90404,-100,4,1,0,69,0,0
101724,-95.2380952380952,4,1,0,82,0,1
113018,-111.111111111111,4,1,0,50,0,0
117934,-108.108108108108,4,1,0,50,0,0
118640,-105.263157894737,4,1,0,50,0,0
121463,-103.626943005181,4,1,0,53,0,0
121640,-102.040816326531,4,1,0,56,0,0
121816,-100.502512562814,4,1,0,59,0,0
121993,-99.009900990099,4,1,0,62,0,0
122346,-97.0873786407767,4,1,0,66,0,0
122522,-95.2380952380952,4,1,0,70,0,0
122699,-93.4579439252336,4,1,0,70,0,0
123581,-108.695652173913,4,1,0,40,0,0
129581,-106.951871657754,4,1,0,50,0,0
129934,-105.263157894737,4,1,0,50,0,0
135606,-100,4,1,0,75,0,1
145488,-100,4,1,0,75,0,0
146900,-100,4,1,0,75,0,1
158194,-90.9090909090909,4,1,0,75,0,0
158346,-90.9090909090909,4,1,0,75,0,0
158434,-90.9090909090909,4,1,0,74,0,0
158522,-90.9090909090909,4,1,0,73,0,0
158610,-90.9090909090909,4,1,0,72,0,0
158699,-90.9090909090909,4,1,0,72,0,0
158787,-90.9090909090909,4,1,0,71,0,0
158875,-90.9090909090909,4,1,0,70,0,0
158963,-90.9090909090909,4,1,0,69,0,0
159051,-90.9090909090909,4,1,0,68,0,0
159140,-90.9090909090909,4,1,0,68,0,0
159228,-90.9090909090909,4,1,0,67,0,0
159316,-90.9090909090909,4,1,0,66,0,0
159404,-90.9090909090909,4,1,0,65,0,0
159493,-90.9090909090909,4,1,0,64,0,0
159581,-97.5609756097561,4,1,0,63,0,0
159669,-97.5609756097561,4,1,0,62,0,0
159757,-97.5609756097561,4,1,0,62,0,0
159846,-97.5609756097561,4,1,0,61,0,0
159934,-97.5609756097561,4,1,0,60,0,0
160022,-97.5609756097561,4,1,0,59,0,0
160110,-97.5609756097561,4,1,0,58,0,0
160199,-97.5609756097561,4,1,0,58,0,0
160287,-97.5609756097561,4,1,0,57,0,0
160375,-97.5609756097561,4,1,0,56,0,0
160463,-97.5609756097561,4,1,0,55,0,0
160551,-97.5609756097561,4,1,0,54,0,0
160640,-97.5609756097561,4,1,0,53,0,0
160728,-97.5609756097561,4,1,0,52,0,0
160816,-97.5609756097561,4,1,0,52,0,0
160904,-97.5609756097561,4,1,0,51,0,0
160993,-105.263157894737,4,1,0,50,0,0
163816,-111.111111111111,4,1,0,50,0,0
168757,-114.942528735632,4,1,0,47,0,0
169463,-119.047619047619,4,1,0,45,0,0
170169,-122.249388753056,4,1,0,40,0,0
170522,-123.915737298637,4,1,0,40,0,0
170875,-125.628140703518,4,1,0,40,0,0
171581,-129.198966408269,4,1,0,40,0,0
171934,-131.061598951507,4,1,0,40,0,0
172287,-132.978723404255,4,1,0,40,0,0

[Colours]
Combo1 : 121,255,121
Combo2 : 198,255,121

[HitObjects]
383,173,77,5,0,0:0:0:0:
444,243,429,1,0,0:0:0:0:
432,180,606,1,8,0:0:0:0:
363,197,1312,1,8,0:0:0:0:
387,184,2018,1,8,0:0:0:0:
384,224,2547,1,0,0:0:0:0:
411,304,2900,1,0,0:0:0:0:
414,257,3253,1,0,0:0:0:0:
393,187,3429,1,8,0:0:0:0:
387,179,4135,1,8,0:0:0:0:
410,186,4841,1,8,0:0:0:0:
390,178,5371,1,8,0:0:0:0:
394,178,5724,1,8,0:0:0:0:
408,186,6076,1,0,0:0:0:0:
420,187,6253,1,8,0:0:0:0:
437,224,6959,1,8,0:0:0:0:
425,183,7665,1,8,0:0:0:0:
433,191,8194,1,8,0:0:0:0:
391,266,8547,1,0,0:0:0:0:
486,175,8900,1,0,0:0:0:0:
416,192,9076,1,8,0:0:0:0:
448,256,9606,1,8,0:0:0:0:
416,192,9782,1,8,0:0:0:0:
448,192,9959,1,0,0:0:0:0:
448,224,10312,1,0,0:0:0:0:
448,224,10665,1,0,0:0:0:0:
448,224,10841,1,0,0:0:0:0:
320,192,11018,1,8,0:0:0:0:
384,192,11371,1,4,0:0:0:0:
461,189,11724,1,0,0:0:0:0:
352,192,11900,1,8,0:0:0:0:
432,269,12429,1,8,0:0:0:0:
384,160,12782,1,0,0:0:0:0:
352,160,13135,1,0,0:0:0:0:
416,192,13312,1,8,0:0:0:0:
464,245,13841,1,0,0:0:0:0:
448,256,14194,1,0,0:0:0:0:
448,192,14547,1,0,0:0:0:0:
416,192,14724,1,8,0:0:0:0:
417,175,15253,1,0,0:0:0:0:
384,192,15606,1,0,0:0:0:0:
405,197,15959,1,0,0:0:0:0:
384,192,16135,1,8,0:0:0:0:
448,192,17018,1,12,0:0:0:0:
352,160,17371,1,0,0:0:0:0:
352,192,17547,1,8,0:0:0:0:
384,186,18076,1,8,0:0:0:0:
416,192,18429,1,0,0:0:0:0:
416,192,18782,1,0,0:0:0:0:
441,191,18959,1,8,0:0:0:0:
416,192,19488,1,0,0:0:0:0:
428,183,19841,1,0,0:0:0:0:
416,192,20194,1,0,0:0:0:0:
384,192,20371,1,8,0:0:0:0:
427,228,20724,1,0,0:0:0:0:
363,184,20900,1,0,0:0:0:0:
416,192,21076,1,12,0:0:0:0:
448,224,21782,1,12,0:0:0:0:
416,192,22312,1,8,0:0:0:0:
416,224,22665,1,0,0:0:0:0:
399,180,23194,1,0,0:0:0:0:
374,183,23724,1,0,0:0:0:0:
400,194,24076,1,8,0:0:0:0:
425,172,25135,1,8,0:0:0:0:
424,167,25488,1,0,0:0:0:0:
389,187,26018,1,8,0:0:0:0:
446,227,26547,1,0,0:0:0:0:
402,177,26724,1,8,0:0:0:0:
383,208,26900,1,8,0:0:0:0:
404,247,27429,1,0,0:0:0:0:
416,256,27959,1,0,0:0:0:0:
402,184,28312,1,8,0:0:0:0:
389,189,28841,1,0,0:0:0:0:
360,188,29371,1,0,0:0:0:0:
408,160,29724,1,8,0:0:0:0:
384,192,30782,1,8,0:0:0:0:
465,173,30959,1,8,0:0:0:0:
449,198,31135,1,8,0:0:0:0:
448,192,31665,1,0,0:0:0:0:
416,192,32194,1,8,0:0:0:0:
416,224,32547,1,8,0:0:0:0:
448,192,32724,1,0,0:0:0:0:
416,192,33076,1,0,0:0:0:0:
416,192,33253,1,0,0:0:0:0:
416,192,33606,1,8,0:0:0:0:
416,160,33959,1,4,0:0:0:0:
448,192,35018,1,0,0:0:0:0:
448,192,35371,1,0,0:0:0:0:
416,192,36429,1,0,0:0:0:0:
416,192,36606,1,8,0:0:0:0:
416,192,36782,1,8,0:0:0:0:
384,160,37312,1,8,0:0:0:0:
416,192,37841,1,8,0:0:0:0:
480,224,38194,1,0,0:0:0:0:
448,192,38900,1,8,0:0:0:0:
384,192,39606,1,4,0:0:0:0:
416,192,39959,1,8,0:0:0:0:
416,192,40312,1,8,0:0:0:0:
448,192,40665,1,0,0:0:0:0:
352,224,41018,1,0,0:0:0:0:
448,224,42076,1,8,0:0:0:0:
416,192,42429,1,0,0:0:0:0:
400,188,42959,1,8,0:0:0:0:
443,179,43488,1,0,0:0:0:0:
416,192,43841,1,12,0:0:0:0:
420,262,44194,1,0,0:0:0:0:
416,160,44547,1,8,0:0:0:0:
416,160,44724,1,8,0:0:0:0:
384,192,44900,1,8,0:0:0:0:
416,160,45076,1,8,0:0:0:0:
384,160,45253,1,4,0:0:0:0:
416,224,45959,1,0,0:0:0:0:
384,160,46312,1,8,0:0:0:0:
391,201,46488,1,8,0:0:0:0:
416,160,46665,1,0,0:0:0:0:
384,176,47371,1,0,0:0:0:0:
352,160,47724,1,8,0:0:0:0:
384,160,48076,1,0,0:0:0:0:
352,160,48606,1,0,0:0:0:0:
395,173,48782,1,8,0:0:0:0:
384,160,49135,1,8,0:0:0:0:
384,192,49312,1,8,0:0:0:0:
384,192,49488,1,0,0:0:0:0:
416,160,50547,1,8,0:0:0:0:
416,192,50900,1,4,0:0:0:0:
416,192,51606,1,8,0:0:0:0:
384,192,51959,1,8,0:0:0:0:
416,192,52312,1,0,0:0:0:0:
416,192,53018,1,8,0:0:0:0:
416,224,53194,1,0,0:0:0:0:
384,192,53371,1,8,0:0:0:0:
384,192,53724,1,0,0:0:0:0:
384,224,54429,1,0,0:0:0:0:
416,160,54606,1,0,0:0:0:0:
416,160,54782,1,8,0:0:0:0:
407,188,55135,1,4,0:0:0:0:
416,256,55488,1,0,0:0:0:0:
422,174,55841,1,8,0:0:0:0:
407,231,56018,1,8,0:0:0:0:
370,222,56194,1,0,0:0:0:0:
384,192,56547,1,12,0:0:0:0:
416,160,57076,1,0,0:0:0:0:
384,160,57253,1,8,0:0:0:0:
416,160,57606,1,8,0:0:0:0:
384,192,57782,1,0,0:0:0:0:
384,192,57959,1,8,0:0:0:0:
447,204,58665,1,0,0:0:0:0:
448,160,59018,1,8,0:0:0:0:
448,160,59371,1,0,0:0:0:0:
416,192,59900,1,0,0:0:0:0:
416,160,60076,1,8,0:0:0:0:
444,179,60429,1,0,0:0:0:0:
431,190,60606,1,0,0:0:0:0:
447,165,60782,1,8,0:0:0:0:
378,197,61841,1,8,0:0:0:0:
394,169,62194,1,4,0:0:0:0:
447,182,62900,1,8,0:0:0:0:
415,167,63253,1,8,0:0:0:0:
352,192,63429,1,8,0:0:0:0:
422,194,63606,1,0,0:0:0:0:
448,256,64312,1,0,0:0:0:0:
436,178,64665,1,8,0:0:0:0:
414,186,65018,1,0,0:0:0:0:
414,174,66076,1,8,0:0:0:0:
371,223,66429,1,0,0:0:0:0:
429,183,66606,1,0,0:0:0:0:
402,174,66959,1,8,0:0:0:0:
446,172,67312,1,0,0:0:0:0:
419,189,67488,1,8,0:0:0:0:
384,160,67841,1,12,0:0:0:0:
416,160,68900,1,0,0:0:0:0:
416,192,69253,1,8,0:0:0:0:
416,160,69959,1,8,0:0:0:0:
417,247,70665,1,8,0:0:0:0:
439,201,71724,1,0,0:0:0:0:
437,288,72076,1,8,0:0:0:0:
448,192,72606,1,8,0:0:0:0:
384,192,72782,1,0,0:0:0:0:
480,192,73312,1,0,0:0:0:0:
416,192,73488,1,12,0:0:0:0:
384,224,73841,1,8,0:0:0:0:
384,224,74194,1,8,0:0:0:0:
384,192,74547,1,0,0:0:0:0:
416,224,74900,1,0,0:0:0:0:
416,192,75076,1,8,0:0:0:0:
416,192,75253,1,0,0:0:0:0:
384,192,75606,1,8,0:0:0:0:
384,192,76312,1,8,0:0:0:0:
416,192,76665,1,0,0:0:0:0:
416,192,77018,1,8,0:0:0:0:
416,192,77371,1,8,0:0:0:0:
328,201,77724,1,0,0:0:0:0:
448,256,78429,1,0,0:0:0:0:
384,192,79135,1,12,0:0:0:0:
416,192,80194,1,0,0:0:0:0:
416,160,80547,1,8,0:0:0:0:
448,160,81606,1,8,0:0:0:0:
448,160,81959,1,8,0:0:0:0:
448,160,83018,1,0,0:0:0:0:
448,192,83371,1,8,0:0:0:0:
384,192,84076,1,8,0:0:0:0:
416,192,84429,1,8,0:0:0:0:
416,160,84782,1,4,0:0:0:0:
416,192,85312,1,8,0:0:0:0:
448,160,85841,1,0,0:0:0:0:
416,192,86194,1,8,0:0:0:0:
448,224,87253,1,8,0:0:0:0:
352,192,87606,1,8,0:0:0:0:
320,160,89018,1,0,0:0:0:0:
256,192,89724,12,0,90253,0:0:0:0:
416,224,90429,5,12,0:0:0:0:
416,192,90782,1,8,0:0:0:0:
416,160,91135,1,0,0:0:0:0:
416,160,91312,1,0,0:0:0:0:
416,160,91488,1,0,0:0:0:0:
384,160,91841,1,12,0:0:0:0:
416,192,92194,1,8,0:0:0:0:
416,192,92547,1,0,0:0:0:0:
416,192,92724,1,0,0:0:0:0:
448,160,92900,1,8,0:0:0:0:
416,160,93253,1,4,0:0:0:0:
448,192,93606,1,0,0:0:0:0:
448,192,93959,1,8,0:0:0:0:
448,192,94135,1,8,0:0:0:0:
416,192,94312,1,0,0:0:0:0:
416,192,94665,1,12,0:0:0:0:
416,192,95018,1,0,0:0:0:0:
416,192,95371,1,0,0:0:0:0:
416,160,95547,1,8,0:0:0:0:
416,160,95724,1,8,0:0:0:0:
448,128,96076,1,4,0:0:0:0:
416,160,96782,1,8,0:0:0:0:
416,160,97135,1,0,0:0:0:0:
384,160,97488,1,4,0:0:0:0:
416,192,98194,1,8,0:0:0:0:
416,192,98547,1,0,0:0:0:0:
448,192,98900,1,12,0:0:0:0:
448,224,99606,1,0,0:0:0:0:
448,160,100312,1,4,0:0:0:0:
384,160,100665,1,0,0:0:0:0:
416,160,101018,1,8,0:0:0:0:
416,192,101724,1,12,0:0:0:0:
448,160,102429,1,12,0:0:0:0:
461,192,103135,1,12,0:0:0:0:
391,193,103841,1,12,0:0:0:0:
385,195,104194,1,8,0:0:0:0:
399,180,104547,1,4,0:0:0:0:
361,195,105253,1,4,0:0:0:0:
373,214,105959,1,4,0:0:0:0:
425,191,106665,1,4,0:0:0:0:
398,157,107018,1,0,0:0:0:0:
412,183,107371,1,12,0:0:0:0:
370,181,108076,1,12,0:0:0:0:
340,194,108782,1,12,0:0:0:0:
360,169,109488,1,12,0:0:0:0:
359,195,109841,1,8,0:0:0:0:
394,192,110194,1,4,0:0:0:0:
356,170,110900,1,4,0:0:0:0:
369,190,111606,1,4,0:0:0:0:
419,191,111959,1,0,0:0:0:0:
416,160,112312,1,12,0:0:0:0:
416,164,113018,1,0,0:0:0:0:
391,168,113547,1,8,0:0:0:0:
410,183,114076,1,8,0:0:0:0:
410,182,114429,1,0,0:0:0:0:
384,224,115488,1,0,0:0:0:0:
412,194,115841,1,0,0:0:0:0:
377,183,116371,1,8,0:0:0:0:
448,192,116900,1,8,0:0:0:0:
446,212,117253,1,0,0:0:0:0:
451,173,117959,1,8,0:0:0:0:
404,187,118665,1,0,0:0:0:0:
418,185,119371,1,8,0:0:0:0:
419,182,119900,1,8,0:0:0:0:
402,182,120076,1,0,0:0:0:0:
384,192,120782,1,8,0:0:0:0:
442,201,121135,1,8,0:0:0:0:
416,224,121488,1,0,0:0:0:0:
358,224,121665,1,0,0:0:0:0:
384,192,121841,1,0,0:0:0:0:
416,192,122018,1,8,0:0:0:0:
384,192,122371,1,0,0:0:0:0:
384,192,122547,1,8,0:0:0:0:
216,226,122724,2,4,L|387:165,1,149.799995428467
393,199,123606,1,8,0:0:0:0:
420,201,124312,1,0,0:0:0:0:
384,192,125018,1,8,0:0:0:0:
433,214,125371,1,8,0:0:0:0:
398,200,125724,1,0,0:0:0:0:
404,187,126429,1,0,0:0:0:0:
416,183,126782,1,8,0:0:0:0:
377,172,127135,1,0,0:0:0:0:
431,194,127841,1,8,0:0:0:0:
362,203,128194,1,8,0:0:0:0:
361,193,128371,1,8,0:0:0:0:
345,213,128547,1,0,0:0:0:0:
439,197,129606,1,0,0:0:0:0:
416,192,129959,1,8,0:0:0:0:
416,192,130665,1,8,0:0:0:0:
416,192,131018,1,8,0:0:0:0:
384,192,131371,1,0,0:0:0:0:
352,160,132076,1,0,0:0:0:0:
384,160,132429,1,8,0:0:0:0:
384,160,132782,1,0,0:0:0:0:
448,224,133488,1,8,0:0:0:0:
384,192,133841,1,8,0:0:0:0:
384,192,134194,1,0,0:0:0:0:
415,284,134547,1,0,0:0:0:0:
384,192,134900,1,8,0:0:0:0:
448,160,135606,1,12,0:0:0:0:
379,204,136135,1,0,0:0:0:0:
448,192,136312,1,8,0:0:0:0:
416,160,136665,1,8,0:0:0:0:
390,182,136841,1,0,0:0:0:0:
448,192,137018,1,8,0:0:0:0:
416,192,137724,1,8,0:0:0:0:
416,192,138076,1,8,0:0:0:0:
406,180,138429,1,0,0:0:0:0:
382,185,138959,1,0,0:0:0:0:
416,192,139135,1,8,0:0:0:0:
413,227,139488,1,8,0:0:0:0:
413,227,139665,1,8,0:0:0:0:
416,192,139841,1,0,0:0:0:0:
416,288,140194,1,0,0:0:0:0:
406,202,140547,1,0,0:0:0:0:
392,191,140724,1,8,0:0:0:0:
384,192,140900,1,8,0:0:0:0:
384,192,141076,1,8,0:0:0:0:
416,160,141253,1,4,0:0:0:0:
407,192,141959,1,8,0:0:0:0:
416,192,142312,1,8,0:0:0:0:
416,160,142488,1,8,0:0:0:0:
416,160,142665,1,0,0:0:0:0:
375,190,143018,1,8,0:0:0:0:
374,181,143371,1,0,0:0:0:0:
304,215,143547,1,0,0:0:0:0:
416,160,143724,1,8,0:0:0:0:
416,160,144076,1,0,0:0:0:0:
355,253,144782,1,0,0:0:0:0:
399,183,145135,1,8,0:0:0:0:
352,192,145488,1,4,0:0:0:0:
421,197,145841,1,8,0:0:0:0:
423,174,146018,1,0,0:0:0:0:
416,192,146194,1,8,0:0:0:0:
416,192,146547,1,8,0:0:0:0:
384,224,146900,1,4,0:0:0:0:
409,179,147429,1,8,0:0:0:0:
372,211,147606,1,0,0:0:0:0:
448,160,147959,1,8,0:0:0:0:
411,220,148135,1,0,0:0:0:0:
401,193,148312,1,8,0:0:0:0:
381,218,148665,1,0,0:0:0:0:
420,203,149018,1,0,0:0:0:0:
361,188,149194,1,0,0:0:0:0:
416,160,149371,1,8,0:0:0:0:
400,201,149724,1,8,0:0:0:0:
432,209,150253,1,0,0:0:0:0:
432,209,150429,1,0,0:0:0:0:
434,298,150782,1,8,0:0:0:0:
366,178,151135,1,8,0:0:0:0:
409,200,151488,1,0,0:0:0:0:
416,192,151665,1,0,0:0:0:0:
416,192,151841,1,8,0:0:0:0:
416,192,152018,1,8,0:0:0:0:
384,192,152194,1,0,0:0:0:0:
416,160,152547,1,12,0:0:0:0:
416,192,153253,1,8,0:0:0:0:
448,192,153606,1,8,0:0:0:0:
439,207,153782,1,8,0:0:0:0:
448,160,153959,1,0,0:0:0:0:
448,192,154312,1,8,0:0:0:0:
426,227,154665,1,0,0:0:0:0:
426,227,154841,1,0,0:0:0:0:
448,192,155018,1,8,0:0:0:0:
448,192,155371,1,0,0:0:0:0:
448,192,155724,1,8,0:0:0:0:
368,198,156253,1,0,0:0:0:0:
416,160,156429,1,8,0:0:0:0:
384,192,156782,1,0,0:0:0:0:
399,175,156959,1,0,0:0:0:0:
403,187,157135,1,8,0:0:0:0:
416,192,157488,1,0,0:0:0:0:
384,206,157665,1,0,0:0:0:0:
392,175,157841,1,8,0:0:0:0:
416,160,158194,1,4,0:0:0:0:
256,192,158371,12,0,161018,0:0:0:0:
448,192,163841,5,0,0:0:0:0:
384,256,164194,1,0,0:0:0:0:
416,192,164371,1,8,0:0:0:0:
448,192,165076,1,8,0:0:0:0:
448,192,165782,1,8,0:0:0:0:
416,192,166312,1,8,0:0:0:0:
416,272,166665,1,0,0:0:0:0:
448,224,167018,1,0,0:0:0:0:
423,189,167194,1,8,0:0:0:0:
422,182,167724,1,8,0:0:0:0:
420,183,167900,1,8,0:0:0:0:
412,183,168782,1,8,0:0:0:0:
423,192,169488,1,0,0:0:0:0:
443,172,170194,1,0,0:0:0:0:
443,172,170547,1,0,0:0:0:0:
423,184,170900,1,8,0:0:0:0:
432,165,171606,1,8,0:0:0:0:
432,165,171959,1,8,0:0:0:0:
432,165,172312,1,8,0:0:0:0:
