osu file format v14

[General]
AudioFilename: excalibur.mp3
AudioLeadIn: 0
PreviewTime: 101371
Countdown: 0
SampleSet: Soft
StackLeniency: 0.3
Mode: 0
LetterboxInBreaks: 0
WidescreenStoryboard: 1

[Editor]
DistanceSpacing: 0.4
BeatDivisor: 4
GridSize: 32
TimelineZoom: 1.2

[Metadata]
Title:Excalibur
TitleUnicode:Excαlibur
Artist:Mili
ArtistUnicode:Mili
Creator:SMOKELIND
Version:Hard
Source:
Tags:momocashew cassie wei projectmili yamato kasai hamo millennium mother hue project english classical
BeatmapID:2679523
BeatmapSetID:1290861

[Difficulty]
HPDrainRate:4.7
CircleSize:4
OverallDifficulty:5.7
ApproachRate:7.7
SliderMultiplier:1.47
SliderTickRate:1

[Events]
//Background and Video events
0,0,"EXCALIBUR.jpg",0,0
//Break Periods
2,124512,133399
//Storyboard Layer 0 (Background)
//Storyboard Layer 1 (Fail)
//Storyboard Layer 2 (Pass)
//Storyboard Layer 3 (Foreground)
//Storyboard Layer 4 (Overlay)
//Storyboard Sound Samples

[TimingPoints]
77,352.941176470588,4,2,77,47,1,0
429,-129.87012987013,4,2,77,47,0,0
11282,-129.87012987013,4,2,77,7,0,0
11371,-103.092783505155,4,2,77,77,0,0
14106,-129.87012987013,4,2,77,7,0,0
14194,-103.092783505155,4,2,77,77,0,0
19753,-129.87012987013,4,2,77,7,0,0
19841,-103.092783505155,4,2,77,77,0,0
22576,-129.87012987013,4,2,77,7,0,0
22665,-129.87012987013,4,2,77,57,0,0
33959,-149.253731343284,4,2,77,57,0,0
43841,-129.87012987013,4,2,77,67,0,0
44194,-114.942528735632,4,2,77,67,0,0
44547,-103.092783505155,4,2,77,77,0,0
45253,-93.4579439252339,4,2,77,87,0,0
47988,-93.4579439252339,4,2,77,7,0,0
48076,-93.4579439252339,4,2,77,87,0,0
59282,-93.4579439252339,4,2,77,7,0,0
59370,-93.4579439252339,4,2,77,87,0,0
66429,-103.092783505155,4,2,77,87,0,0
67841,-129.87012987013,4,2,77,57,0,0
69165,-129.87012987013,4,2,77,7,0,0
69253,-129.87012987013,4,2,77,57,0,0
71988,-129.87012987013,4,2,77,7,0,0
72076,-129.87012987013,4,2,77,57,0,0
79135,-149.253731343284,4,2,77,57,0,0
89018,-129.87012987013,4,2,77,57,0,0
90429,-103.092783505155,4,2,77,77,0,0
92106,-103.092783505155,4,2,77,7,0,0
92194,-103.092783505155,4,2,77,77,0,0
93518,-103.092783505155,4,2,77,7,0,0
93606,-103.092783505155,4,2,77,77,0,0
96076,-85.4700854700857,4,2,77,77,0,0
96340,-85.4700854700857,4,2,77,7,0,0
96429,-85.4700854700857,4,2,77,77,0,0
96693,-85.4700854700857,4,2,77,7,0,0
96782,-85.4700854700857,4,2,77,77,0,0
97046,-85.4700854700857,4,2,77,7,0,0
97135,-85.4700854700857,4,2,77,77,0,0
97399,-85.4700854700857,4,2,77,7,0,0
97488,-85.4700854700857,4,2,77,77,0,0
101724,-114.942528735633,4,2,77,67,0,0
113018,-129.870129870131,4,2,77,47,0,0
134812,-129.870129870131,4,2,77,7,0,0
134900,-114.942528735633,4,2,77,57,0,0
135606,-85.4700854700855,4,2,77,87,0,0
151047,-85.4700854700855,4,2,77,7,0,0
151135,-85.4700854700855,4,2,77,87,0,0
153518,-85.4700854700855,4,2,77,7,0,0
153606,-85.4700854700855,4,2,77,87,0,0
158194,-85.4700854700855,4,2,77,47,0,0

[Colours]
Combo1 : 121,255,121
Combo2 : 198,255,121

[HitObjects]
64,16,77,5,2,2:0:0:0:
64,16,429,2,0,L|73:85,1,56.5949988773575,2|0,2:0|2:0,2:0:0:0:
89,229,959,2,0,P|68:252|18:252,2,56.5949988773575,2|0|0,2:0|2:0|2:0,2:0:0:0:
192,108,1665,2,0,P|218:116|236:137,2,56.5949988773575,2|0|0,2:0|2:0|2:0,2:0:0:0:
316,214,2371,1,0,2:0:0:0:
316,214,2547,2,0,L|321:140,1,56.5949988773575,2|0,2:0|2:0,2:0:0:0:
328,78,2900,6,0,P|309:56|283:48,2,56.5949988773575,2|0|0,2:0|2:0|2:0,2:0:0:0:
390,127,3429,1,0,2:0:0:0:
390,127,3782,2,0,L|453:109,2,56.5949988773575,2|0|0,2:0|2:0|2:0,2:0:0:0:
441,277,4488,2,0,L|495:292,2,56.5949988773575,2|0|0,2:0|2:0|2:0,2:0:0:0:
302,355,5194,1,0,2:0:0:0:
302,355,5371,2,0,L|310:291,1,56.5949988773575,2|0,2:0|2:0,2:0:0:0:
262,234,5724,6,0,P|239:254|192:263,2,56.5949988773575,2|0|0,2:0|2:0|2:0,2:0:0:0:
299,163,6253,1,0,2:0:0:0:
299,163,6606,2,0,P|278:144|251:134,2,56.5949988773575,2|0|0,2:0|2:0|2:0,2:0:0:0:
144,202,7312,2,0,L|134:137,2,56.5949988773575,2|0|0,2:0|2:0|2:0,2:0:0:0:
35,318,8018,1,0,2:0:0:0:
35,318,8194,2,0,P|58:297|98:296,1,56.5949988773575,2|0,2:0|2:0,2:0:0:0:
152,328,8547,2,0,L|143:384,2,56.5949988773575,2|0|0,2:0|2:0|2:0,2:0:0:0:
224,295,9076,1,0,2:0:0:0:
224,295,9429,2,0,L|233:351,2,56.5949988773575,2|0|0,2:0|2:0|2:0,2:0:0:0:
261,224,9959,6,0,P|281:205|319:200,1,56.5949988773575,0|0,1:0|2:0,2:0:0:0:
314,119,10312,2,0,P|341:120|371:145,1,56.5949988773575,0|0,1:0|2:0,2:0:0:0:
399,207,10665,1,8,1:3:0:0:
399,207,10841,1,0,1:0:0:0:
464,162,11018,2,0,L|473:68,1,84.8924983160363,12|0,2:0|2:0,2:0:0:0:
474,60,11371,6,0,P|433:23|372:37,1,106.94250252931,6|0,1:0|1:0,2:0:0:0:
369,51,11724,1,10,2:0:0:0:
323,139,11900,2,0,B|248:168|262:93|188:123,1,142.590003372414,2|0,1:0|1:0,2:0:0:0:
126,200,12429,1,10,2:0:0:0:
126,200,12606,2,0,P|65:202|60:133,1,142.590003372414,2|0,2:0|2:0,2:0:0:0:
83,121,13047,1,0,1:0:0:0:
83,121,13135,1,10,2:0:0:0:
183,124,13312,2,0,P|221:162|188:258,1,142.590003372414,2|0,1:0|1:0,2:0:0:0:
131,309,13841,2,0,P|175:287|234:328,1,106.94250252931,10|0,2:0|2:0,2:0:0:0:
230,330,14194,6,0,P|276:352|329:338,1,106.94250252931,2|0,1:0|1:0,2:0:0:0:
344,325,14547,1,10,2:0:0:0:
432,277,14724,2,0,L|456:132,1,142.590003372414,2|0,1:0|1:0,2:0:0:0:
464,40,15253,1,10,2:0:0:0:
464,40,15429,2,0,P|436:103|367:93,1,142.590003372414,2|0,2:0|2:0,2:0:0:0:
362,79,15871,1,0,1:0:0:0:
362,79,15959,1,10,2:0:0:0:
278,24,16135,1,10,2:0:0:0:
278,24,16312,2,0,B|241:50|241:50|265:89|272:152,1,142.590003372414,2|8,2:0|2:0,2:0:0:0:
202,330,17018,6,0,B|127:300|141:375|67:345,1,142.590003372414,6|10,1:0|2:0,2:0:0:0:
50,247,17547,2,0,B|94:272|94:272|123:231|178:227,1,142.590003372414,2|0,1:0|1:0,2:0:0:0:
260,272,18076,1,10,2:0:0:0:
260,272,18253,2,0,P|337:271|371:343,1,142.590003372414,2|0,2:0|2:0,2:0:0:0:
370,344,18694,1,0,1:0:0:0:
370,344,18782,1,10,2:0:0:0:
462,381,18959,2,0,P|471:309|504:227,1,142.590003372414,2|0,1:0|1:0,2:0:0:0:
427,169,19488,2,0,P|389:203|316:179,1,106.94250252931,10|0,2:0|2:0,2:0:0:0:
322,171,19841,6,0,P|270:165|231:199,1,106.94250252931,2|0,1:0|1:0,2:0:0:0:
229,224,20194,1,8,2:0:0:0:
137,182,20371,2,0,L|152:81,1,71.2950016862069,2|0,2:0|1:0,2:0:0:0:
58,65,20724,1,8,2:0:0:0:
59,79,20812,1,8,2:0:0:0:
61,93,20900,1,10,2:0:0:0:
15,181,21076,6,0,L|25:251,1,71.2950016862069,6|2,1:0|2:0,2:0:0:0:
100,326,21429,1,8,2:0:0:0:
100,326,21606,1,8,2:0:0:0:
166,251,21782,2,0,L|189:96,1,142.590003372414,4|0,1:0|1:0,2:0:0:0:
277,65,22312,2,0,L|292:184,1,106.94250252931,14|0,2:0|2:0,2:0:0:0:
294,195,22665,6,0,P|344:170|397:203,1,113.189997754715,6|8,1:0|2:0,2:0:0:0:
395,273,23194,2,0,P|345:298|292:265,1,113.189997754715,2|0,1:0|1:0,2:0:0:0:
228,233,23724,1,10,2:0:0:0:
353,136,24076,2,0,L|367:45,1,84.8924983160363,2|0,1:0|1:0,2:0:0:0:
350,34,24429,2,0,L|287:41,1,56.5949988773575,8|0,2:0|1:0,2:0:0:0:
207,173,24959,1,0,1:0:0:0:
207,173,25135,2,0,L|150:166,1,56.5949988773575,10|0,2:0|2:0,2:0:0:0:
71,160,25488,6,0,P|50:123|71:74,1,84.8924983160363,2|0,1:0|1:0,2:0:0:0:
87,76,25841,2,0,L|143:69,1,56.5949988773575,8|2,2:0|1:0,2:0:0:0:
301,57,26371,1,0,1:0:0:0:
301,57,26547,2,0,L|357:50,1,56.5949988773575,8|0,2:0|2:0,2:0:0:0:
436,41,26900,2,0,P|408:79|435:131,1,84.8924983160363,2|0,1:0|1:0,2:0:0:0:
439,129,27253,1,8,2:0:0:0:
505,171,27429,2,0,P|501:223|440:243,1,113.189997754715,10|0,2:0|1:0,2:0:0:0:
379,210,27959,1,14,2:0:0:0:
322,358,28312,6,0,P|274:334|200:328,1,113.189997754715,2|8,1:0|2:0,2:0:0:0:
191,250,28841,2,0,P|246:243|297:218,1,113.189997754715,2|0,1:0|1:0,2:0:0:0:
315,140,29371,1,10,2:0:0:0:
185,49,29724,2,0,P|213:81|213:140,1,84.8924983160363,2|0,1:0|1:0,2:0:0:0:
195,139,30076,1,8,2:0:0:0:
129,183,30253,2,0,P|93:135|30:135,1,113.189997754715,0|0,1:0|1:0,2:0:0:0:
10,202,30782,1,10,2:0:0:0:
59,263,30959,5,2,2:0:0:0:
60,274,31047,1,0,2:0:0:0:
62,285,31135,2,0,L|160:295,1,84.8924983160363,2|0,1:0|1:0,2:0:0:0:
160,314,31488,1,8,2:0:0:0:
213,373,31665,2,0,L|334:356,1,113.189997754715,2|0,1:0|1:0,2:0:0:0:
402,341,32194,1,8,2:0:0:0:
474,199,32547,5,4,1:0:0:0:
417,254,32724,1,8,2:0:0:0:
417,254,32900,2,0,L|320:240,1,84.8924983160363,8|8,3:0|2:0,2:0:0:0:
306,238,33253,2,0,P|288:211|293:177,1,56.5949988773575,8|8,2:0|3:0,2:0:0:0:
350,138,33606,1,10,3:0:0:0:
350,138,33959,6,0,B|322:17|203:51|203:51|259:35|296:85,1,295.469986023606,6|2,1:0|1:0,2:0:0:0:
181,163,35371,2,0,L|80:138,2,98.489995341202,2|0|8,1:0|2:0|2:0,2:0:0:0:
77,252,36429,1,2,2:0:0:0:
77,252,36606,1,2,2:0:0:0:
134,297,36782,2,0,P|202:232|305:257,1,196.979990682404,2|8,1:0|2:0,2:0:0:0:
432,270,37841,1,2,1:0:0:0:
490,145,38194,6,0,B|386:103|406:206|304:165,1,196.979990682404,2|10,1:0|2:0,2:0:0:0:
264,34,39253,1,0,2:0:0:0:
169,134,39606,6,0,P|126:152|68:124,2,98.489995341202,6|8|8,1:0|2:0|2:0,2:0:0:0:
264,34,40665,1,2,1:0:0:0:
390,89,41018,6,0,P|350:176|347:287,1,196.979990682404,6|8,1:0|2:0,2:0:0:0:
455,359,42076,2,0,P|439:341|403:333,1,49.244997670601,2|0,2:0|2:0,2:0:0:0:
343,362,42429,2,0,P|271:375|208:329,1,147.734993011803,2|2,1:0|2:0,2:0:0:0:
164,281,43135,2,0,L|176:176,1,98.489995341202,8|2,2:0|1:0,2:0:0:0:
46,90,43841,6,0,P|70:113|106:113,1,56.5949988773575,14|0,2:0|2:0,2:0:0:0:
162,60,44194,2,0,P|189:65|218:94,1,63.9450005366478,0|0,1:0|3:0,2:0:0:0:
219,113,44459,1,0,3:0:0:0:
219,113,44547,2,0,L|297:98,1,71.2950016862069,0|8,1:0|2:0,2:0:0:0:
319,97,44812,1,8,2:0:0:0:
319,97,44900,2,0,L|331:49,3,35.6475008431034,2|8|8|8,1:0|2:0|2:0|2:0,2:0:0:0:
337,37,45253,6,0,P|397:20|439:63,1,117.967496399918,6|0,1:0|1:0,2:0:0:0:
443,83,45606,1,8,2:0:0:0:
469,189,45782,1,0,1:0:0:0:
469,189,45959,2,0,P|440:163|388:163,1,78.6449975999451,2|0,2:0|1:0,2:0:0:0:
296,191,46312,2,0,L|310:274,1,78.6449975999451,10|0,2:0|2:0,2:0:0:0:
250,362,46665,2,0,P|208:323|139:304,1,117.967496399918,2|0,2:0|1:0,2:0:0:0:
129,325,47018,1,8,2:0:0:0:
30,374,47194,1,0,1:0:0:0:
30,374,47371,2,0,P|54:343|54:291,1,78.6449975999451,2|0,2:0|1:0,2:0:0:0:
0,210,47724,2,0,L|22:83,1,117.967496399918,10|0,2:0|2:0,2:0:0:0:
24,70,48076,6,0,P|65:34|130:64,1,117.967496399918,2|0,1:0|1:0,2:0:0:0:
127,76,48429,1,8,2:0:0:0:
155,182,48606,1,0,1:0:0:0:
155,182,48782,2,0,P|197:199|238:175,1,78.6449975999451,2|0,2:0|1:0,2:0:0:0:
239,81,49135,1,10,2:0:0:0:
239,81,49312,1,2,2:0:0:0:
317,4,49488,2,0,L|401:21,1,78.6449975999451,2|0,1:0|2:0,2:0:0:0:
490,73,49841,1,8,2:0:0:0:
474,184,50018,2,0,L|481:285,1,78.6449975999451,8|0,2:0|3:0,2:0:0:0:
482,287,50282,1,8,2:0:0:0:
482,287,50371,1,0,1:0:0:0:
397,356,50547,2,0,P|367:332|316:332,1,78.6449975999451,10|0,2:0|2:0,2:0:0:0:
226,372,50900,6,0,P|283:341|247:267,1,157.28999519989,6|8,1:0|2:0,2:0:0:0:
160,218,51429,1,0,1:0:0:0:
160,218,51606,2,0,P|188:185|229:174,1,78.6449975999451,2|0,2:0|1:0,2:0:0:0:
321,129,51959,2,0,P|284:115|260:85,1,78.6449975999451,10|0,2:0|2:0,2:0:0:0:
175,15,52312,2,0,P|115:22|84:88,1,117.967496399918,2|0,1:0|1:0,2:0:0:0:
89,89,52665,2,0,L|102:190,1,78.6449975999451,8|0,2:0|1:0,2:0:0:0:
49,265,53018,2,0,P|78:244|121:244,1,78.6449975999451,2|0,2:0|1:0,2:0:0:0:
182,334,53371,2,0,P|220:334|252:312,1,78.6449975999451,10|0,2:0|2:0,2:0:0:0:
321,225,53724,6,0,P|301:285|293:386,1,157.28999519989,2|8,1:0|2:0,2:0:0:0:
402,375,54253,1,0,1:0:0:0:
402,375,54429,2,0,P|390:338|383:289,1,78.6449975999451,2|0,2:0|1:0,2:0:0:0:
470,230,54782,2,0,P|482:193|489:144,1,78.6449975999451,10|0,2:0|2:0,2:0:0:0:
477,43,55135,2,0,P|457:74|401:88,1,78.6449975999451,12|0,2:0|3:0,2:0:0:0:
403,72,55400,1,8,2:0:0:0:
403,72,55488,2,0,P|383:41|327:27,1,78.6449975999451,0|0,1:0|1:0,2:0:0:0:
260,96,55841,1,10,2:0:0:0:
182,174,56018,1,8,3:0:0:0:
167,170,56106,1,8,3:0:0:0:
151,167,56194,1,14,2:0:0:0:
243,367,56547,6,0,L|122:350,1,117.967496399918,6|0,1:0|1:0,2:0:0:0:
111,329,56900,1,8,2:0:0:0:
81,227,57076,1,2,1:0:0:0:
81,227,57253,2,0,L|167:214,1,78.6449975999451,2|0,2:0|1:0,2:0:0:0:
212,120,57606,1,10,2:0:0:0:
212,120,57782,1,2,2:0:0:0:
262,22,57959,2,0,P|304:61|373:80,1,117.967496399918,2|0,1:0|1:0,2:0:0:0:
383,59,58312,1,8,2:0:0:0:
482,10,58488,1,2,1:0:0:0:
482,10,58665,2,0,P|458:41|458:93,1,78.6449975999451,2|0,2:0|1:0,2:0:0:0:
512,174,59018,2,0,L|490:301,1,117.967496399918,10|0,2:0|2:0,2:0:0:0:
488,314,59370,6,0,P|447:350|382:320,1,117.967496399918,2|0,1:0|1:0,2:0:0:0:
385,308,59723,1,8,2:0:0:0:
357,202,59900,1,0,1:0:0:0:
357,202,60076,2,0,P|315:185|274:209,1,78.6449975999451,2|0,2:0|1:0,2:0:0:0:
227,291,60429,1,10,2:0:0:0:
227,291,60606,1,2,2:0:0:0:
165,382,60782,2,0,P|123:383|96:354,1,78.6449975999451,2|0,1:0|2:0,2:0:0:0:
128,252,61135,1,8,2:0:0:0:
32,197,61312,2,0,L|25:96,1,78.6449975999451,8|0,2:0|2:0,2:0:0:0:
30,97,61576,1,0,3:0:0:0:
30,97,61665,1,0,1:0:0:0:
79,0,61841,1,10,2:0:0:0:
298,11,62194,6,0,P|237:31|270:117,1,157.28999519989,6|8,1:0|2:0,2:0:0:0:
352,166,62723,1,0,1:0:0:0:
352,166,62900,2,0,P|324:199|283:210,1,78.6449975999451,2|0,2:0|1:0,2:0:0:0:
191,255,63253,2,0,P|228:269|252:299,1,78.6449975999451,10|0,2:0|2:0,2:0:0:0:
337,369,63606,2,0,P|397:362|428:296,1,117.967496399918,2|0,1:0|1:0,2:0:0:0:
423,295,63959,2,0,L|410:194,1,78.6449975999451,8|0,2:0|1:0,2:0:0:0:
463,119,64312,2,0,P|434:140|391:140,1,78.6449975999451,2|0,2:0|1:0,2:0:0:0:
330,50,64665,2,0,P|292:50|260:72,1,78.6449975999451,10|0,2:0|2:0,2:0:0:0:
217,174,65018,6,0,P|167:129|69:108,1,157.28999519989,2|8,1:0|2:0,2:0:0:0:
54,214,65547,2,0,P|108:223|157:326,1,157.28999519989,0|0,1:0|1:0,2:0:0:0:
252,364,66076,2,0,P|279:336|323:318,1,78.6449975999451,10|0,2:0|1:0,2:0:0:0:
396,378,66429,6,0,P|407:268|450:158,1,213.885005058621,10|8,2:0|3:0,2:0:0:0:
385,89,67135,2,0,P|360:120|309:132,1,71.2950016862069,2|0,3:0|1:0,2:0:0:0:
260,61,67488,1,12,2:0:0:0:
101,48,67841,6,0,P|199:36|198:157,1,226.37999550943,6|8,1:0|2:0,2:0:0:0:
189,297,68900,2,0,P|219:331|273:331,1,84.8924983160363,2|0,1:0|2:0,2:0:0:0:
272,312,69253,2,0,P|300:225|423:224,1,226.37999550943,2|10,1:0|2:0,2:0:0:0:
32,41,70665,6,0,B|162:8|97:138|227:106,1,226.37999550943,2|8,1:0|2:0,2:0:0:0:
367,30,71724,2,0,P|331:54|316:110,1,84.8924983160363,2|0,1:0|2:0,2:0:0:0:
331,118,72076,2,0,P|380:118|378:217,1,169.784996632073,2|2,1:0|2:0,2:0:0:0:
305,235,72782,1,10,2:0:0:0:
504,344,73312,1,2,2:0:0:0:
445,290,73488,6,0,L|323:320,1,113.189997754715,6|8,1:0|2:0,2:0:0:0:
256,332,74018,2,0,L|194:320,1,56.5949988773575,2|8,2:0|2:0,2:0:0:0:
116,192,74547,5,2,1:0:0:0:
116,192,74724,1,2,2:0:0:0:
168,133,74900,2,0,P|232:175|294:121,1,169.784996632073,2|0,1:0|2:0,2:0:0:0:
348,63,75606,2,0,P|423:38|467:103,1,169.784996632073,10|0,2:0|2:0,2:0:0:0:
492,179,76312,2,0,P|458:239|447:300,1,113.189997754715,2|0,1:0|2:0,2:0:0:0:
298,334,77018,1,8,2:0:0:0:
180,227,77371,6,0,P|221:193|274:199,1,84.8924983160363,2|0,1:0|2:0,2:0:0:0:
270,213,77724,2,0,P|212:221|222:360,1,226.37999550943,6|2,1:0|2:0,2:0:0:0:
481,281,79135,6,0,B|380:260|409:126|409:126|287:92|236:216,1,393.959981364808,6|8,1:0|2:0,2:0:0:0:
158,306,80900,2,0,P|112:291|72:252,2,98.489995341202,0|0|2,2:0|2:0|2:0,2:0:0:0:
260,212,81959,6,0,B|89:254|174:84|4:126,1,295.469986023606,2|0,1:0|1:0,2:0:0:0:
100,27,83371,2,0,P|146:42|186:81,2,98.489995341202,8|0|2,2:0|2:0|2:0,2:0:0:0:
11,132,84429,1,2,2:0:0:0:
71,255,84782,6,0,P|86:176|103:98,2,147.734993011803,4|2|2,1:0|2:0|1:0,2:0:0:0:
185,332,86194,2,0,P|226:304|371:269,1,196.979990682404,10|0,2:0|2:0,2:0:0:0:
474,356,87253,1,2,2:0:0:0:
494,219,87606,5,2,1:0:0:0:
89,304,88665,1,0,1:0:0:0:
208,234,89018,6,0,L|222:114,1,113.189997754715,10|0,2:0|2:0,2:0:0:0:
276,65,89547,1,0,3:0:0:0:
276,65,89724,2,0,P|300:53|342:66,1,56.5949988773575,0|0,2:0|2:0,2:0:0:0:
371,123,90076,1,4,2:0:0:0:
242,275,90429,6,0,L|228:115,1,142.590003372414,4|0,1:0|1:0,2:0:0:0:
175,54,90959,1,0,2:0:0:0:
175,54,91135,2,0,P|151:37|98:37,1,71.2950016862069,0|0,1:0|2:0,2:0:0:0:
59,119,91488,1,0,1:0:0:0:
59,119,91665,1,0,2:0:0:0:
78,216,91841,2,0,L|203:229,1,106.94250252931,6|0,1:0|2:0,2:0:0:0:
197,246,92194,2,0,L|288:235,1,71.2950016862069,2|0,1:0|2:0,2:0:0:0:
341,169,92547,2,0,L|428:195,1,71.2950016862069,2|0,1:0|2:0,2:0:0:0:
418,214,92812,1,8,3:0:0:0:
418,214,92900,1,2,1:0:0:0:
489,283,93076,1,0,3:0:0:0:
415,351,93253,6,0,P|373:322|308:305,1,106.94250252931,6|0,1:0|2:0,2:0:0:0:
306,326,93606,2,0,P|274:344|224:344,1,71.2950016862069,0|0,1:0|2:0,2:0:0:0:
142,369,93959,2,0,P|106:359|70:324,1,71.2950016862069,2|0,1:0|2:0,2:0:0:0:
83,238,94312,2,0,P|63:206|62:156,1,71.2950016862069,0|0,1:0|2:0,2:0:0:0:
98,80,94665,2,0,P|133:91|169:99,1,71.2950016862069,6|0,1:0|2:0,2:0:0:0:
255,51,95018,2,0,P|289:43|323:32,1,71.2950016862069,0|0,1:0|2:0,2:0:0:0:
415,72,95371,1,0,1:0:0:0:
511,112,95547,5,12,2:0:0:0:
511,112,95724,1,12,2:0:0:0:
353,293,96076,6,0,P|364:197|396:201,1,128.992500492067,6|0,1:0|2:0,2:0:0:0:
388,200,96429,2,0,P|430:157|402:104,1,128.992500492067,2|0,1:0|2:0,2:0:0:0:
378,100,96782,2,0,L|247:120,1,128.992500492067,2|0,1:0|2:0,2:0:0:0:
234,104,97135,2,0,L|106:84,1,128.992500492067,2|0,1:0|2:0,2:0:0:0:
76,82,97488,5,6,1:0:0:0:
23,316,97841,1,2,1:0:0:0:
257,370,98194,1,2,1:0:0:0:
204,136,98547,1,2,1:0:0:0:
439,87,98900,6,0,P|409:166|389:269,1,171.99000065609,6|0,1:0|1:0,2:0:0:0:
169,156,99606,2,0,P|198:235|219:338,1,171.99000065609,2|0,1:0|1:0,2:0:0:0:
334,346,100135,5,2,2:0:0:0:
325,344,100224,1,2,2:0:0:0:
316,344,100312,2,0,P|333:259|363:179,1,171.99000065609,6|0,1:0|1:0,2:0:0:0:
159,50,101018,1,2,1:0:0:0:
256,221,101371,1,0,1:0:0:0:
373,66,101724,6,0,P|460:46|487:137,1,191.835001609943,6|0,1:0|2:0,2:0:0:0:
432,194,102429,1,8,2:0:0:0:
432,194,102606,1,0,1:0:0:0:
206,337,103135,1,4,1:0:0:0:
206,337,103312,1,0,1:0:0:0:
37,128,103841,2,0,P|37:169|64:200,1,63.9450005366478,10|0,2:0|1:0,2:0:0:0:
135,209,104194,2,0,P|135:250|108:281,1,63.9450005366478,2|0,2:0|2:0,2:0:0:0:
81,347,104547,6,0,P|133:292|250:327,1,191.835001609943,6|0,1:0|2:0,2:0:0:0:
323,283,105253,1,8,2:0:0:0:
323,283,105429,1,0,2:0:0:0:
160,75,105959,1,4,1:0:0:0:
160,75,106135,1,0,1:0:0:0:
414,160,106665,1,8,2:0:0:0:
414,160,107018,2,0,P|394:130|356:105,1,63.9450005366478,2|0,2:0|2:0,2:0:0:0:
290,148,107371,6,0,P|339:117|249:49,1,191.835001609943,6|0,1:0|2:0,2:0:0:0:
210,98,108076,1,8,2:0:0:0:
210,98,108253,1,0,1:0:0:0:
355,329,108782,1,4,1:0:0:0:
355,329,108959,1,0,1:0:0:0:
87,348,109488,1,10,2:0:0:0:
87,348,109841,2,0,L|151:326,1,63.9450005366478,2|0,2:0|2:0,2:0:0:0:
230,294,110194,6,0,P|263:273|186:186,1,191.835001609943,6|0,1:0|2:0,2:0:0:0:
112,210,110900,1,8,2:0:0:0:
112,210,111076,1,0,1:0:0:0:
126,121,111253,2,0,P|152:100|201:96,1,63.9450005366478,2|0,2:0|2:0,2:0:0:0:
244,156,111606,2,0,B|373:136|270:66|423:48,1,191.835001609943,6|0,1:0|2:0,2:0:0:0:
464,108,112312,1,8,2:0:0:0:
464,108,112488,2,0,L|451:192,2,63.9450005366478,0|0|0,1:0|2:0|2:0,2:0:0:0:
476,30,113018,6,0,P|436:62|379:48,1,113.189997754715,2|0,2:0|2:0,2:0:0:0:
96,191,114076,5,2,2:0:0:0:
96,191,114429,2,0,P|136:159|193:173,1,113.189997754715,2|0,2:0|2:0,2:0:0:0:
489,60,115488,5,2,2:0:0:0:
489,60,115841,2,0,P|445:27|392:41,1,113.189997754715,2|0,2:0|2:0,2:0:0:0:
357,112,116371,1,2,2:0:0:0:
438,335,116900,5,2,2:0:0:0:
438,335,117253,2,0,P|417:295|339:261,1,113.189997754715,2|0,2:0|2:0,2:0:0:0:
202,289,117959,2,0,P|252:264|280:216,1,113.189997754715,2|0,2:0|2:0,2:0:0:0:
226,67,118665,1,2,2:0:0:0:
497,169,119371,6,0,L|371:150,1,113.189997754715,2|0,2:0|2:0,2:0:0:0:
328,208,119900,1,2,2:0:0:0:
328,208,120076,2,0,L|216:224,1,113.189997754715,2|0,2:0|2:0,2:0:0:0:
116,100,120782,2,0,L|227:116,1,113.189997754715,2|2,2:0|2:0,2:0:0:0:
382,81,121488,6,0,P|409:57|409:13,2,56.5949988773575,2|0|0,2:0|2:0|2:0,2:0:0:0:
364,159,122018,2,0,P|399:162|432:132,2,56.5949988773575,2|0|0,2:0|2:0|2:0,2:0:0:0:
310,103,122547,1,2,2:0:0:0:
254,67,123606,5,2,2:0:0:0:
114,219,124135,5,0,2:0:0:0:
111,206,124224,1,0,2:0:0:0:
108,192,124312,1,2,2:0:0:0:
30,42,134194,6,0,B|153:20|91:123|219:95,1,198.082496070751,2|0,2:0|2:0,2:0:0:0:
214,77,134900,2,0,P|245:59|285:126,1,127.890001073296,2|2,2:0|2:0,2:0:0:0:
288,120,135606,6,0,L|267:304,1,171.99000065609,6|0,1:0|1:0,2:0:0:0:
357,372,136135,1,2,2:0:0:0:
441,286,136312,2,0,P|409:256|353:256,1,85.9950003280449,2|0,1:0|2:0,2:0:0:0:
271,322,136665,1,2,1:0:0:0:
184,238,136841,5,2,2:0:0:0:
169,228,136929,1,0,2:0:0:0:
153,219,137018,2,0,P|98:221|155:295,1,171.99000065609,2|0,1:0|1:0,2:0:0:0:
226,371,137547,1,0,2:0:0:0:
320,295,137724,2,0,P|334:243|366:146,1,128.992500492067,2|0,1:0|2:0,2:0:0:0:
341,152,138076,1,2,1:0:0:0:
385,39,138253,1,8,2:0:0:0:
475,117,138429,6,0,B|374:135|424:50|320:73,1,171.99000065609,2|0,1:0|1:0,2:0:0:0:
234,157,138959,1,0,2:0:0:0:
185,47,139135,2,0,L|49:26,1,128.992500492067,2|0,1:0|2:0,2:0:0:0:
30,45,139488,1,2,1:0:0:0:
52,163,139665,1,8,2:0:0:0:
67,282,139841,6,0,B|101:306|101:306|143:286|211:275,1,128.992500492067,2|0,1:0|2:0,2:0:0:0:
195,261,140194,2,0,P|238:267|281:283,1,85.9950003280449,8|0,2:0|2:0,2:0:0:0:
361,368,140547,2,0,P|398:340|409:279,1,85.9950003280449,0|0,1:0|3:0,2:0:0:0:
366,191,140900,5,10,2:0:0:0:
377,173,140988,1,8,2:0:0:0:
394,160,141076,1,8,2:0:0:0:
415,154,141164,1,8,2:0:0:0:
436,155,141253,2,0,P|493:166|456:88,1,171.99000065609,6|8,1:0|2:0,2:0:0:0:
357,54,141782,1,0,1:0:0:0:
238,29,141959,2,0,P|255:69|264:129,1,85.9950003280449,2|0,2:0|1:0,2:0:0:0:
159,172,142312,2,0,P|142:212|133:272,1,85.9950003280449,10|0,2:0|2:0,2:0:0:0:
227,330,142665,6,0,P|186:298|128:353,1,128.992500492067,2|0,1:0|1:0,2:0:0:0:
120,360,143018,2,0,P|70:360|52:329,1,85.9950003280449,8|0,2:0|1:0,2:0:0:0:
33,213,143371,2,0,L|25:108,1,85.9950003280449,2|0,2:0|1:0,2:0:0:0:
126,59,143724,2,0,L|132:144,1,85.9950003280449,10|0,2:0|2:0,2:0:0:0:
230,213,144076,6,0,P|265:169|343:141,1,128.992500492067,2|0,1:0|1:0,2:0:0:0:
354,155,144429,1,8,2:0:0:0:
402,265,144606,2,0,P|468:264|483:161,1,171.99000065609,0|0,1:0|1:0,2:0:0:0:
432,69,145135,1,10,2:0:0:0:
432,69,145488,6,0,L|302:47,1,128.992500492067,14|0,2:0|3:0,2:0:0:0:
280,65,145841,2,0,L|187:80,1,85.9950003280449,4|0,1:0|1:0,2:0:0:0:
99,153,146194,1,10,2:0:0:0:
208,205,146371,1,8,3:0:0:0:
210,216,146459,1,8,3:0:0:0:
213,225,146547,1,14,2:0:0:0:
213,225,146900,6,0,P|170:210|155:311,1,171.99000065609,6|8,1:0|2:0,2:0:0:0:
252,355,147429,1,2,1:0:0:0:
343,275,147606,2,0,P|350:226|366:159,1,85.9950003280449,2|0,2:0|1:0,2:0:0:0:
291,89,147959,1,10,2:0:0:0:
405,52,148135,1,0,2:0:0:0:
473,151,148312,6,0,P|488:201|498:298,1,128.992500492067,6|0,1:0|1:0,2:0:0:0:
482,301,148665,2,0,P|450:271|388:268,1,85.9950003280449,8|0,2:0|1:0,2:0:0:0:
334,357,149018,2,0,P|292:348|261:319,1,85.9950003280449,2|0,2:0|1:0,2:0:0:0:
242,199,149371,1,10,2:0:0:0:
242,199,149724,6,0,B|268:103|268:103|237:51,1,128.992500492067,2|0,1:0|1:0,2:0:0:0:
239,57,150076,1,8,2:0:0:0:
123,23,150253,1,2,1:0:0:0:
19,83,150429,2,0,P|31:126|37:185,1,85.9950003280449,2|0,2:0|1:0,2:0:0:0:
9,284,150782,2,0,P|53:306|109:251,1,128.992500492067,10|0,2:0|2:0,2:0:0:0:
109,233,151135,6,0,P|146:201|214:240,1,128.992500492067,6|0,1:0|1:0,2:0:0:0:
214,254,151488,1,8,2:0:0:0:
326,297,151665,1,8,2:0:0:0:
435,248,151841,1,0,2:0:0:0:
437,231,151929,1,0,3:0:0:0:
438,213,152018,1,0,1:0:0:0:
452,93,152194,1,14,2:0:0:0:
452,93,152547,6,0,P|398:134|337:101,1,128.992500492067,6|0,1:0|1:0,2:0:0:0:
342,92,152900,2,0,P|314:61|254:55,1,85.9950003280449,8|0,2:0|1:0,2:0:0:0:
202,149,153253,2,0,P|135:154|135:76,1,128.992500492067,2|0,2:0|2:0,2:0:0:0:
131,81,153606,2,0,P|88:74|47:106,1,85.9950003280449,10|0,2:0|2:0,2:0:0:0:
41,215,153959,6,0,P|81:264|93:333,1,128.992500492067,2|0,1:0|1:0,2:0:0:0:
79,345,154312,2,0,P|119:364|155:342,1,85.9950003280449,10|0,2:0|1:0,2:0:0:0:
208,238,154665,2,0,P|244:219|281:238,1,85.9950003280449,0|0,2:0|1:0,2:0:0:0:
365,325,155018,1,10,2:0:0:0:
365,325,155371,6,0,L|388:182,1,128.992500492067,2|0,1:0|1:0,2:0:0:0:
404,181,155724,2,0,L|393:90,1,85.9950003280449,8|0,2:0|1:0,2:0:0:0:
283,47,156076,2,0,P|240:61|223:107,1,85.9950003280449,0|0,3:0|1:0,2:0:0:0:
264,208,156429,2,0,L|253:293,1,85.9950003280449,10|2,2:0|1:0,2:0:0:0:
146,352,156782,6,0,P|115:321|60:308,1,85.9950003280449,10|8,2:0|3:0,2:0:0:0:
55,323,157047,1,0,1:0:0:0:
55,323,157135,1,12,2:0:0:0:
9,86,157488,6,0,P|40:55|95:42,1,85.9950003280449,10|8,2:0|3:0,2:0:0:0:
100,57,157753,1,0,1:0:0:0:
100,57,157841,1,12,2:0:0:0:
255,191,158194,5,6,1:0:0:0:
