osu file format v14

[General]
AudioFilename: Mili - Dandelion Girls, Dandelion Boys.mp3
AudioLeadIn: 0
PreviewTime: 124571
Countdown: 0
SampleSet: Soft
StackLeniency: 0.7
Mode: 2
LetterboxInBreaks: 0
WidescreenStoryboard: 1

[Editor]
Bookmarks: 3216,11891,17674,23457,29240,35023,46590,52373,61047,63939,69722,72614,75505,78397,84180,89963,92855,95746,101529,107312,114541,120324,126108,137674,143457,152132,160806,163698
DistanceSpacing: 1.3
BeatDivisor: 4
GridSize: 16
TimelineZoom: 2.4

[Metadata]
Title:Dandelion Girls, Dandelion Boys
TitleUnicode:Dandelion Girls, Dandelion Boys
Artist:Mili
ArtistUnicode:Mili
Creator:Benita
Version:Salad
Source:DEEMO II
Tags:benny- bennybananas english video game dandelions & bento boxes rayark
BeatmapID:3925609
BeatmapSetID:1903921

[Difficulty]
HPDrainRate:3
CircleSize:3.1
OverallDifficulty:6.8
ApproachRate:6.8
SliderMultiplier:1.6
SliderTickRate:1

[Events]
//Background and Video events
0,0,"bg.jpg",0,0
//Break Periods
2,11891,16745
2,29440,33371
2,45705,48552
2,114741,119395
//Storyboard Layer 0 (Background)
//Storyboard Layer 1 (Fail)
//Storyboard Layer 2 (Pass)
//Storyboard Layer 3 (Foreground)
//Storyboard Layer 4 (Overlay)
//Storyboard Sound Samples

[TimingPoints]
325,361.44578313253,4,2,44,20,1,0
3216,-100,4,2,44,20,0,0
11891,-100,4,2,44,20,0,0
17674,-100,4,2,44,30,0,0
23457,-100,4,2,44,40,0,0
23818,-100,4,2,44,60,0,0
24180,-100,4,2,44,40,0,0
25264,-100,4,2,44,60,0,0
25626,-100,4,2,44,40,0,0
25987,-100,4,2,44,60,0,0
26349,-100,4,2,44,40,0,0
26710,-100,4,2,44,60,0,0
27071,-100,4,2,44,40,0,0
28156,-100,4,2,44,50,0,0
28517,-100,4,2,44,40,0,0
29240,-100,4,2,44,30,0,0
34300,-100,4,2,44,30,0,0
35023,-100,4,2,44,60,0,0
38276,-100,4,2,60,60,0,0
38457,-100,4,2,44,44,0,0
39361,-100,4,2,44,60,0,0
40264,-100,4,2,44,30,0,0
40355,-100,4,2,44,35,0,0
40445,-100,4,2,44,40,0,0
40535,-100,4,2,44,45,0,0
40626,-100,4,2,44,50,0,0
40716,-100,4,2,44,60,0,0
42975,-100,4,2,60,60,0,0
43156,-100,4,2,44,60,0,0
46590,-100,4,2,44,20,0,0
49481,-100,4,2,44,24,0,0
49843,-100,4,2,44,28,0,0
50204,-100,4,2,44,32,0,0
50565,-100,4,2,44,36,0,0
50927,-100,4,2,44,40,0,0
51288,-100,4,2,44,44,0,0
51650,-100,4,2,44,48,0,0
52011,-100,4,2,44,52,0,0
52373,-100,4,2,44,60,0,0
61047,-100,4,2,44,70,0,0
63035,-100,4,2,44,30,0,0
63216,-100,4,2,44,40,0,0
63397,-100,4,2,44,50,0,0
63578,-100,4,2,44,60,0,0
63758,-100,4,2,44,70,0,0
63939,-100,4,2,44,80,0,1
67553,-100,4,2,60,80,0,1
67734,-100,4,2,44,80,0,1
69722,-100,4,2,44,20,0,0
72614,-100,4,2,44,22,0,0
73337,-100,4,2,44,24,0,0
74059,-100,4,2,44,26,0,0
74782,-100,4,2,44,28,0,0
75505,-100,4,2,44,30,0,0
76228,-100,4,2,44,34,0,0
76951,-100,4,2,44,38,0,0
77674,-100,4,2,44,42,0,0
78397,-100,4,2,44,50,0,0
78758,-100,4,2,44,70,0,0
79120,-100,4,2,44,50,0,0
80204,-100,4,2,44,70,0,0
80565,-100,4,2,44,50,0,0
81650,-100,4,2,44,70,0,0
82011,-100,4,2,44,50,0,0
84180,-100,4,2,44,60,0,0
89963,-100,4,2,44,40,0,0
91409,-100,4,2,44,45,0,0
92855,-100,4,2,44,50,0,0
94300,-100,4,2,44,55,0,0
95385,-100,4,2,44,40,0,0
95565,-100,4,2,44,50,0,0
95746,-100,4,2,44,60,0,0
98999,-100,4,2,60,60,0,0
99180,-100,4,2,44,60,0,0
100084,-100,4,2,44,60,0,0
100987,-100,4,2,44,40,0,0
101168,-100,4,2,44,50,0,0
101349,-100,4,2,44,60,0,0
101529,-100,4,2,44,70,0,0
103698,-100,4,2,60,70,0,0
103879,-100,4,2,44,70,0,0
107312,-100,4,2,44,20,0,0
110204,-100,4,2,44,22,0,0
110565,-100,4,2,44,24,0,0
110927,-100,4,2,44,26,0,0
111288,-100,4,2,44,28,0,0
111650,-100,4,2,44,32,0,0
112011,-100,4,2,44,36,0,0
112373,-100,4,2,44,40,0,0
112734,-100,4,2,44,44,0,0
113096,-100,4,2,44,50,0,0
113457,-100,4,2,44,56,0,0
113818,-100,4,2,44,62,0,0
114180,-100,4,2,44,68,0,0
114541,-100,4,2,44,70,0,0
120324,-100,4,2,44,60,0,0
120686,-100,4,2,44,60,0,0
121770,-100,4,2,44,60,0,0
122132,-100,4,2,44,60,0,0
123216,-100,4,2,44,60,0,0
123578,-100,4,2,44,60,0,0
124662,-100,4,2,44,60,0,0
125204,-100,4,2,44,40,0,0
125385,-100,4,2,44,50,0,0
125565,-100,4,2,44,60,0,0
125746,-100,4,2,44,70,0,0
125927,-100,4,2,44,80,0,0
126108,-100,4,2,44,80,0,1
129722,-100,4,2,60,80,0,1
129903,-100,4,2,44,80,0,1
136228,-100,4,2,44,80,0,1
137312,-100,4,2,44,80,0,1
137674,-100,4,2,44,100,0,1
141288,-100,4,2,60,100,0,1
141469,-100,4,2,44,100,0,1
143457,-100,4,2,44,40,0,0
152132,-100,4,2,44,20,0,0
160806,-100,4,2,44,15,0,0
165144,-100,4,2,44,13,0,0
166590,-100,4,2,44,12,0,0
168035,-100,4,2,44,10,0,0
168758,-100,4,2,44,7,0,0
169481,-100,4,2,44,5,0,0

[Colours]
Combo1 : 219,167,11
Combo2 : 179,89,0
Combo3 : 255,98,21

[HitObjects]
167,266,325,5,2,0:2:0:0:
378,262,1770,5,2,0:2:0:0:
138,293,3216,6,0,P|93:259|136:171,1,160,14|0,0:2|0:2,0:0:0:0:
223,158,3758,1,0,0:2:0:0:
321,153,3939,2,0,L|497:152,1,160,14|0,0:2|0:2,0:0:0:0:
208,263,4662,6,0,L|29:258,1,160,14|0,0:2|0:2,0:0:0:0:
211,234,5385,2,0,L|211:147,1,80,8|4,0:2|1:2,0:0:0:0:
48,148,5927,1,0,0:2:0:0:
48,148,6108,6,0,L|237:147,1,160,14|0,0:2|0:2,0:0:0:0:
306,144,6650,1,0,0:2:0:0:
404,142,6831,1,6,1:2:0:0:
241,109,7192,1,0,0:2:0:0:
404,142,7553,6,0,L|411:229,1,80,10|0,0:2|0:2,0:0:0:0:
187,282,8276,2,0,L|351:283,1,160,0|6,0:2|1:2,0:0:0:0:
256,192,8999,12,0,10445,0:2:0:0:
395,297,17674,6,0,P|438:268|375:183,1,160,12|0,1:2|0:2,0:0:0:0:
132,209,18397,2,0,L|389:207,1,240,0|8,1:2|0:2,0:0:0:0:
371,207,19120,5,8,0:2:0:0:
253,223,19391,2,0,L|37:222,1,200,0|0,0:2|1:2,0:0:0:0:
203,129,20204,1,0,0:2:0:0:
474,200,20565,5,8,0:2:0:0:
474,200,20746,2,0,L|285:199,1,160,0|0,0:2|0:2,0:0:0:0:
216,200,21288,1,0,1:2:0:0:
413,269,21650,2,0,L|498:268,1,80,0|8,0:2|0:2,0:0:0:0:
413,269,22011,6,0,L|101:180,1,320,8|0,0:2|1:2,0:0:0:0:
306,196,23096,1,0,0:2:0:0:
39,184,23457,6,0,L|221:179,1,160,12|2,0:2|0:2,0:0:0:0:
361,170,24180,2,0,L|183:166,1,160,0|2,0:2|0:2,0:0:0:0:
469,89,24903,6,0,L|480:256,1,160,12|2,0:2|0:2,0:0:0:0:
286,299,25626,1,0,0:2:0:0:
365,298,25806,1,0,0:2:0:0:
445,298,25987,1,2,0:2:0:0:
179,315,26349,6,0,L|-9:307,1,160,12|2,0:2|0:2,0:0:0:0:
80,292,26891,1,0,0:2:0:0:
325,235,27433,1,2,0:2:0:0:
48,182,27794,5,12,0:2:0:0:
48,182,27975,2,0,L|304:182,1,240,0|0,0:2|0:0,0:0:0:0:
125,124,28879,1,0,0:2:0:0:
391,103,29240,5,6,0:2:0:0:
191,300,34300,6,0,L|377:296,1,160,8|0,0:2|0:2,0:0:0:0:
81,220,35023,6,0,L|321:223,2,240,12|0|0,0:2|1:2|1:2,0:0:0:0:
245,176,36469,6,0,L|505:172,2,240,8|0|0,0:2|1:2|1:2,0:0:0:0:
405,247,37915,6,0,L|165:250,2,240,8|0|0,0:2|0:2|1:2,0:0:0:0:
140,293,39361,6,0,P|94:249|160:173,1,160,12|12,0:2|0:2,0:0:0:0:
314,159,40084,1,12,0:2:0:0:
134,175,40445,1,12,0:2:0:0:
400,234,40806,6,0,L|140:230,2,240,12|0|0,0:2|0:2|1:2,0:0:0:0:
236,195,42252,6,0,L|496:191,2,240,8|0|4,0:2|1:2|1:2,0:0:0:0:
76,267,43698,6,0,P|40:230|95:147,1,160,8|8,0:2|0:2,0:0:0:0:
245,147,44421,1,8,0:2:0:0:
86,148,44782,1,0,1:2:0:0:
356,256,45144,5,12,0:2:0:0:
82,270,45505,1,12,0:2:0:0:
256,192,49481,12,12,52373,0:2:0:0:
375,201,53818,5,12,0:2:0:0:
135,199,55084,5,0,1:2:0:0:
135,199,55174,1,0,1:2:0:0:
135,199,55264,1,12,0:2:0:0:
388,198,56710,5,12,0:2:0:0:
388,198,57071,1,2,0:2:0:0:
388,198,57794,1,2,0:2:0:0:
114,197,58156,1,12,0:2:0:0:
114,197,58698,1,8,0:2:0:0:
114,197,59059,1,8,0:2:0:0:
114,197,59421,1,8,0:2:0:0:
275,193,59602,5,12,0:2:0:0:
368,278,61047,6,0,L|185:274,1,160,12|8,0:2|0:2,0:0:0:0:
44,252,61770,2,0,L|209:243,1,160,8|8,0:2|0:2,0:0:0:0:
476,195,62493,5,8,1:2:0:0:
317,133,62855,1,4,1:2:0:0:
476,195,63216,2,0,P|482:144|382:79,1,160,0|0,1:2|1:2,0:0:0:0:
119,107,63939,6,0,P|75:132|131:234,1,160,12|8,0:2|0:2,0:0:0:0:
191,239,64481,1,0,1:2:0:0:
282,249,64662,2,0,L|447:238,1,160,8|8,0:2|0:2,0:0:0:0:
138,280,65385,6,0,L|145:121,1,160,12|8,0:2|0:2,0:0:0:0:
284,234,66108,2,0,L|456:222,1,160,8|0,0:2|1:2,0:0:0:0:
444,222,66650,1,0,1:2:0:0:
284,209,66831,6,0,L|112:209,1,160,12|8,0:2|0:2,0:0:0:0:
124,209,67373,1,0,1:2:0:0:
382,241,67915,2,0,L|383:152,1,80,12|8,0:2|0:2,0:0:0:0:
222,153,68276,2,0,L|52:150,1,160,12|8,0:2|1:2,0:0:0:0:
227,126,68999,2,0,L|411:113,1,160,8|8,0:2|0:2,0:0:0:0:
109,76,69722,5,14,0:2:0:0:
109,76,71168,5,10,0:2:0:0:
109,76,72614,5,4,0:2:0:0:
256,192,73156,12,2,76228,0:2:0:0:
165,202,76951,5,2,0:2:0:0:
368,205,77674,1,2,0:2:0:0:
73,317,78397,6,0,P|44:286|92:179,1,160,4|0,0:2|0:2,0:0:0:0:
156,180,78939,1,0,0:2:0:0:
236,181,79120,2,0,L|396:169,1,160,4|0,1:2|0:2,0:0:0:0:
69,225,79843,6,0,L|241:224,1,160,4|0,0:2|0:2,0:0:0:0:
387,248,80565,2,0,L|264:243,2,120,4|0|0,1:2|0:2|0:2,0:0:0:0:
227,306,81288,6,0,P|164:237|207:171,1,160,4|0,0:2|0:2,0:0:0:0:
343,270,82011,2,0,L|515:252,1,160,4|0,1:2|0:2,0:0:0:0:
227,235,82734,5,4,0:2:0:0:
355,232,83005,2,0,P|386:194|282:103,1,200,0|4,0:2|0:2,0:0:0:0:
147,152,83818,1,0,0:0:0:0:
425,289,84180,6,0,P|446:236|374:154,1,160,4|0,0:2|1:2,0:0:0:0:
219,128,84903,2,0,L|211:215,1,80,0|0,0:2|1:2,0:0:0:0:
385,225,85445,6,0,L|391:305,1,80,0|4,0:2|0:2,0:0:0:0:
121,290,85987,2,0,L|376:267,1,240,0|0,1:2|1:2,0:0:0:0:
200,174,86891,1,0,0:2:0:0:
200,174,87071,6,0,L|295:171,1,80,4|0,0:2|0:2,0:0:0:0:
189,120,87433,2,0,L|26:118,1,160,0|0,1:2|0:2,0:0:0:0:
190,190,87975,2,0,L|371:182,1,160,0|0,1:2|0:2,0:0:0:0:
432,181,88517,5,4,0:2:0:0:
158,263,88879,2,0,L|408:251,1,240,0|4,1:2|1:2,0:0:0:0:
129,177,89963,5,10,0:2:0:0:
211,290,90867,1,8,0:2:0:0:
289,281,91047,2,0,L|293:182,1,80,8|8,0:2|0:2,0:0:0:0:
131,186,91409,6,0,P|97:165|135:72,1,160,0|8,1:2|0:2,0:0:0:0:
218,110,91951,2,0,L|56:112,1,160,0|8,1:2|0:2,0:0:0:0:
137,69,92493,1,8,0:2:0:0:
218,65,92674,1,8,0:2:0:0:
379,153,92855,6,0,P|416:175|367:259,1,160,0|8,1:2|0:2,0:0:0:0:
291,263,93397,2,0,L|117:261,1,160,0|8,1:2|0:2,0:0:0:0:
47,258,93939,1,8,0:2:0:0:
127,199,94120,1,8,0:2:0:0:
288,211,94300,6,0,L|460:207,1,160,0|0,1:2|0:2,0:0:0:0:
368,138,94843,1,0,1:2:0:0:
192,212,95204,2,0,L|190:118,1,80,8|0,0:0|0:0,0:0:0:0:
271,127,95565,1,0,1:2:0:0:
431,220,95746,6,0,L|189:224,2,240,12|0|8,0:2|0:2|1:2,0:0:0:0:
267,176,97192,6,0,P|170:133|118:-6,2,240,12|0|8,0:2|0:2|1:2,0:0:0:0:
107,247,98638,6,0,P|217:213|261:95,2,240,12|0|8,0:2|0:2|1:2,0:0:0:0:
352,295,100084,6,0,P|398:251|332:175,1,160,12|12,0:2|0:2,0:0:0:0:
165,157,100807,1,12,0:2:0:0:
358,177,101168,1,0,1:2:0:0:
112,234,101529,6,0,L|372:230,2,240,12|0|8,0:2|0:2|1:2,0:0:0:0:
276,195,102975,6,0,L|16:191,2,240,12|0|4,0:2|1:2|1:2,0:0:0:0:
436,267,104421,6,0,P|472:230|417:147,1,160,12|8,0:2|0:2,0:0:0:0:
267,147,105144,1,8,0:2:0:0:
426,148,105505,1,0,1:2:0:0:
162,248,105867,5,12,0:2:0:0:
430,270,106228,1,12,0:2:0:0:
341,230,107312,5,8,0:2:0:0:
342,229,108758,5,8,0:2:0:0:
342,229,110204,5,10,0:2:0:0:
256,192,110565,12,6,114541,0:2:0:0:
143,261,120324,6,0,L|329:258,1,160,12|2,0:2|0:2,0:0:0:0:
383,257,120867,1,0,0:2:0:0:
183,240,121228,1,0,0:2:0:0:
99,244,121409,2,0,L|96:158,1,80,2|0,0:2|0:2,0:0:0:0:
258,153,121770,6,0,L|426:150,1,160,12|2,0:2|0:2,0:0:0:0:
142,142,122855,1,2,0:2:0:0:
414,258,123216,6,0,L|222:254,1,160,12|0,0:2|1:2,0:0:0:0:
414,204,123758,2,0,P|463:177|402:106,1,160,12|0,0:2|1:2,0:0:0:0:
336,99,124300,1,8,0:2:0:0:
77,268,124662,6,0,L|261:268,1,160,12|12,0:2|1:2,0:0:0:0:
396,93,125385,2,0,P|441:117|388:204,1,160,0|0,1:2|1:2,0:0:0:0:
113,107,126108,6,0,P|69:132|125:234,1,160,12|8,0:2|0:2,0:0:0:0:
184,239,126650,1,0,1:2:0:0:
282,249,126831,2,0,L|447:238,1,160,8|8,0:2|0:2,0:0:0:0:
123,320,127554,6,0,L|130:161,1,160,12|8,0:2|0:2,0:0:0:0:
284,234,128277,2,0,L|456:222,1,160,8|0,0:2|1:2,0:0:0:0:
444,222,128819,1,0,1:2:0:0:
283,209,129000,6,0,L|111:209,1,160,12|8,0:2|0:2,0:0:0:0:
123,209,129542,1,0,1:2:0:0:
382,241,130084,2,0,L|383:152,1,80,8|0,0:2|0:2,0:0:0:0:
223,168,130445,6,0,L|53:165,1,160,12|0,0:2|1:2,0:0:0:0:
226,138,131168,2,0,L|410:125,1,160,8|0,0:2|1:2,0:0:0:0:
101,74,131891,6,0,P|65:114|109:201,1,160,12|8,0:2|0:2,0:0:0:0:
185,203,132433,1,0,0:2:0:0:
345,214,132614,2,0,L|520:206,1,160,0|0,1:2|0:2,0:0:0:0:
342,166,133337,5,12,0:2:0:0:
262,169,133517,2,0,L|93:173,1,160,0|0,1:2|0:2,0:0:0:0:
265,76,134059,2,0,L|277:161,1,80,0|8,1:2|0:2,0:0:0:0:
196,184,134421,2,0,L|193:264,1,80,8|8,0:2|0:2,0:0:0:0:
357,278,134782,6,0,L|526:273,2,160,12|12|8,1:2|1:2|0:2,0:0:0:0:
196,299,135686,2,0,P|150:270|194:182,1,160,12|0,1:2|0:2,0:0:0:0:
264,182,136228,6,0,L|271:270,1,80,0|8,1:2|0:2,0:0:0:0:
169,265,136590,2,0,L|161:349,1,80,0|8,1:2|0:2,0:0:0:0:
262,322,136951,1,0,1:2:0:0:
359,308,137132,1,0,1:2:0:0:
200,263,137312,2,0,L|195:181,1,80,12|0,1:2|0:2,0:0:0:0:
356,176,137674,6,0,P|458:132|465:70,1,160,12|8,0:2|0:2,0:0:0:0:
387,66,138216,1,0,0:2:0:0:
302,62,138397,2,0,L|106:68,1,160,8|8,0:2|1:2,0:0:0:0:
417,148,139120,2,0,P|474:185|433:269,1,160,8|8,0:2|0:2,0:0:0:0:
280,302,139843,2,0,L|473:310,1,160,8|8,0:2|1:2,0:0:0:0:
358,235,140385,1,0,1:2:0:0:
196,236,140565,6,0,L|28:224,1,160,12|8,0:2|1:2,0:0:0:0:
36,224,141108,1,0,0:2:0:0:
209,178,141469,1,0,0:2:0:0:
294,204,141650,2,0,L|300:298,1,80,0|0,1:2|0:2,0:0:0:0:
136,317,142011,6,0,P|94:289|146:197,1,160,12|0,0:2|1:2,0:0:0:0:
425,182,142734,2,0,P|456:211|404:302,1,160,0|0,1:2|1:2,0:0:0:0:
143,302,143457,5,14,0:2:0:0:
143,302,144903,5,10,0:2:0:0:
143,302,146349,5,0,0:2:0:0:
256,192,147794,12,2,152132,0:2:0:0:
328,224,153578,5,2,0:2:0:0:
134,211,155023,5,2,0:2:0:0:
353,215,156469,5,2,0:2:0:0:
128,199,157915,5,2,0:2:0:0:
354,196,159361,5,2,0:2:0:0:
112,207,160806,5,2,0:2:0:0:
374,210,163698,5,2,0:2:0:0:
256,192,164059,12,0,169481,0:2:0:0:
