osu file format v14

[General]
AudioFilename: Mili - Dandelion Girls, Dandelion Boys.mp3
AudioLeadIn: 0
PreviewTime: 124571
Countdown: 0
SampleSet: Soft
StackLeniency: 0.7
Mode: 2
LetterboxInBreaks: 0
WidescreenStoryboard: 1

[Editor]
Bookmarks: 3216,11891,17674,23457,29240,35023,46590,52373,61047,63939,69722,72614,75505,78397,84180,89963,92855,95746,101529,107312,114541,120324,126108,137674,143457,152132,160806,163698
DistanceSpacing: 1.3
BeatDivisor: 4
GridSize: 8
TimelineZoom: 2.4

[Metadata]
Title:Dandelion Girls, Dandelion Boys
TitleUnicode:Dandelion Girls, Dandelion Boys
Artist:Mili
ArtistUnicode:Mili
Creator:Benita
Version:Platter
Source:DEEMO II
Tags:benny- bennybananas english video game dandelions & bento boxes rayark
BeatmapID:3925608
BeatmapSetID:1903921

[Difficulty]
HPDrainRate:4
CircleSize:3.6
OverallDifficulty:7.8
ApproachRate:7.8
SliderMultiplier:1.8
SliderTickRate:1

[Events]
//Background and Video events
0,0,"bg.jpg",0,0
//Break Periods
2,11891,16895
2,29440,33521
2,46590,48702
2,114741,119545
//Storyboard Layer 0 (Background)
//Storyboard Layer 1 (Fail)
//Storyboard Layer 2 (Pass)
//Storyboard Layer 3 (Foreground)
//Storyboard Layer 4 (Overlay)
//Storyboard Sound Samples

[TimingPoints]
325,361.44578313253,4,2,44,20,1,0
3216,-100,4,2,44,20,0,0
11891,-100,4,2,44,20,0,0
17674,-100,4,2,44,30,0,0
23457,-100,4,2,44,40,0,0
23818,-100,4,2,44,60,0,0
24180,-100,4,2,44,40,0,0
25264,-100,4,2,44,60,0,0
25626,-100,4,2,44,40,0,0
25987,-100,4,2,44,60,0,0
26349,-100,4,2,44,40,0,0
26710,-100,4,2,44,60,0,0
27071,-100,4,2,44,40,0,0
28156,-100,4,2,44,50,0,0
28517,-100,4,2,44,40,0,0
29240,-100,4,2,44,30,0,0
34300,-100,4,2,44,30,0,0
35023,-100,4,2,44,60,0,0
38276,-100,4,2,60,60,0,0
38457,-100,4,2,44,44,0,0
39361,-100,4,2,44,60,0,0
40264,-100,4,2,44,30,0,0
40355,-100,4,2,44,35,0,0
40445,-100,4,2,44,40,0,0
40535,-100,4,2,44,45,0,0
40626,-100,4,2,44,50,0,0
40716,-100,4,2,44,60,0,0
42975,-100,4,2,60,60,0,0
43156,-100,4,2,44,60,0,0
46590,-100,4,2,44,20,0,0
49481,-100,4,2,44,24,0,0
49843,-100,4,2,44,28,0,0
50204,-100,4,2,44,32,0,0
50565,-100,4,2,44,36,0,0
50927,-100,4,2,44,40,0,0
51288,-100,4,2,44,44,0,0
51650,-100,4,2,44,48,0,0
52011,-100,4,2,44,52,0,0
52373,-100,4,2,44,60,0,0
61047,-100,4,2,44,70,0,0
63035,-100,4,2,44,30,0,0
63216,-100,4,2,44,40,0,0
63397,-100,4,2,44,50,0,0
63578,-100,4,2,44,60,0,0
63758,-100,4,2,44,70,0,0
63939,-100,4,2,44,80,0,1
67553,-100,4,2,60,80,0,1
67734,-100,4,2,44,80,0,1
69722,-100,4,2,44,20,0,0
72614,-100,4,2,44,22,0,0
73337,-100,4,2,44,24,0,0
74059,-100,4,2,44,26,0,0
74782,-100,4,2,44,28,0,0
75505,-100,4,2,44,30,0,0
76228,-100,4,2,44,34,0,0
76951,-100,4,2,44,38,0,0
77674,-100,4,2,44,42,0,0
78397,-100,4,2,44,50,0,0
78758,-100,4,2,44,70,0,0
79120,-100,4,2,44,50,0,0
80204,-100,4,2,44,70,0,0
80565,-100,4,2,44,50,0,0
81650,-100,4,2,44,70,0,0
82011,-100,4,2,44,50,0,0
84180,-100,4,2,44,60,0,0
89963,-100,4,2,44,40,0,0
91409,-100,4,2,44,45,0,0
92855,-100,4,2,44,50,0,0
94300,-100,4,2,44,55,0,0
95385,-100,4,2,44,40,0,0
95565,-100,4,2,44,50,0,0
95746,-100,4,2,44,60,0,0
98999,-100,4,2,60,60,0,0
99180,-100,4,2,44,60,0,0
100084,-100,4,2,44,60,0,0
100987,-100,4,2,44,40,0,0
101168,-100,4,2,44,50,0,0
101349,-100,4,2,44,60,0,0
101529,-100,4,2,44,70,0,0
103698,-100,4,2,60,70,0,0
103879,-100,4,2,44,70,0,0
107312,-100,4,2,44,20,0,0
110204,-100,4,2,44,22,0,0
110565,-100,4,2,44,24,0,0
110927,-100,4,2,44,26,0,0
111288,-100,4,2,44,28,0,0
111650,-100,4,2,44,32,0,0
112011,-100,4,2,44,36,0,0
112373,-100,4,2,44,40,0,0
112734,-100,4,2,44,44,0,0
113096,-100,4,2,44,50,0,0
113457,-100,4,2,44,56,0,0
113818,-100,4,2,44,62,0,0
114180,-100,4,2,44,68,0,0
114541,-100,4,2,44,70,0,0
120324,-100,4,2,44,60,0,0
120686,-100,4,2,44,60,0,0
121770,-100,4,2,44,60,0,0
122132,-100,4,2,44,60,0,0
123216,-100,4,2,44,60,0,0
123578,-100,4,2,44,60,0,0
124662,-100,4,2,44,60,0,0
125204,-100,4,2,44,40,0,0
125385,-100,4,2,44,50,0,0
125565,-100,4,2,44,60,0,0
125746,-100,4,2,44,70,0,0
125927,-100,4,2,44,80,0,0
126108,-100,4,2,44,80,0,1
129722,-100,4,2,60,80,0,1
129903,-100,4,2,44,80,0,1
136228,-100,4,2,44,80,0,1
137312,-100,4,2,44,80,0,1
137674,-100,4,2,44,100,0,1
141288,-100,4,2,60,100,0,1
141469,-100,4,2,44,100,0,1
143457,-100,4,2,44,40,0,0
152132,-100,4,2,44,20,0,0
160806,-100,4,2,44,15,0,0
165144,-100,4,2,44,13,0,0
166590,-100,4,2,44,12,0,0
168035,-100,4,2,44,10,0,0
168758,-100,4,2,44,7,0,0
169481,-100,4,2,44,5,0,0

[Colours]
Combo1 : 219,167,11
Combo2 : 179,89,0
Combo3 : 255,98,21

[HitObjects]
415,213,325,5,2,0:2:0:0:
218,310,867,1,0,0:2:0:0:
316,285,1047,1,0,0:2:0:0:
343,197,1228,1,0,0:2:0:0:
316,285,1409,1,0,0:2:0:0:
218,310,1590,1,0,0:2:0:0:
368,337,1770,5,2,0:2:0:0:
485,204,2132,2,0,L|287:196,2,180,2|2|2,0:2|0:2|0:2,0:0:0:0:
30,207,3216,6,0,L|196:184,2,135,14|0|0,0:2|0:0|0:2,0:0:0:0:
174,218,3939,2,0,L|171:333,1,90,14|0,0:2|0:2,0:0:0:0:
79,223,4300,2,0,L|34:119,1,90,0|0,0:2|0:2,0:0:0:0:
288,136,4662,6,0,L|496:131,1,180,14|0,0:2|0:2,0:0:0:0:
199,191,5385,1,8,0:2:0:0:
199,191,5565,2,0,L|386:191,1,180,4|0,1:2|0:2,0:0:0:0:
101,147,6108,6,0,P|12:217|103:318,1,270,14|0,0:2|0:2,0:0:0:0:
353,321,6831,1,6,1:2:0:0:
212,313,7192,1,0,0:2:0:0:
171,295,7282,1,0,0:2:0:0:
151,256,7372,1,0,0:2:0:0:
162,213,7463,1,0,0:2:0:0:
199,188,7553,6,0,L|321:186,1,90,10|0,0:2|0:2,0:0:0:0:
107,126,8096,1,0,0:0:0:0:
107,126,8276,2,0,L|308:124,1,180,0|6,0:2|1:2,0:0:0:0:
256,192,8999,12,0,10445,0:2:0:0:
334,265,17674,6,0,L|127:253,1,180,12|0,1:2|0:2,0:0:0:0:
64,245,18216,1,0,0:2:0:0:
208,141,18397,2,0,P|236:234|201:271,1,120,0|0,1:2|0:2,0:0:0:0:
48,240,18939,2,0,L|49:351,1,90,8|8,0:2|0:2,0:0:0:0:
213,332,19391,2,0,L|-7:258,1,225,0|0,0:2|1:2,0:0:0:0:
199,277,20204,2,0,L|205:172,1,90,0|0,0:2|0:0,0:0:0:0:
59,146,20565,5,8,0:2:0:0:
59,146,20746,2,0,L|263:150,1,180,0|0,0:2|0:2,0:0:0:0:
384,160,21288,2,0,P|432:203|374:289,1,180,0|0,1:2|0:2,0:0:0:0:
291,295,21831,1,8,0:2:0:0:
147,161,22011,5,8,0:2:0:0:
238,158,22192,2,0,L|522:161,1,270,0|0,0:2|1:2,0:0:0:0:
362,277,22915,2,0,L|358:177,1,90,0|0,0:2|0:2,0:0:0:0:
450,159,23276,1,0,0:2:0:0:
180,277,23457,6,0,P|121:237|200:166,1,180,12|2,0:2|0:2,0:0:0:0:
260,168,23999,2,0,P|296:167|258:310,1,270,0|2,0:2|0:2,0:0:0:0:
172,307,24722,1,0,0:2:0:0:
319,305,24903,6,0,L|512:300,1,180,12|2,0:2|0:2,0:0:0:0:
319,262,25626,2,0,L|218:252,2,90,0|0|2,0:2|0:2|0:2,0:0:0:0:
34,226,26349,6,0,L|231:227,1,180,12|2,0:2|0:2,0:0:0:0:
124,122,26891,2,0,P|35:209|117:315,1,270,0|2,0:2|0:2,0:0:0:0:
392,304,27794,6,0,L|386:192,1,90,12|0,0:2|0:2,0:0:0:0:
163,266,28879,2,0,L|153:166,1,90,0|2,0:2|0:2,0:0:0:0:
395,246,29240,5,6,0:2:0:0:
324,254,34300,5,8,0:2:0:0:
124,293,35023,6,0,P|67:258|150:183,1,180,12|8,0:2|0:2,0:0:0:0:
206,179,35565,2,0,L|392:184,1,180,0|0,1:2|0:2,0:0:0:0:
296,105,36108,1,0,1:2:0:0:
207,91,36288,1,0,0:2:0:0:
483,241,36469,6,0,P|490:181|395:108,1,180,8|8,0:2|0:2,0:0:0:0:
316,115,37011,2,0,L|504:122,1,180,0|0,1:2|0:2,0:0:0:0:
405,67,37553,1,0,1:2:0:0:
496,75,37734,1,0,0:2:0:0:
352,189,37915,5,8,0:2:0:0:
262,189,38096,2,0,L|469:188,1,180,0|0,0:2|0:2,0:0:0:0:
297,170,38638,2,0,L|193:155,1,90,8|0,0:2|0:2,0:0:0:0:
352,126,38999,2,0,L|481:120,1,90,0|0,1:2|0:2,0:0:0:0:
192,196,39361,6,0,L|92:202,1,90,12|0,0:2|0:0,0:0:0:0:
400,249,39722,2,0,L|500:262,1,90,12|0,0:2|0:0,0:0:0:0:
184,301,40084,2,0,L|73:301,1,90,12|0,0:2|1:2,0:0:0:0:
194,220,40445,1,12,0:2:0:0:
149,218,40535,1,0,1:2:0:0:
104,217,40625,1,0,1:2:0:0:
390,293,40806,6,0,P|444:260|365:173,1,180,12|0,0:2|0:2,0:0:0:0:
309,161,41349,2,0,L|120:150,1,180,0|0,0:2|0:2,0:0:0:0:
274,98,41891,2,0,L|402:90,1,90,0|0,1:2|0:2,0:0:0:0:
219,266,42252,6,0,L|114:259,2,90,8|0|8,0:2|0:2|1:2,0:0:0:0:
493,227,42794,2,0,L|282:218,1,180,0|0,1:2|0:2,0:0:0:0:
164,191,43337,2,0,L|282:183,1,90,4|0,1:2|0:2,0:0:0:0:
398,114,43698,6,0,P|436:162|380:258,1,180,8|8,0:2|0:2,0:0:0:0:
177,264,44421,2,0,L|175:162,1,90,8|0,0:2|0:2,0:0:0:0:
320,165,44782,2,0,L|420:164,1,90,0|0,1:2|0:2,0:0:0:0:
160,144,45144,6,0,L|48:139,1,90,12|0,0:2|0:0,0:0:0:0:
341,311,45505,2,0,P|414:279|316:147,1,270,12|2,0:2|0:2,0:0:0:0:
305,136,46138,1,2,0:2:0:0:
251,134,46228,1,2,0:2:0:0:
97,247,49481,5,0,0:2:0:0:
97,247,49843,1,0,0:2:0:0:
97,247,50204,1,0,0:2:0:0:
97,247,50565,1,0,0:2:0:0:
288,245,50927,5,2,0:2:0:0:
97,247,51288,1,2,0:2:0:0:
288,245,51650,1,2,0:2:0:0:
477,244,52011,1,2,0:2:0:0:
35,244,52373,6,0,P|55:137|402:269,1,630,12|0,0:2|0:2,0:0:0:0:
149,232,53818,6,0,B|150:78|150:78|219:64|295:72|333:97|379:180|358:256|305:284|202:287|155:284,1,630,12|0,0:2|1:2,0:0:0:0:
404,280,55264,6,0,B|485:272|510:171|506:61|264:87|264:87|498:81,1,630,12|0,0:2|0:2,0:0:0:0:
189,102,56710,2,0,L|-7:102,1,180,12|2,0:2|0:2,0:0:0:0:
312,255,57433,2,0,L|501:248,1,180,0|2,0:2|0:2,0:0:0:0:
42,269,58156,6,0,P|32:198|181:96,1,270,12|8,0:2|0:2,0:0:0:0:
405,106,59059,2,0,P|457:201|413:231,1,180,8|8,0:2|0:2,0:0:0:0:
159,137,59602,2,0,B|157:178|157:216|159:250|166:268|182:286|210:299|242:304|319:311|394:318|394:318|108:318,1,630,12|0,0:2|0:2,0:0:0:0:
421,319,61047,6,0,P|456:256|408:166,1,180,12|8,0:2|0:2,0:0:0:0:
319,152,61590,1,0,0:2:0:0:
229,141,61770,1,8,0:2:0:0:
319,152,61951,1,8,0:2:0:0:
409,167,62132,1,8,0:2:0:0:
499,184,62312,1,0,1:2:0:0:
222,276,62493,6,0,L|121:274,1,90,8|0,1:2|0:2,0:0:0:0:
403,224,62855,2,0,L|521:215,1,90,4|8,1:2|0:2,0:0:0:0:
222,321,63216,1,0,1:2:0:0:
177,317,63306,1,0,1:2:0:0:
142,291,63396,1,8,0:2:0:0:
127,249,63487,1,8,0:2:0:0:
139,206,63577,1,0,1:2:0:0:
171,176,63667,1,0,1:2:0:0:
215,170,63758,1,8,0:2:0:0:
486,232,63939,6,0,B|485:125|485:125|396:122,1,180,12|8,0:2|0:2,0:0:0:0:
323,118,64481,1,0,1:2:0:0:
179,214,64662,2,0,L|376:201,1,180,8|8,0:2|0:2,0:0:0:0:
450,197,65204,1,8,0:2:0:0:
179,311,65385,6,0,B|179:215|179:215|280:212,1,180,12|8,0:2|0:2,0:0:0:0:
354,210,65927,1,0,1:2:0:0:
498,278,66108,2,0,L|294:280,1,180,8|0,0:2|1:2,0:0:0:0:
409,206,66650,1,0,1:2:0:0:
136,212,66831,6,0,L|17:208,2,90,12|0|8,0:2|0:2|0:2,0:0:0:0:
281,266,67373,2,0,L|73:285,1,180,0|0,1:2|1:2,0:0:0:0:
246,176,67915,2,0,L|342:185,1,90,12|8,0:2|0:2,0:0:0:0:
64,257,68276,6,0,P|19:225|85:134,1,180,12|8,0:2|1:2,0:0:0:0:
158,130,68818,1,0,0:2:0:0:
303,145,68999,2,0,L|105:118,1,180,8|8,0:2|0:2,0:0:0:0:
377,96,69722,5,14,0:2:0:0:
256,192,69903,12,10,71168,0:2:0:0:
176,219,72614,5,4,0:2:0:0:
176,219,73337,1,0,0:2:0:0:
176,219,74059,1,0,0:2:0:0:
176,219,74782,1,0,0:2:0:0:
391,214,75505,5,2,0:2:0:0:
176,218,76228,1,2,0:2:0:0:
391,214,76951,2,0,P|400:144|240:41,1,270,2|0,0:2|0:2,0:0:0:0:
112,257,77674,2,0,P|53:209|161:97,1,270,2|0,0:2|0:2,0:0:0:0:
427,303,78397,6,0,P|463:264|376:181,1,180,4|0,0:2|0:2,0:0:0:0:
310,229,78939,2,0,P|237:217|315:85,1,270,0|0,0:2|0:2,0:0:0:0:
35,252,79843,6,0,L|234:245,1,180,4|0,0:2|0:2,0:0:0:0:
473,203,80565,2,0,L|314:190,2,135,4|0|0,1:2|0:2|0:2,0:0:0:0:
192,295,81288,6,0,L|9:283,1,180,4|0,0:2|0:2,0:0:0:0:
488,209,82011,2,0,P|486:149|366:85,1,180,4|0,1:2|0:2,0:0:0:0:
59,156,82734,5,4,0:2:0:0:
194,155,83005,2,0,L|425:148,1,225,0|4,0:2|1:2,0:0:0:0:
253,119,83818,1,0,0:0:0:0:
253,119,83999,1,0,0:2:0:0:
108,114,84180,6,0,L|311:95,2,180,4|0|0,0:2|1:2|0:2,0:0:0:0:
198,264,85084,2,0,P|202:206|98:160,1,180,0|0,1:2|0:2,0:0:0:0:
360,152,85626,5,4,0:2:0:0:
198,264,85987,2,0,L|418:264,1,180,0|0,1:2|0:2,0:0:0:0:
233,309,86529,2,0,P|167:233|233:183,1,180,0|0,1:2|0:2,0:0:0:0:
351,121,87071,6,0,L|356:247,1,90,4|0,0:2|0:2,0:0:0:0:
209,228,87433,2,0,L|99:225,2,90,0|0|0,1:2|0:2|0:2,0:0:0:0:
478,186,87975,2,0,L|477:279,1,90,0|0,1:2|0:2,0:0:0:0:
387,299,88337,1,0,0:2:0:0:
243,254,88517,6,0,L|87:241,1,135,4|0,0:2|0:0,0:0:0:0:
115,240,88879,1,0,1:2:0:0:
260,236,89059,2,0,P|282:164|257:95,1,135
217,94,89421,2,0,L|101:90,1,90,4|0,1:2|0:2,0:0:0:0:
353,111,89963,5,10,0:2:0:0:
211,247,90867,1,8,0:2:0:0:
302,242,91047,1,8,0:2:0:0:
211,247,91228,1,8,0:2:0:0:
355,218,91409,6,0,L|170:209,1,180,0|8,1:2|0:2,0:0:0:0:
32,231,91951,2,0,P|23:177|104:82,1,180,0|8,1:2|0:2,0:0:0:0:
186,83,92493,1,8,0:2:0:0:
277,84,92674,1,8,0:2:0:0:
423,281,92855,6,0,P|460:228|367:171,1,180,0|8,1:2|0:2,0:0:0:0:
243,136,93397,2,0,L|448:116,1,180,0|8,1:2|0:2,0:0:0:0:
512,106,93939,1,8,0:2:0:0:
422,118,94120,1,8,0:2:0:0:
155,286,94300,6,0,P|110:220|163:138,1,180,0|0,1:2|0:2,0:0:0:0:
246,113,94843,1,0,1:2:0:0:
390,193,95023,2,0,P|461:171|438:74,1,180,0|0,0:2|1:2,0:0:0:0:
359,60,95565,1,0,1:2:0:0:
40,137,95746,6,0,B|40:227|40:227|146:229,1,180,12|8,0:2|0:2,0:0:0:0:
220,197,96288,2,0,L|16:184,1,180,0|0,0:2|0:2,0:0:0:0:
132,98,96831,1,8,1:2:0:0:
367,330,97192,6,0,P|413:312|358:212,1,180,12|8,0:2|0:2,0:0:0:0:
288,202,97734,2,0,L|489:199,1,180,0|8,0:2|1:2,0:0:0:0:
377,129,98276,1,8,1:2:0:0:
422,129,98366,1,0,0:2:0:0:
467,129,98456,1,0,0:2:0:0:
195,183,98638,5,12,0:2:0:0:
195,183,98819,2,0,L|402:182,1,180,0|0,0:2|0:2,0:0:0:0:
284,130,99361,2,0,L|92:119,1,180,8|8,0:2|1:2,0:0:0:0:
14,113,99903,1,0,0:2:0:0:
285,225,100084,6,0,L|290:122,1,90,12|0,0:2|0:0,0:0:0:0:
19,207,100445,2,0,L|18:112,1,90,12|0,0:2|0:0,0:0:0:0:
288,184,100806,2,0,L|384:180,1,90,12|0,0:2|1:2,0:0:0:0:
288,184,101168,1,0,1:2:0:0:
332,182,101258,1,0,1:2:0:0:
377,180,101348,1,0,1:2:0:0:
64,217,101529,6,0,P|37:172|112:85,1,180,12|8,0:2|0:2,0:0:0:0:
199,82,102071,2,0,B|201:180|201:180|84:178,1,180,0|0,0:2|0:2,0:0:0:0:
26,175,102614,1,8,1:2:0:0:
119,178,102794,1,0,0:2:0:0:
264,291,102975,6,0,P|318:241|248:164,1,180,12|8,0:2|0:2,0:0:0:0:
178,138,103517,2,0,L|357:145,1,180,0|0,1:2|0:2,0:0:0:0:
504,166,104060,2,0,L|508:270,1,90,4|0,1:2|0:2,0:0:0:0:
363,320,104421,6,0,L|152:308,1,180,12|8,0:2|0:2,0:0:0:0:
457,282,105144,2,0,L|474:97,1,180,8|0,0:2|1:2,0:0:0:0:
20,185,105867,6,0,L|15:82,1,90,12|0,0:2|0:0,0:0:0:0:
287,290,106228,2,0,P|345:269|261:129,1,270,12|2,0:2|0:2,0:0:0:0:
229,118,106861,1,2,0:2:0:0:
175,116,106951,1,2,0:2:0:0:
344,192,107312,5,8,0:2:0:0:
344,192,108758,1,8,0:2:0:0:
344,192,110023,5,2,0:2:0:0:
344,192,110114,1,2,0:2:0:0:
344,192,110204,1,10,0:2:0:0:
344,192,110565,1,0,0:2:0:0:
344,192,110927,1,0,0:2:0:0:
344,192,111288,1,0,0:2:0:0:
344,192,111650,5,0,0:2:0:0:
344,192,112011,1,0,0:2:0:0:
344,192,112373,1,0,0:2:0:0:
164,196,112734,1,2,0:2:0:0:
344,192,113096,5,2,0:2:0:0:
164,196,113457,1,2,0:2:0:0:
344,192,113818,1,2,0:2:0:0:
61,168,114180,1,2,0:2:0:0:
482,109,114541,5,6,0:2:0:0:
161,257,120324,6,0,L|383:253,1,180,12|2,0:2|0:2,0:0:0:0:
250,267,120867,2,0,P|196:234|261:151,1,180,0|0,0:2|0:2,0:0:0:0:
334,150,121409,2,0,L|348:269,1,90,2|0,0:2|0:2,0:0:0:0:
71,278,121770,6,0,P|29:240|93:144,1,180,12|2,0:2|0:2,0:0:0:0:
169,141,122312,1,0,0:2:0:0:
261,134,122493,1,0,0:2:0:0:
38,210,122855,2,0,L|38:305,1,90,2|8,0:2|0:2,0:0:0:0:
304,302,123216,6,0,L|509:304,1,180,12|0,0:2|1:2,0:0:0:0:
211,257,123758,1,12,0:2:0:0:
211,257,123939,2,0,L|332:251,1,90,0|0,0:2|1:2,0:0:0:0:
343,248,124210,1,0,1:2:0:0:
391,245,124300,2,0,L|291:252,1,90,8|0,1:2|1:2,1:2:0:0:
32,205,124662,6,0,B|31:151|31:151|179:147,1,180,12|12,0:2|1:2,0:0:0:0:
249,143,125204,1,8,0:2:0:0:
104,195,125385,2,0,L|102:249,1,45,0|0,1:2|1:2,0:0:0:0:
148,247,125565,1,8,0:2:0:0:
189,260,125656,1,8,0:2:0:0:
207,299,125746,1,0,1:2:0:0:
190,339,125837,1,0,1:2:0:0:
149,353,125927,1,8,0:2:0:0:
420,321,126108,6,0,P|476:272|407:205,1,180,12|8,0:2|0:2,0:0:0:0:
329,202,126650,1,0,1:2:0:0:
185,217,126831,2,0,L|3:201,1,180,8|8,0:2|0:2,0:0:0:0:
5,201,127373,1,0,0:2:0:0:
273,185,127554,6,0,L|462:170,1,180,12|8,0:2|0:2,0:0:0:0:
361,121,128096,1,0,1:2:0:0:
217,272,128276,2,0,L|425:254,1,180,8|0,0:2|1:2,0:0:0:0:
487,247,128818,1,0,1:2:0:0:
219,244,128999,6,0,L|98:231,2,90,12|0|8,0:2|0:2|0:2,0:0:0:0:
365,254,129542,2,0,P|411:210|354:108,1,180,0|0,1:2|0:2,0:0:0:0:
282,102,130084,1,8,0:2:0:0:
372,113,130264,1,0,0:2:0:0:
97,264,130445,6,0,P|54:223|122:135,1,180,12|0,0:2|1:2,0:0:0:0:
199,122,130987,1,0,0:2:0:0:
342,223,131168,2,0,L|123:209,1,180,8|0,0:2|1:2,0:0:0:0:
71,205,131710,1,0,0:2:0:0:
348,106,131891,6,0,P|416:103|476:196,1,180,12|8,0:2|0:2,0:0:0:0:
385,234,132433,1,0,0:2:0:0:
114,275,132614,2,0,L|114:181,1,90,0|8,1:2|0:2,0:0:0:0:
205,167,132975,1,0,0:2:0:0:
295,157,133156,1,0,0:2:0:0:
148,152,133337,5,12,0:2:0:0:
148,152,133517,2,0,L|345:146,1,180,0|0,1:2|0:2,0:0:0:0:
182,119,134059,2,0,L|178:237,1,90,0|8,1:2|0:2,0:0:0:0:
269,223,134421,1,8,0:2:0:0:
178,216,134602,1,8,0:2:0:0:
448,261,134782,6,0,L|451:154,1,90,12|0,1:2|0:2,0:0:0:0:
178,264,135144,2,0,P|136:238|207:151,1,180,12|8,1:2|0:2,0:0:0:0:
458,129,135686,2,0,L|470:247,1,90,12|0,1:2|0:2,0:0:0:0:
377,277,136047,1,0,0:2:0:0:
231,307,136228,5,0,1:2:0:0:
187,300,136318,1,8,0:2:0:0:
153,271,136408,1,8,0:2:0:0:
140,228,136499,1,8,0:2:0:0:
152,185,136589,1,0,1:2:0:0:
184,155,136679,1,8,0:2:0:0:
228,147,136770,1,8,0:2:0:0:
319,145,136951,1,0,1:2:0:0:
409,152,137132,1,0,1:2:0:0:
138,106,137312,2,0,L|48:106,1,90,12|0,1:2|0:2,0:0:0:0:
322,122,137674,6,0,B|323:213|323:213|210:212,1,180,12|8,0:2|0:2,0:0:0:0:
144,212,138216,1,0,0:2:0:0:
289,215,138397,2,0,L|298:120,1,90,8|0,0:2|0:2,0:0:0:0:
153,128,138758,2,0,L|142:24,1,90,8|0,1:2|0:2,0:0:0:0:
423,99,139120,6,0,P|475:119|431:223,1,180,8|8,0:2|0:2,0:0:0:0:
357,219,139662,1,0,0:0:0:0:
210,228,139843,2,0,L|412:233,1,180,8|8,0:2|1:2,0:0:0:0:
482,234,140385,1,0,1:2:0:0:
212,298,140565,6,0,L|216:202,1,90,12|0,0:2|0:2,0:0:0:0:
306,181,140927,1,8,1:2:0:0:
160,131,141108,2,0,L|367:141,1,180,0|0,0:2|0:2,0:0:0:0:
250,70,141650,1,0,1:2:0:0:
159,65,141831,1,0,0:2:0:0:
429,281,142011,6,0,L|431:185,1,90,12|0,0:2|0:2,0:0:0:0:
286,189,142373,2,0,L|193:182,1,90,0|0,1:2|0:2,0:0:0:0:
340,164,142734,2,0,L|343:68,1,90,0|0,1:2|0:2,0:0:0:0:
251,61,143096,1,0,1:2:0:0:
342,74,143276,1,0,0:2:0:0:
34,154,143457,5,14,0:2:0:0:
34,154,143638,1,0,0:2:0:0:
34,154,143818,2,0,L|413:152,1,360,0|0,0:2|0:2,0:0:0:0:
189,191,144903,1,10,0:2:0:0:
189,191,146349,5,0,0:2:0:0:
189,191,147071,1,0,0:2:0:0:
189,191,147794,1,0,0:2:0:0:
189,191,148516,1,0,0:2:0:0:
320,196,149240,5,2,0:2:0:0:
164,194,149963,1,2,0:2:0:0:
364,197,150686,1,2,0:2:0:0:
127,193,151409,1,2,0:2:0:0:
452,196,152132,5,2,0:2:0:0:
253,309,152674,1,0,0:2:0:0:
337,288,152854,1,0,0:2:0:0:
376,210,153035,1,0,0:2:0:0:
343,130,153216,1,0,0:2:0:0:
260,103,153396,1,0,0:2:0:0:
463,94,153578,5,2,0:2:0:0:
295,94,153939,1,2,0:2:0:0:
458,76,154300,1,2,0:2:0:0:
186,277,155023,5,2,0:2:0:0:
384,155,155565,1,0,0:2:0:0:
255,191,155746,2,0,L|262:302,1,90,0|0,0:2|0:2,0:0:0:0:
395,161,156108,2,0,L|401:273,1,90,0|0,0:2|0:2,0:0:0:0:
265,293,156469,1,2,0:2:0:0:
74,121,157192,1,2,0:2:0:0:
296,205,157915,5,2,0:2:0:0:
116,83,158457,1,0,0:2:0:0:
199,109,158637,1,0,0:2:0:0:
231,190,158818,1,0,0:2:0:0:
188,266,158999,1,0,0:2:0:0:
103,281,159179,1,0,0:2:0:0:
281,272,159361,1,2,0:2:0:0:
321,303,160806,6,0,L|322:209,1,90,2|0,0:2|0:2,0:0:0:0:
219,214,161168,2,0,L|213:117,1,90,0|0,0:2|0:2,0:0:0:0:
329,108,161529,1,0,0:2:0:0:
223,73,161710,1,0,0:2:0:0:
155,51,161891,1,0,0:2:0:0:
223,73,162071,1,0,0:2:0:0:
416,92,162252,1,2,0:2:0:0:
198,188,163698,5,2,0:2:0:0:
256,192,163879,12,0,169481,0:2:0:0:
