osu file format v14

[General]
AudioFilename: colorful.mp3
AudioLeadIn: 0
PreviewTime: 185250
Countdown: 1
SampleSet: Soft
StackLeniency: 0.7
Mode: 0
LetterboxInBreaks: 0
WidescreenStoryboard: 0

[Editor]
Bookmarks: 21188,56188,61813,83688,92438,138688,144313,201188,206813
DistanceSpacing: 0.4
BeatDivisor: 4
GridSize: 4
TimelineZoom: 2.1

[Metadata]
Title:Colorful
TitleUnicode:Colorful
Artist:Mili
ArtistUnicode:Mili
Creator:Backstep
Version:Extra
Source:
Tags:H△G relaxing カラフル
BeatmapID:818765
BeatmapSetID:373742

[Difficulty]
HPDrainRate:6.5
CircleSize:4.2
OverallDifficulty:8.3
ApproachRate:9.4
SliderMultiplier:1.8
SliderTickRate:1

[Events]
//Background and Video events
0,0,"colorful-bg.jpg",0,0
//Break Periods
2,84825,93148
//Storyboard Layer 0 (Background)
//Storyboard Layer 1 (Fail)
//Storyboard Layer 2 (Pass)
//Storyboard Layer 3 (Foreground)
//Storyboard Sound Samples

[TimingPoints]
1188,312.5,4,2,0,50,1,0
1188,-133.333333333333,4,2,0,50,0,0
61813,-200,4,2,0,50,0,0
63688,-100,4,2,0,50,0,1
68063,-66.6666666666667,4,2,0,50,0,1
68688,-100,4,2,0,50,0,1
78063,-66.6666666666667,4,2,0,50,0,1
78688,-100,4,2,0,50,0,1
83688,-133.333333333333,4,2,0,50,0,0
93688,-200,4,2,0,50,0,0
103688,-133.333333333333,4,2,0,50,0,0
144313,-200,4,2,0,50,0,0
146188,-100,4,2,0,50,0,1
150563,-66.6666666666667,4,2,0,50,0,1
151188,-100,4,2,0,50,0,1
160563,-66.6666666666667,4,2,0,50,0,1
161188,-100,4,2,0,50,0,1
166188,-133.333333333333,4,2,0,50,0,0
206813,-200,4,2,0,50,0,0
209313,-133.333333333333,4,2,0,50,0,0
211188,-100,4,2,0,50,0,1
215563,-66.6666666666667,4,2,0,50,0,1
216188,-100,4,2,0,50,0,1
225563,-66.6666666666667,4,2,0,50,0,1
226188,-100,4,2,0,50,0,1
231188,-133.333333333333,4,2,0,50,0,0

[Colours]
Combo1 : 255,224,130
Combo2 : 138,255,138
Combo3 : 140,192,255
Combo4 : 245,84,108

[HitObjects]
56,112,1188,5,0,0:0:0:0:
160,80,1344,1,0,0:0:0:0:
45,115,1500,1,0,0:0:0:0:
170,76,1656,1,0,0:0:0:0:
33,119,1813,1,0,0:0:0:0:
182,72,1969,1,0,0:0:0:0:
18,123,2125,1,0,0:0:0:0:
197,68,2281,1,0,0:0:0:0:
348,180,2438,1,2,0:0:0:0:
356,192,3063,5,0,0:0:0:0:
364,208,3375,1,0,0:0:0:0:
372,224,3688,5,0,0:0:0:0:
316,132,3844,1,0,0:0:0:0:
377,233,4000,1,0,0:0:0:0:
310,122,4156,1,0,0:0:0:0:
384,244,4313,1,0,0:0:0:0:
303,111,4469,1,0,0:0:0:0:
390,254,4625,1,0,0:0:0:0:
297,101,4781,1,0,0:0:0:0:
112,192,4938,1,2,0:0:0:0:
100,200,5563,5,0,0:0:0:0:
84,208,5875,1,0,0:0:0:0:
68,216,6188,5,0,0:0:0:0:
208,140,6344,1,0,0:0:0:0:
200,300,6500,1,0,0:0:0:0:
49,215,6656,1,0,0:0:0:0:
217,124,6812,1,0,0:0:0:0:
208,316,6968,1,0,0:0:0:0:
28,214,7125,1,0,0:0:0:0:
229,105,7281,1,0,0:0:0:0:
218,335,7437,1,2,0:0:0:0:
1,213,7750,5,0,0:0:0:0:
243,82,8063,1,2,0:0:0:0:
229,358,8375,1,2,0:0:0:0:
468,216,8688,5,0,0:0:0:0:
328,140,8844,1,0,0:0:0:0:
336,300,9000,1,0,0:0:0:0:
487,215,9156,1,0,0:0:0:0:
319,124,9312,1,0,0:0:0:0:
328,316,9468,1,0,0:0:0:0:
508,214,9625,1,0,0:0:0:0:
307,105,9781,1,0,0:0:0:0:
318,335,9938,6,0,P|294:359|222:367,1,101.250003862381,2|0,0:0|0:0,0:0:0:0:
176,320,10250,2,0,P|128:320|84:360,1,101.250003862381
24,316,10563,5,0,0:0:0:0:
24,316,10719,1,0,0:0:0:0:
104,112,10875,2,0,P|176:128|244:104,1,135.000005149842,2|0,0:0|0:0,0:0:0:0:
456,296,11500,5,0,0:0:0:0:
456,296,11656,1,0,0:0:0:0:
328,144,11813,2,0,P|320:104|328:72,2,67.5000025749208
216,304,12281,2,0,P|224:344|216:376,1,67.5000025749208,0|2,0:0|0:0,0:0:0:0:
36,160,13063,5,0,0:0:0:0:
36,160,13375,1,0,0:0:0:0:
192,48,13531,5,0,0:0:0:0:
192,48,13609,1,0,0:0:0:0:
192,48,13688,2,0,P|232:40|272:52,1,67.5000025749208
400,128,14000,2,0,P|408:168|396:208,1,67.5000025749208
320,336,14313,2,0,P|280:344|240:332,1,67.5000025749208
112,256,14625,2,0,P|104:216|116:176,1,67.5000025749208
256,192,14938,5,2,0:0:0:0:
256,192,15406,1,0,0:0:0:0:
192,48,15563,2,0,P|120:76|48:72,1,135.000005149842
352,72,16031,5,0,0:0:0:0:
352,72,16109,1,0,0:0:0:0:
352,72,16188,2,0,L|424:64,1,67.5000025749208
376,288,16500,2,0,L|384:360,1,67.5000025749208
160,312,16813,2,0,L|88:320,1,67.5000025749208
136,96,17125,2,0,L|128:24,1,67.5000025749208
256,192,17438,5,2,0:0:0:0:
276,340,17750,5,2,0:0:0:0:
401,52,18063,1,2,0:0:0:0:
90,87,18375,1,0,0:0:0:0:
271,303,18688,5,0,0:0:0:0:
371,73,18844,1,0,0:0:0:0:
123,101,19000,1,0,0:0:0:0:
268,275,19156,1,0,0:0:0:0:
348,90,19312,1,0,0:0:0:0:
149,113,19468,1,0,0:0:0:0:
266,251,19625,1,0,0:0:0:0:
330,104,19781,1,0,0:0:0:0:
170,122,19938,6,0,P|128:136|64:128,1,101.250003862381,2|0,0:0|0:0,0:0:0:0:
20,188,20250,2,0,P|14:238|28:286,1,101.250003862381,2|0,0:0|0:0,0:0:0:0:
92,332,20563,2,0,P|142:337|190:323,1,101.250003862381,2|0,0:0|0:0,0:0:0:0:
248,272,20875,2,0,P|253:221|239:173,1,101.250003862381
170,122,21188,6,0,L|166:50,1,67.5000025749208,4|0,0:0|0:0,0:0:0:0:
132,248,21500,1,0,0:0:0:0:
330,104,21656,2,0,P|382:112|414:100,2,67.5000025749208,0|0|2,0:0|0:0|0:0,0:0:0:0:
244,48,22125,1,0,0:0:0:0:
40,204,22281,1,0,0:0:0:0:
132,248,22438,6,0,L|136:320,1,67.5000025749208
228,352,22750,1,0,0:0:0:0:
284,268,22906,1,0,0:0:0:0:
284,268,22984,1,0,0:0:0:0:
284,268,23063,2,0,P|320:264|356:268,1,67.5000025749208
504,140,23375,2,0,P|468:144|432:140,1,67.5000025749208,2|0,0:0|0:0,0:0:0:0:
244,48,23688,5,0,0:0:0:0:
155,97,23844,1,0,0:0:0:0:
76,40,24000,2,0,P|36:32|4:40,1,67.5000025749208
300,116,24313,2,0,P|326:85|336:53,1,67.5000025749208,2|0,0:0|0:0,0:0:0:0:
120,268,24625,2,0,P|133:306|156:330,1,67.5000025749208,2|0,0:0|0:0,0:0:0:0:
408,124,24938,5,0,0:0:0:0:
360,40,25094,1,0,0:0:0:0:
360,40,25172,1,0,0:0:0:0:
360,40,25250,1,0,0:0:0:0:
300,116,25406,1,0,0:0:0:0:
348,200,25563,2,0,P|384:212|428:208,1,67.5000025749208
496,160,25875,5,2,0:0:0:0:
496,160,26031,1,0,0:0:0:0:
392,344,26188,2,0,B|360:344|360:344|320:352|320:352|284:352,1,101.250003862381,2|0,0:0|0:0,0:0:0:0:
260,336,26500,2,0,P|232:308|220:280,2,67.5000025749208,0|0|2,0:0|0:0|0:0,0:0:0:0:
348,200,26969,1,0,0:0:0:0:
300,116,27125,1,2,0:0:0:0:
204,116,27281,1,0,0:0:0:0:
156,200,27438,6,0,L|8:176,1,135.000005149842
348,200,27906,1,0,0:0:0:0:
348,200,28063,2,0,L|496:176,1,135.000005149842,0|2,0:0|0:0,0:0:0:0:
316,332,28531,1,0,0:0:0:0:
316,332,28688,2,0,P|256:308|196:336,1,135.000005149842,2|0,0:0|0:0,0:0:0:0:
256,384,29156,5,0,0:0:0:0:
256,236,29313,1,2,0:0:0:0:
256,384,29469,1,0,0:0:0:0:
256,220,29625,1,2,0:0:0:0:
256,384,29781,1,0,0:0:0:0:
256,196,29938,1,2,0:0:0:0:
104,288,30094,1,0,0:0:0:0:
104,288,30172,1,0,0:0:0:0:
104,288,30250,5,0,0:0:0:0:
256,380,30406,1,0,0:0:0:0:
88,280,30563,1,2,0:0:0:0:
256,380,30719,1,0,0:0:0:0:
72,272,30875,1,2,0:0:0:0:
256,380,31031,1,0,0:0:0:0:
52,260,31188,6,0,L|44:184,1,67.5000025749208,4|0,0:0|0:0,0:0:0:0:
180,40,31500,1,0,0:0:0:0:
180,40,31656,1,0,0:0:0:0:
216,136,31813,2,0,P|184:144|140:136,1,67.5000025749208
288,60,32125,2,0,P|320:52|364:60,1,67.5000025749208
440,112,32438,1,2,0:0:0:0:
440,112,32750,6,0,L|448:184,1,67.5000025749208
320,356,33063,1,0,0:0:0:0:
320,356,33375,2,0,L|312:284,1,67.5000025749208
288,60,33688,6,0,B|228:48|180:60|180:60|224:84,1,135.000005149842,2|0,0:0|0:0,0:0:0:0:
348,136,34156,1,0,0:0:0:0:
348,136,34313,2,0,P|356:176|348:208,1,67.5000025749208,0|2,0:0|0:0,0:0:0:0:
104,100,34625,2,0,P|96:60|104:28,1,67.5000025749208,0|2,0:0|0:0,0:0:0:0:
192,172,34938,5,0,0:0:0:0:
96,208,35094,1,0,0:0:0:0:
96,208,35172,1,0,0:0:0:0:
96,208,35250,1,0,0:0:0:0:
12,152,35406,1,0,0:0:0:0:
208,68,35563,1,0,0:0:0:0:
192,280,35719,1,0,0:0:0:0:
104,100,35875,5,2,0:0:0:0:
192,172,36031,1,0,0:0:0:0:
296,124,36188,2,0,P|332:116|368:124,1,67.5000025749208,2|0,0:0|0:0,0:0:0:0:
440,204,36500,1,0,0:0:0:0:
440,204,36656,1,0,0:0:0:0:
492,100,36813,2,0,L|496:28,1,67.5000025749208
320,236,37125,2,0,L|316:308,1,67.5000025749208,2|0,0:0|0:0,0:0:0:0:
372,360,37438,6,0,P|300:376|240:340,1,135.000005149842,2|0,0:0|0:0,0:0:0:0:
92,296,37906,1,0,0:0:0:0:
92,296,37984,1,0,0:0:0:0:
92,296,38063,1,0,0:0:0:0:
196,264,38219,1,0,0:0:0:0:
112,164,38375,1,2,0:0:0:0:
164,360,38531,1,2,0:0:0:0:
312,220,38688,6,0,P|388:208|460:232,1,135.000005149842,2|0,0:0|0:0,0:0:0:0:
500,308,39156,1,0,0:0:0:0:
500,308,39234,1,0,0:0:0:0:
500,308,39313,1,0,0:0:0:0:
408,352,39469,1,0,0:0:0:0:
312,320,39625,2,0,P|276:312|240:316,1,67.5000025749208
0,344,39938,2,0,P|36:352|72:348,1,67.5000025749208
148,292,40250,6,0,L|140:256,3,33.7500012874604
240,208,40563,2,0,L|248:164,3,33.7500012874604
356,172,40875,2,0,L|376:132,3,33.7500012874604
320,268,41188,6,0,P|376:272|440:264,2,101.250003862381,4|0|0,0:0|0:0|0:0,0:0:0:0:
192,116,41813,2,0,P|136:112|72:120,2,101.250003862381
292,144,42438,6,0,P|296:96|280:56,1,67.5000025749208,2|0,0:0|0:0,0:0:0:0:
204,216,42750,2,0,P|200:264|216:304,1,67.5000025749208
280,348,43063,1,0,0:0:0:0:
412,200,43219,1,0,0:0:0:0:
256,360,43375,1,0,0:0:0:0:
436,188,43531,1,0,0:0:0:0:
236,368,43688,6,0,L|156:368,1,67.5000025749208,2|0,0:0|0:0,0:0:0:0:
80,316,44000,1,0,0:0:0:0:
76,300,44078,1,0,0:0:0:0:
72,284,44156,1,0,0:0:0:0:
68,268,44234,1,0,0:0:0:0:
64,252,44313,1,0,0:0:0:0:
8,168,44469,1,0,0:0:0:0:
84,100,44625,2,0,P|116:104|156:100,1,67.5000025749208
386,78,44938,6,0,P|319:72|252:76,1,135.000005149842,2|0,0:0|0:0,0:0:0:0:
474,246,45406,1,0,0:0:0:0:
316,300,45563,2,0,P|312:232|318:165,1,135.000005149842,2|0,0:0|0:0,0:0:0:0:
464,60,46031,1,0,0:0:0:0:
252,76,46188,6,0,P|216:68|180:68,1,67.5000025749208,2|0,0:0|0:0,0:0:0:0:
103,127,46500,1,0,0:0:0:0:
94,112,46578,1,0,0:0:0:0:
88,96,46656,1,0,0:0:0:0:
85,79,46734,1,0,0:0:0:0:
82,62,46813,1,0,0:0:0:0:
196,168,46969,1,0,0:0:0:0:
60,308,47125,1,0,0:0:0:0:
213,150,47281,1,0,0:0:0:0:
42,325,47438,6,0,P|109:336|181:323,1,135.000005149842,2|0,0:0|0:0,0:0:0:0:
252,260,47906,1,0,0:0:0:0:
344,304,48063,2,0,P|336:336|344:372,1,67.5000025749208
340,200,48375,2,0,P|348:168|340:132,1,67.5000025749208
280,56,48688,5,2,0:0:0:0:
188,100,48844,1,0,0:0:0:0:
104,48,49000,1,0,0:0:0:0:
20,100,49156,1,0,0:0:0:0:
296,72,49313,5,2,0:0:0:0:
196,119,49469,1,0,0:0:0:0:
105,63,49625,1,0,0:0:0:0:
14,119,49781,1,0,0:0:0:0:
64,228,49938,6,0,P|108:236|136:232,1,67.5000025749208,2|0,0:0|0:0,0:0:0:0:
448,156,50250,2,0,P|404:148|376:152,1,67.5000025749208,2|0,0:0|0:0,0:0:0:0:
196,308,50563,1,2,0:0:0:0:
316,76,50719,1,0,0:0:0:0:
316,308,50875,1,2,0:0:0:0:
196,76,51031,1,0,0:0:0:0:
130,233,51188,6,0,P|96:235|64:228,1,67.5000025749208,4|0,0:0|0:0,0:0:0:0:
3,146,51500,1,0,0:0:0:0:
2,129,51578,1,0,0:0:0:0:
0,112,51656,1,0,0:0:0:0:
0,95,51734,1,0,0:0:0:0:
0,77,51813,1,0,0:0:0:0:
100,28,51969,1,0,0:0:0:0:
212,204,52125,2,0,P|216:244|188:288,1,67.5000025749208
96,360,52438,6,0,B|124:360|124:360|208:376|208:376|232:376,1,135.000005149842,2|0,0:0|0:0,0:0:0:0:
244,376,52828,1,0,0:0:0:0:
260,376,52906,1,0,0:0:0:0:
276,376,52984,1,0,0:0:0:0:
292,376,53063,1,0,0:0:0:0:
404,376,53219,1,0,0:0:0:0:
480,292,53375,2,0,L|488:220,1,67.5000025749208,2|0,0:0|0:0,0:0:0:0:
356,48,53688,6,0,L|348:120,1,67.5000025749208,2|0,0:0|0:0,0:0:0:0:
395,204,54000,1,0,0:0:0:0:
378,208,54078,1,0,0:0:0:0:
361,208,54156,1,0,0:0:0:0:
344,208,54234,1,0,0:0:0:0:
327,206,54313,1,0,0:0:0:0:
252,140,54469,1,0,0:0:0:0:
224,44,54625,1,2,0:0:0:0:
224,44,54781,1,0,0:0:0:0:
58,207,54938,5,2,0:0:0:0:
85,216,55094,1,0,0:0:0:0:
111,217,55250,1,0,0:0:0:0:
136,208,55406,1,0,0:0:0:0:
224,44,55563,5,2,0:0:0:0:
245,30,55719,1,0,0:0:0:0:
272,25,55875,1,0,0:0:0:0:
300,30,56031,1,0,0:0:0:0:
323,42,56188,5,4,0:0:0:0:
268,126,56656,1,0,0:0:0:0:
369,139,57125,1,2,0:0:0:0:
44,32,57438,5,2,0:0:0:0:
60,164,57750,1,0,0:0:0:0:
192,144,58063,1,2,0:0:0:0:
168,12,58375,1,0,0:0:0:0:
168,12,58531,1,0,0:0:0:0:
220,276,58688,5,2,0:0:0:0:
300,340,59156,1,0,0:0:0:0:
384,284,59625,1,2,0:0:0:0:
116,56,59938,5,2,0:0:0:0:
56,188,60250,1,0,0:0:0:0:
100,328,60563,1,2,0:0:0:0:
20,312,61813,6,0,B|107:356|195:312|195:312|277:278|372:325,1,360
464,357,63219,1,0,0:0:0:0:
464,357,63297,1,0,0:0:0:0:
464,357,63375,1,0,0:0:0:0:
505,263,63531,1,0,0:0:0:0:
412,188,63688,6,0,P|408:140|412:88,1,90,4|0,0:0|0:0,0:0:0:0:
296,24,64000,1,0,0:0:0:0:
284,44,64078,1,0,0:0:0:0:
272,64,64156,1,0,0:0:0:0:
260,84,64234,1,0,0:0:0:0:
248,104,64313,1,2,0:0:0:0:
288,232,64469,1,0,0:0:0:0:
488,124,64625,1,0,0:0:0:0:
292,244,64781,1,0,0:0:0:0:
492,140,64938,6,0,P|496:188|492:240,1,90,2|0,0:0|0:0,0:0:0:0:
428,348,65250,1,0,0:0:0:0:
404,352,65328,1,0,0:0:0:0:
380,356,65406,1,0,0:0:0:0:
360,360,65484,1,0,0:0:0:0:
336,364,65563,1,2,0:0:0:0:
220,296,65719,1,0,0:0:0:0:
108,368,65875,1,0,0:0:0:0:
8,136,66031,1,0,0:0:0:0:
0,360,66188,6,0,L|4:260,1,90,2|0,0:0|0:0,0:0:0:0:
120,80,66500,1,0,0:0:0:0:
118,104,66579,1,0,0:0:0:0:
117,128,66657,1,0,0:0:0:0:
116,152,66735,1,0,0:0:0:0:
115,176,66813,1,2,0:0:0:0:
108,368,66969,1,0,0:0:0:0:
220,296,67125,1,0,0:0:0:0:
16,176,67281,1,0,0:0:0:0:
224,60,67438,6,0,P|272:56|320:64,1,90,2|0,0:0|0:0,0:0:0:0:
309,298,67750,2,0,P|261:302|213:294,1,90,2|0,0:0|0:0,0:0:0:0:
375,176,68063,6,0,P|448:168|512:176,1,135.000005149842,2|0,0:0|0:0,0:0:0:0:
136,207,68375,2,0,P|68:212|0:204,1,135.000005149842,2|0,0:0|0:0,0:0:0:0:
44,32,68688,6,0,P|68:68|72:128,1,90,2|0,0:0|0:0,0:0:0:0:
8,312,69000,1,0,0:0:0:0:
25,320,69078,1,0,0:0:0:0:
48,330,69156,1,0,0:0:0:0:
68,332,69234,1,0,0:0:0:0:
92,333,69313,1,2,0:0:0:0:
136,207,69469,1,0,0:0:0:0:
256,272,69625,2,0,P|264:312|252:364,1,90
256,112,69938,6,0,P|248:72|260:20,1,90,2|0,0:0|0:0,0:0:0:0:
304,188,70250,1,0,0:0:0:0:
280,192,70328,1,0,0:0:0:0:
256,196,70406,1,0,0:0:0:0:
236,192,70484,1,0,0:0:0:0:
212,188,70563,1,2,0:0:0:0:
112,96,70719,1,0,0:0:0:0:
56,220,70875,1,0,0:0:0:0:
128,60,71031,1,0,0:0:0:0:
39,255,71188,6,0,P|88:264|140:252,1,90,2|0,0:0|0:0,0:0:0:0:
256,120,71500,1,0,0:0:0:0:
256,120,71656,1,0,0:0:0:0:
472,255,71813,2,0,P|428:248|383:256,1,90,2|0,0:0|0:0,0:0:0:0:
256,376,72125,1,0,0:0:0:0:
256,376,72281,1,0,0:0:0:0:
172,168,72438,5,2,0:0:0:0:
344,344,72594,1,0,0:0:0:0:
344,168,72751,1,2,0:0:0:0:
168,344,72907,1,0,0:0:0:0:
384,256,73063,5,2,0:0:0:0:
127,257,73219,1,0,0:0:0:0:
256,376,73376,1,2,0:0:0:0:
256,120,73532,1,0,0:0:0:0:
344,344,73688,6,0,P|388:352|436:344,1,90,4|0,0:0|0:0,0:0:0:0:
492,224,74000,1,0,0:0:0:0:
496,200,74078,1,0,0:0:0:0:
501,177,74156,1,0,0:0:0:0:
506,153,74234,1,0,0:0:0:0:
511,130,74313,1,2,0:0:0:0:
360,28,74469,1,0,0:0:0:0:
408,200,74625,1,0,0:0:0:0:
476,32,74782,1,0,0:0:0:0:
324,128,74938,6,0,P|272:136|236:128,1,90,2|0,0:0|0:0,0:0:0:0:
132,216,75250,1,0,0:0:0:0:
112,208,75328,1,0,0:0:0:0:
92,204,75406,1,0,0:0:0:0:
68,204,75484,1,0,0:0:0:0:
48,216,75563,2,0,B|24:256|24:256|36:304,1,90,2|0,0:0|0:0,0:0:0:0:
116,72,75875,2,0,B|93:31|93:31|45:17,1,90
204,208,76188,6,0,B|250:208|250:208|286:174,1,90,2|0,0:0|0:0,0:0:0:0:
388,260,76500,1,0,0:0:0:0:
404,244,76578,1,0,0:0:0:0:
416,224,76656,1,0,0:0:0:0:
416,200,76734,1,0,0:0:0:0:
416,176,76813,1,2,0:0:0:0:
344,60,76969,1,0,0:0:0:0:
152,128,77125,1,0,0:0:0:0:
344,60,77281,1,0,0:0:0:0:
128,140,77438,6,0,P|120:188|128:232,1,90,2|0,0:0|0:0,0:0:0:0:
368,308,77750,2,0,P|376:260|368:216,1,90,2|0,0:0|0:0,0:0:0:0:
52,108,78063,6,0,P|39:185|52:256,1,135.000005149842,2|0,0:0|0:0,0:0:0:0:
444,340,78375,2,0,P|456:262|444:191,1,135.000005149842,2|0,0:0|0:0,0:0:0:0:
256,48,78688,6,0,B|224:48|224:48|200:40|200:40|164:40,1,90,2|0,0:0|0:0,0:0:0:0:
52,108,79000,1,0,0:0:0:0:
48,128,79078,1,0,0:0:0:0:
44,152,79156,1,0,0:0:0:0:
40,176,79234,1,0,0:0:0:0:
36,200,79313,1,2,0:0:0:0:
128,300,79469,1,0,0:0:0:0:
317,211,79625,2,0,P|274:199|232:212,1,90
376,304,79938,6,0,P|418:315|461:303,1,90,2|0,0:0|0:0,0:0:0:0:
493,171,80250,1,0,0:0:0:0:
494,147,80328,1,0,0:0:0:0:
496,123,80406,1,0,0:0:0:0:
497,100,80484,1,0,0:0:0:0:
498,76,80563,1,2,0:0:0:0:
372,28,80719,1,0,0:0:0:0:
256,96,80875,1,0,0:0:0:0:
372,4,81031,1,0,0:0:0:0:
256,120,81188,6,0,L|256:224,1,90,2|0,0:0|0:0,0:0:0:0:
256,344,81500,1,0,0:0:0:0:
256,344,81656,1,0,0:0:0:0:
463,284,81813,2,0,P|420:276|376:284,1,90,2|0,0:0|0:0,0:0:0:0:
135,283,82125,2,0,P|88:292|48:284,1,90
4,156,82438,5,2,0:0:0:0:
199,138,82594,1,0,0:0:0:0:
92,220,82750,1,2,0:0:0:0:
56,32,82906,1,0,0:0:0:0:
292,172,83063,5,2,0:0:0:0:
99,136,83219,1,0,0:0:0:0:
250,43,83375,1,2,0:0:0:0:
198,227,83531,1,0,0:0:0:0:
256,192,83688,12,2,84625,0:0:0:0:
40,112,93688,5,2,0:0:0:0:
110,72,93844,1,0,0:0:0:0:
150,142,94000,1,0,0:0:0:0:
79,182,94156,1,2,0:0:0:0:
38,31,94313,5,0,0:0:0:0:
228,133,94469,1,0,0:0:0:0:
40,240,94625,1,2,0:0:0:0:
40,240,94938,6,0,P|64:296|136:328,1,135
252,272,95563,2,0,L|264:332,1,45
340,208,95875,2,0,L|348:152,1,45
356,312,96188,5,2,0:0:0:0:
444,160,96344,1,0,0:0:0:0:
460,336,96500,1,0,0:0:0:0:
256,176,96656,1,2,0:0:0:0:
428,248,96813,1,0,0:0:0:0:
280,360,96969,1,0,0:0:0:0:
376,124,97125,1,2,0:0:0:0:
380,116,97906,5,0,0:0:0:0:
120,64,98063,2,0,L|92:116,1,45,2|0,0:0|0:0,0:0:0:0:
256,68,98375,2,0,L|224:17,1,45
184,184,98688,6,0,L|243:182,1,45,2|0,0:0|0:0,0:0:0:0:
398,75,99000,2,0,L|380:116,1,45,0|2,0:0|0:0,0:0:0:0:
377,317,99313,2,0,L|360:276,1,45
328,196,99625,1,2,0:0:0:0:
328,196,99938,6,0,P|288:148|208:124,1,135
88,88,100563,2,0,P|96:64|112:44,1,45
120,220,100875,2,0,P|112:248|92:272,1,45
24,340,101188,5,2,0:0:0:0:
108,376,101344,1,0,0:0:0:0:
216,372,101500,1,0,0:0:0:0:
340,344,101656,1,2,0:0:0:0:
432,232,101813,1,0,0:0:0:0:
452,72,101969,1,0,0:0:0:0:
184,120,102125,5,2,0:0:0:0:
195,228,102281,1,0,0:0:0:0:
284,168,102438,2,0,P|288:80|224:16,1,180,0|2,0:0|0:0,0:0:0:0:
208,16,103375,6,0,L|160:8,1,45
296,92,103688,2,0,L|364:104,1,67.5000025749208,4|0,0:0|0:0,0:0:0:0:
416,192,104000,1,2,0:0:0:0:
500,72,104156,2,0,P|504:105|500:138,2,67.5000025749208,0|2|0,0:0|0:0|0:0,0:0:0:0:
416,12,104625,1,0,0:0:0:0:
224,160,104781,1,0,0:0:0:0:
260,256,104938,6,0,P|224:260|176:252,1,67.5000025749208
112,196,105250,1,2,0:0:0:0:
36,260,105406,1,0,0:0:0:0:
36,260,105484,1,0,0:0:0:0:
36,260,105563,2,0,L|28:344,1,67.5000025749208,2|0,0:0|0:0,0:0:0:0:
8,92,105875,2,0,L|1:159,1,67.5000025749208
140,348,106188,5,0,0:0:0:0:
240,372,106344,1,0,0:0:0:0:
340,348,106500,2,0,P|344:312|340:272,1,67.5000025749208,2|0,0:0|0:0,0:0:0:0:
319,28,106813,2,0,P|316:61|318:95,1,67.5000025749208,2|0,0:0|0:0,0:0:0:0:
511,179,107125,2,0,P|478:176|444:178,1,67.5000025749208
176,284,107438,5,2,0:0:0:0:
96,348,107594,1,0,0:0:0:0:
96,348,107672,1,0,0:0:0:0:
96,348,107750,1,2,0:0:0:0:
16,284,107906,1,0,0:0:0:0:
56,192,108063,2,0,P|96:188|128:192,1,67.5000025749208,2|0,0:0|0:0,0:0:0:0:
176,284,108375,5,0,0:0:0:0:
176,284,108531,1,0,0:0:0:0:
352,100,108688,2,0,P|400:100|452:68,1,101.250003862381
484,40,109000,2,0,L|476:112,1,67.5000025749208,2|0,0:0|0:0,0:0:0:0:
324,368,109313,2,0,L|331:300,1,67.5000025749208,2|0,0:0|0:0,0:0:0:0:
344,200,109625,1,0,0:0:0:0:
480,304,109781,1,0,0:0:0:0:
324,368,109938,6,0,P|252:376|176:364,1,135.000005149842,2|0,0:0|0:0,0:0:0:0:
374,45,110406,1,0,0:0:0:0:
374,45,110563,2,0,P|414:98|441:160,1,135.000005149842,2|0,0:0|0:0,0:0:0:0:
69,162,111031,1,0,0:0:0:0:
69,162,111188,2,0,P|96:100|136:47,1,135.000005149842,2|0,0:0|0:0,0:0:0:0:
256,120,111656,5,0,0:0:0:0:
304,208,111813,2,0,P|348:212|376:204,1,67.5000025749208,2|0,0:0|0:0,0:0:0:0:
208,208,112125,2,0,P|168:200|136:204,1,67.5000025749208
168,284,112438,5,2,0:0:0:0:
336,132,112594,1,0,0:0:0:0:
336,132,112672,1,0,0:0:0:0:
336,132,112750,1,0,0:0:0:0:
384,352,112906,1,0,0:0:0:0:
193,278,113062,1,2,0:0:0:0:
328,156,113218,1,0,0:0:0:0:
366,332,113374,1,2,0:0:0:0:
214,273,113531,1,0,0:0:0:0:
320,176,113688,6,0,P|360:172|396:180,1,67.5000025749208,4|0,0:0|0:0,0:0:0:0:
456,252,114000,1,0,0:0:0:0:
504,56,114156,2,0,P|508:95|500:132,2,67.5000025749208,0|2|0,0:0|0:0|0:0,0:0:0:0:
408,20,114625,2,0,L|336:12,1,67.5000025749208
164,192,114938,5,2,0:0:0:0:
134,267,115094,1,0,0:0:0:0:
59,237,115250,1,2,0:0:0:0:
89,162,115406,1,0,0:0:0:0:
216,253,115563,5,2,0:0:0:0:
4,293,115719,1,0,0:0:0:0:
83,92,115875,1,0,0:0:0:0:
280,324,116031,5,0,0:0:0:0:
344,244,116188,2,0,P|380:236|416:244,1,67.5000025749208,2|0,0:0|0:0,0:0:0:0:
464,324,116500,1,0,0:0:0:0:
288,128,116656,1,0,0:0:0:0:
224,208,116813,2,0,P|188:216|152:208,1,67.5000025749208,2|0,0:0|0:0,0:0:0:0:
100,128,117125,1,0,0:0:0:0:
192,44,117281,1,0,0:0:0:0:
280,324,117438,5,2,0:0:0:0:
192,372,117594,1,0,0:0:0:0:
192,372,117672,1,0,0:0:0:0:
192,372,117750,1,2,0:0:0:0:
104,324,117906,1,0,0:0:0:0:
192,128,118063,2,0,B|244:136|300:128|300:128|264:108,1,135.000005149842,2|0,0:0|0:0,0:0:0:0:
136,28,118531,1,0,0:0:0:0:
304,216,118688,6,0,P|372:204|460:224,1,135.000005149842,2|0,0:0|0:0,0:0:0:0:
211,221,119156,1,0,0:0:0:0:
211,221,119313,2,0,P|187:286|126:352,1,135.000005149842,2|0,0:0|0:0,0:0:0:0:
252,138,119781,1,0,0:0:0:0:
252,138,119938,6,0,P|208:85|181:0,1,135.000005149842,2|0,0:0|0:0,0:0:0:0:
284,44,120406,1,0,0:0:0:0:
284,44,120484,1,0,0:0:0:0:
284,44,120563,1,2,0:0:0:0:
136,128,120719,1,0,0:0:0:0:
308,32,120875,1,2,0:0:0:0:
108,140,121031,1,0,0:0:0:0:
340,16,121188,6,0,P|376:12|420:20,1,67.5000025749208,2|0,0:0|0:0,0:0:0:0:
492,72,121500,1,0,0:0:0:0:
436,156,121656,1,0,0:0:0:0:
336,148,121813,2,0,P|360:216|424:260,1,135.000005149842,2|0,0:0|0:0,0:0:0:0:
504,284,122281,1,0,0:0:0:0:
256,160,122438,6,0,P|184:140|128:148,1,101.250003862381,2|0,0:0|0:0,0:0:0:0:
132,144,122750,2,0,P|96:152|68:168,1,67.5000025749208
20,256,123063,2,0,L|27:288,3,33.7500012874604,2|0|0|0,0:0|0:0|0:0|0:0,0:0:0:0:
152,280,123375,2,0,L|159:312,3,33.7500012874604,2|0|0|0,0:0|0:0|0:0|0:0,0:0:0:0:
284,332,123688,6,0,P|316:336|352:332,1,67.5000025749208,4|0,0:0|0:0,0:0:0:0:
428,268,124000,1,0,0:0:0:0:
429,252,124078,1,0,0:0:0:0:
430,236,124156,1,0,0:0:0:0:
432,220,124234,1,0,0:0:0:0:
433,204,124313,1,2,0:0:0:0:
352,144,124469,1,0,0:0:0:0:
440,364,124625,1,2,0:0:0:0:
496,132,124781,1,0,0:0:0:0:
312,284,124938,6,0,P|272:292|232:292,1,67.5000025749208,2|0,0:0|0:0,0:0:0:0:
156,192,125250,1,0,0:0:0:0:
156,192,125406,1,0,0:0:0:0:
288,164,125563,2,0,B|336:180|392:172|392:172|356:188,1,135.000005149842,2|0,0:0|0:0,0:0:0:0:
136,292,126031,1,0,0:0:0:0:
60,224,126188,6,0,P|52:188|60:148,1,67.5000025749208,2|0,0:0|0:0,0:0:0:0:
116,76,126500,1,2,0:0:0:0:
132,72,126578,1,0,0:0:0:0:
148,68,126656,1,0,0:0:0:0:
164,64,126734,1,0,0:0:0:0:
180,60,126813,1,2,0:0:0:0:
256,128,126969,1,0,0:0:0:0:
12,64,127125,1,2,0:0:0:0:
12,64,127203,1,0,0:0:0:0:
12,64,127281,1,0,0:0:0:0:
76,308,127438,5,2,0:0:0:0:
172,276,127594,1,0,0:0:0:0:
268,308,127750,1,0,0:0:0:0:
364,276,127906,1,0,0:0:0:0:
268,160,128063,5,2,0:0:0:0:
150,358,128219,1,0,0:0:0:0:
379,361,128375,1,0,0:0:0:0:
379,361,128688,6,0,P|436:320|444:256,1,135.000005149842,2|0,0:0|0:0,0:0:0:0:
368,192,129156,1,0,0:0:0:0:
256,248,129313,1,0,0:0:0:0:
382,185,129469,1,0,0:0:0:0:
242,255,129626,1,0,0:0:0:0:
399,176,129781,1,0,0:0:0:0:
224,263,129938,6,0,P|152:272|72:256,1,135.000005149842,2|0,0:0|0:0,0:0:0:0:
160,144,130406,1,0,0:0:0:0:
272,364,130563,2,0,P|316:352|356:348,1,67.5000025749208,2|0,0:0|0:0,0:0:0:0:
436,372,130875,1,0,0:0:0:0:
436,372,131031,1,0,0:0:0:0:
492,176,131188,5,2,0:0:0:0:
404,128,131344,1,0,0:0:0:0:
404,128,131422,1,0,0:0:0:0:
404,128,131500,1,0,0:0:0:0:
400,228,131656,1,0,0:0:0:0:
400,228,131734,1,0,0:0:0:0:
400,228,131813,1,2,0:0:0:0:
488,76,131969,1,0,0:0:0:0:
391,242,132125,1,0,0:0:0:0:
496,61,132281,1,0,0:0:0:0:
384,256,132438,6,0,P|348:260|316:256,1,67.5000025749208,2|0,0:0|0:0,0:0:0:0:
256,176,132750,1,2,0:0:0:0:
256,176,132906,1,0,0:0:0:0:
128,256,133063,2,0,P|161:260|194:256,1,67.5000025749208,2|0,0:0|0:0,0:0:0:0:
348,176,133375,1,2,0:0:0:0:
164,176,133531,1,0,0:0:0:0:
256,336,133688,6,0,P|296:344|324:344,1,67.5000025749208,4|0,0:0|0:0,0:0:0:0:
416,304,134000,1,0,0:0:0:0:
304,192,134156,1,0,0:0:0:0:
488,352,134313,2,0,P|500:312|452:224,1,135.000005149842,2|2,0:0|0:0,0:0:0:0:
322,344,134781,1,0,0:0:0:0:
256,96,134938,6,0,B|260:76|260:76|272:48|272:48|276:28,1,67.5000025749208,2|0,0:0|0:0,0:0:0:0:
160,192,135250,2,0,B|140:188|140:188|112:176|112:176|92:172,1,67.5000025749208
256,288,135563,2,0,B|252:308|252:308|240:336|240:336|236:356,1,67.5000025749208,2|0,0:0|0:0,0:0:0:0:
352,192,135875,2,0,B|372:196|372:196|400:208|400:208|420:212,1,67.5000025749208
116,64,136188,5,2,0:0:0:0:
32,120,136344,1,0,0:0:0:0:
32,120,136422,1,0,0:0:0:0:
32,120,136500,2,0,L|20:200,1,67.5000025749208
76,276,136813,1,2,0:0:0:0:
76,276,136969,1,0,0:0:0:0:
264,188,137125,2,0,L|274:121,1,67.5000025749208,2|0,0:0|0:0,0:0:0:0:
212,40,137438,5,2,0:0:0:0:
212,40,137594,1,0,0:0:0:0:
409,229,137750,1,0,0:0:0:0:
409,229,137906,1,0,0:0:0:0:
146,306,138063,1,0,0:0:0:0:
146,306,138219,1,0,0:0:0:0:
365,77,138375,1,0,0:0:0:0:
300,344,138531,1,0,0:0:0:0:
102,154,138688,5,4,0:0:0:0:
172,80,139156,1,0,0:0:0:0:
72,56,139625,1,2,0:0:0:0:
208,368,139938,5,2,0:0:0:0:
300,344,140250,1,0,0:0:0:0:
276,252,140563,1,2,0:0:0:0:
184,276,140875,1,0,0:0:0:0:
184,276,141031,1,0,0:0:0:0:
496,360,141188,5,2,0:0:0:0:
512,260,141656,1,0,0:0:0:0:
416,296,142125,1,2,0:0:0:0:
24,372,142438,5,2,0:0:0:0:
84,252,142750,1,0,0:0:0:0:
28,128,143063,1,2,0:0:0:0:
36,102,144313,6,0,P|134:84|120:221,1,270
96,148,145563,5,0,0:0:0:0:
96,148,145641,1,0,0:0:0:0:
96,148,145719,1,0,0:0:0:0:
256,265,145875,1,0,0:0:0:0:
280,69,146031,1,0,0:0:0:0:
16,184,146188,6,0,L|8:280,1,90,4|0,0:0|0:0,0:0:0:0:
120,348,146500,1,0,0:0:0:0:
143,350,146578,1,0,0:0:0:0:
167,353,146656,1,0,0:0:0:0:
191,355,146734,1,0,0:0:0:0:
215,358,146813,1,2,0:0:0:0:
120,168,146969,1,0,0:0:0:0:
23,359,147125,1,0,0:0:0:0:
236,360,147281,1,0,0:0:0:0:
236,360,147438,6,0,P|248:308|240:272,1,90,2|0,0:0|0:0,0:0:0:0:
72,104,147750,1,0,0:0:0:0:
76,127,147828,1,0,0:0:0:0:
81,151,147906,1,0,0:0:0:0:
85,174,147984,1,0,0:0:0:0:
90,198,148063,1,2,0:0:0:0:
124,328,148219,1,0,0:0:0:0:
124,328,148375,1,0,0:0:0:0:
364,236,148531,1,0,0:0:0:0:
344,356,148688,6,0,P|424:340|444:324,1,90,2|0,0:0|0:0,0:0:0:0:
396,124,149000,1,0,0:0:0:0:
375,120,149078,1,0,0:0:0:0:
351,120,149156,1,0,0:0:0:0:
328,125,149234,1,0,0:0:0:0:
308,133,149313,1,2,0:0:0:0:
212,228,149469,1,0,0:0:0:0:
104,148,149625,6,0,P|88:104|84:56,1,90
92,276,149938,2,0,P|63:310|26:336,1,90,2|0,0:0|0:0,0:0:0:0:
212,228,150250,2,0,P|258:236|301:256,1,90,2|0,0:0|0:0,0:0:0:0:
480,340,150563,6,0,B|480:300|480:300|492:252|492:252|492:200,1,135.000005149842,2|0,0:0|0:0,0:0:0:0:
32,44,150875,2,0,B|32:84|32:84|20:132|20:132|20:184,1,135.000005149842,2|0,0:0|0:0,0:0:0:0:
188,348,151188,6,0,P|236:356|276:348,1,90,2|0,0:0|0:0,0:0:0:0:
364,244,151500,1,0,0:0:0:0:
368,220,151578,1,0,0:0:0:0:
364,196,151656,1,0,0:0:0:0:
360,172,151734,1,0,0:0:0:0:
364,148,151813,1,2,0:0:0:0:
280,44,151969,1,0,0:0:0:0:
460,196,152125,1,0,0:0:0:0:
236,272,152281,1,0,0:0:0:0:
408,68,152438,5,2,0:0:0:0:
366,299,152594,1,0,0:0:0:0:
188,143,152750,1,0,0:0:0:0:
460,196,152906,1,0,0:0:0:0:
236,272,153062,1,2,0:0:0:0:
280,44,153218,1,0,0:0:0:0:
366,299,153375,6,0,P|340:340|288:372,1,90
172,364,153688,2,0,P|136:336|113:298,1,90,2|0,0:0|0:0,0:0:0:0:
188,188,154000,1,0,0:0:0:0:
212,188,154078,1,0,0:0:0:0:
236,190,154156,1,0,0:0:0:0:
260,190,154234,1,0,0:0:0:0:
285,192,154313,1,2,0:0:0:0:
366,299,154469,1,0,0:0:0:0:
480,224,154625,1,0,0:0:0:0:
360,324,154781,1,0,0:0:0:0:
488,192,154938,5,2,0:0:0:0:
348,52,155094,1,0,0:0:0:0:
300,244,155250,1,2,0:0:0:0:
372,160,155406,1,0,0:0:0:0:
200,61,155562,1,2,0:0:0:0:
203,258,155718,1,0,0:0:0:0:
256,160,155875,1,2,0:0:0:0:
64,108,156031,1,0,0:0:0:0:
119,299,156188,6,0,P|148:336|196:352,1,90,4|0,0:0|0:0,0:0:0:0:
308,288,156500,1,0,0:0:0:0:
332,292,156578,1,0,0:0:0:0:
356,296,156656,1,0,0:0:0:0:
380,300,156734,1,0,0:0:0:0:
404,304,156813,1,2,0:0:0:0:
384,172,156969,1,0,0:0:0:0:
272,368,157125,1,0,0:0:0:0:
496,360,157281,1,0,0:0:0:0:
340,88,157438,6,0,L|248:76,1,90,2|0,0:0|0:0,0:0:0:0:
144,156,157750,1,0,0:0:0:0:
120,163,157828,1,0,0:0:0:0:
97,162,157906,1,0,0:0:0:0:
77,150,157984,1,0,0:0:0:0:
62,131,158063,1,2,0:0:0:0:
140,24,158219,1,0,0:0:0:0:
248,208,158375,2,0,P|256:256|244:304,1,90
132,368,158688,6,0,P|224:336|296:380,1,180,2|0,0:0|0:0,0:0:0:0:
310,362,159078,1,0,0:0:0:0:
326,346,159156,1,0,0:0:0:0:
336,326,159234,1,0,0:0:0:0:
337,303,159313,1,2,0:0:0:0:
160,256,159469,1,0,0:0:0:0:
288,124,159625,1,0,0:0:0:0:
128,252,159781,1,0,0:0:0:0:
320,132,159938,6,0,L|428:152,1,90,2|0,0:0|0:0,0:0:0:0:
196,264,160250,2,0,L|88:244,1,90,2|0,0:0|0:0,0:0:0:0:
364,252,160563,6,0,L|340:388,1,135.000005149842,2|0,0:0|0:0,0:0:0:0:
148,144,160875,2,0,L|172:8,1,135.000005149842,2|0,0:0|0:0,0:0:0:0:
40,156,161188,6,0,L|24:248,1,90,2|0,0:0|0:0,0:0:0:0:
96,360,161500,1,0,0:0:0:0:
120,364,161578,1,0,0:0:0:0:
144,360,161656,1,0,0:0:0:0:
168,356,161734,1,0,0:0:0:0:
192,360,161813,1,2,0:0:0:0:
328,360,161969,1,0,0:0:0:0:
140,248,162125,1,0,0:0:0:0:
341,367,162281,1,0,0:0:0:0:
126,240,162438,6,0,P|172:228|220:240,1,90,2|0,0:0|0:0,0:0:0:0:
316,136,162750,1,0,0:0:0:0:
317,114,162828,1,0,0:0:0:0:
318,93,162906,1,0,0:0:0:0:
320,71,162984,1,0,0:0:0:0:
321,50,163063,1,2,0:0:0:0:
436,232,163219,1,0,0:0:0:0:
224,116,163375,1,0,0:0:0:0:
420,120,163531,1,0,0:0:0:0:
312,284,163688,6,0,P|272:304|228:304,1,90,2|0,0:0|0:0,0:0:0:0:
128,212,164000,1,0,0:0:0:0:
128,212,164156,1,0,0:0:0:0:
4,268,164313,2,0,P|13:327|-3:360,1,90,2|0,0:0|0:0,0:0:0:0:
32,125,164625,2,0,P|78:87|115:85,1,90
172,284,164938,5,2,0:0:0:0:
356,220,165094,1,0,0:0:0:0:
232,164,165250,1,2,0:0:0:0:
296,340,165406,1,0,0:0:0:0:
317,140,165563,5,2,0:0:0:0:
214,361,165719,1,0,0:0:0:0:
379,306,165875,1,2,0:0:0:0:
152,196,166031,1,0,0:0:0:0:
152,196,166188,6,0,P|132:160|132:100,1,101.250003862381,4|0,0:0|0:0,0:0:0:0:
108,76,166500,2,0,L|40:88,1,67.5000025749208
229,131,166813,2,0,L|296:120,1,67.5000025749208,2|0,0:0|0:0,0:0:0:0:
396,108,167125,1,0,0:0:0:0:
444,196,167281,1,2,0:0:0:0:
372,268,167438,5,2,0:0:0:0:
284,220,167594,1,0,0:0:0:0:
416,96,167750,1,0,0:0:0:0:
464,184,167906,1,2,0:0:0:0:
360,292,168063,1,2,0:0:0:0:
272,244,168219,1,0,0:0:0:0:
436,80,168375,1,0,0:0:0:0:
484,168,168531,1,2,0:0:0:0:
344,312,168688,5,2,0:0:0:0:
256,264,168844,1,0,0:0:0:0:
156,284,169000,1,0,0:0:0:0:
88,360,169156,1,0,0:0:0:0:
363,290,169313,5,2,0:0:0:0:
272,244,169469,1,0,0:0:0:0:
230,150,169625,1,0,0:0:0:0:
254,51,169781,1,2,0:0:0:0:
364,152,169938,5,2,0:0:0:0:
364,152,170094,1,0,0:0:0:0:
248,364,170250,1,2,0:0:0:0:
248,364,170406,1,2,0:0:0:0:
108,164,170563,1,0,0:0:0:0:
108,164,170719,1,2,0:0:0:0:
108,164,170875,6,0,B|112:64|112:64|136:104,1,135.000005149842,2|0,0:0|0:0,0:0:0:0:
188,232,171344,1,0,0:0:0:0:
188,232,171500,2,0,B|188:256|188:256|184:280|184:280|184:300,1,67.5000025749208,2|0,0:0|0:0,0:0:0:0:
88,336,171813,1,2,0:0:0:0:
224,144,171969,1,0,0:0:0:0:
236,380,172125,1,2,0:0:0:0:
88,196,172281,1,0,0:0:0:0:
316,256,172438,6,0,L|383:261,1,67.5000025749208,2|0,0:0|0:0,0:0:0:0:
196,128,172750,2,0,L|128:122,1,67.5000025749208,2|0,0:0|0:0,0:0:0:0:
320,132,173063,2,0,L|325:64,1,67.5000025749208,2|0,0:0|0:0,0:0:0:0:
192,252,173375,2,0,L|186:319,1,67.5000025749208,2|0,0:0|0:0,0:0:0:0:
92,356,173688,5,2,0:0:0:0:
32,272,173844,1,0,0:0:0:0:
20,172,174000,1,2,0:0:0:0:
52,76,174156,1,0,0:0:0:0:
136,260,174313,5,2,0:0:0:0:
220,200,174469,1,0,0:0:0:0:
320,188,174625,1,2,0:0:0:0:
416,220,174781,1,0,0:0:0:0:
300,316,174938,6,0,P|339:346|401:364,1,101.250003862381,2|0,0:0|0:0,0:0:0:0:
422,363,175250,2,0,P|446:362|493:345,1,67.5000025749208,2|0,0:0|0:0,0:0:0:0:
416,220,175563,2,0,L|432:136,1,67.5000025749208,2|0,0:0|0:0,0:0:0:0:
240,96,175875,6,0,B|220:200|220:200|196:168,1,135.000005149842,2|4,0:0|0:0,0:0:0:0:
136,100,176344,1,0,0:0:0:0:
136,100,176500,2,0,P|100:92|64:96,1,67.5000025749208
328,176,176813,2,0,P|364:184|400:180,1,67.5000025749208,2|0,0:0|0:0,0:0:0:0:
472,116,177125,1,0,0:0:0:0:
472,116,177281,1,0,0:0:0:0:
440,276,177438,6,0,P|400:272|360:280,1,67.5000025749208,2|0,0:0|0:0,0:0:0:0:
288,332,177750,1,0,0:0:0:0:
204,276,177906,1,0,0:0:0:0:
204,276,178063,2,0,P|200:232|208:200,1,67.5000025749208,2|0,0:0|0:0,0:0:0:0:
96,64,178375,2,0,P|100:108|92:140,1,67.5000025749208,2|0,0:0|0:0,0:0:0:0:
32,212,178688,5,2,0:0:0:0:
192,112,178844,1,0,0:0:0:0:
196,300,179000,1,2,0:0:0:0:
144,200,179156,1,0,0:0:0:0:
324,144,179312,1,2,0:0:0:0:
279,327,179468,1,0,0:0:0:0:
252,224,179625,1,2,0:0:0:0:
440,216,179781,1,0,0:0:0:0:
349,381,179938,6,0,P|420:380|468:352,1,101.250003862381,2|0,0:0|0:0,0:0:0:0:
468,344,180250,2,0,L|484:264,1,67.5000025749208,2|0,0:0|0:0,0:0:0:0:
337,77,180563,2,0,L|324:144,1,67.5000025749208,2|0,0:0|0:0,0:0:0:0:
356,240,180875,1,2,0:0:0:0:
216,176,181031,1,0,0:0:0:0:
337,77,181188,6,0,P|376:88|420:76,1,67.5000025749208,2|0,0:0|0:0,0:0:0:0:
484,24,181500,1,2,0:0:0:0:
484,24,181656,1,0,0:0:0:0:
248,44,181813,2,0,P|209:33|165:45,1,67.5000025749208,2|0,0:0|0:0,0:0:0:0:
100,96,182125,2,0,L|92:176,1,67.5000025749208,2|0,0:0|0:0,0:0:0:0:
8,204,182438,5,2,0:0:0:0:
168,104,182594,1,0,0:0:0:0:
172,292,182750,1,2,0:0:0:0:
120,192,182906,1,0,0:0:0:0:
300,136,183062,1,2,0:0:0:0:
255,319,183218,1,0,0:0:0:0:
228,216,183375,1,2,0:0:0:0:
416,208,183531,1,0,0:0:0:0:
325,373,183688,6,0,P|400:384|468:368,1,135.000005149842,2|0,0:0|0:0,0:0:0:0:
187,373,184313,2,0,P|112:384|44:368,1,135.000005149842
336,204,184938,6,8,L|440:188,2,101.250003862381
176,204,185563,2,8,L|72:188,2,101.250003862381
256,268,186188,5,2,0:0:0:0:
196,324,186500,2,0,P|212:336|240:344,3,45.0000017166138
316,324,187125,1,0,0:0:0:0:
316,324,187281,1,0,0:0:0:0:
256,88,187438,5,2,0:0:0:0:
184,48,187750,2,0,L|116:44,2,67.5000025749208
184,128,188375,1,0,0:0:0:0:
184,128,188531,1,0,0:0:0:0:
420,72,188688,5,2,0:0:0:0:
316,156,189000,1,0,0:0:0:0:
448,148,189313,1,2,0:0:0:0:
336,76,189625,1,0,0:0:0:0:
384,200,189938,2,0,P|272:224|264:92,1,270.000010299683,2|2,0:0|0:0,0:0:0:0:
316,156,190875,5,8,0:0:0:0:
92,312,191188,1,2,0:0:0:0:
48,244,191500,2,0,P|44:224|44:200,3,45.0000017166138
88,132,192125,1,0,0:0:0:0:
88,132,192281,1,0,0:0:0:0:
256,312,192438,5,2,0:0:0:0:
324,356,192750,1,0,0:0:0:0:
372,200,193063,1,0,0:0:0:0:
452,200,193375,1,0,0:0:0:0:
452,200,193531,1,0,0:0:0:0:
284,24,193688,5,2,0:0:0:0:
140,108,193844,1,0,0:0:0:0:
284,192,194000,1,2,0:0:0:0:
240,108,194156,1,0,0:0:0:0:
96,192,194312,1,2,0:0:0:0:
240,276,194468,1,0,0:0:0:0:
192,192,194625,1,2,0:0:0:0:
48,276,194781,1,0,0:0:0:0:
192,360,194937,5,2,0:0:0:0:
340,276,195094,1,0,0:0:0:0:
192,192,195250,1,2,0:0:0:0:
240,276,195406,1,0,0:0:0:0:
388,192,195563,1,2,0:0:0:0:
240,108,195719,1,0,0:0:0:0:
288,192,195875,1,2,0:0:0:0:
436,108,196032,1,0,0:0:0:0:
288,24,196188,6,0,P|244:20|196:24,1,67.5000025749208,4|0,0:0|0:0,0:0:0:0:
140,84,196500,1,0,0:0:0:0:
136,100,196578,1,0,0:0:0:0:
132,116,196656,1,0,0:0:0:0:
128,132,196734,1,0,0:0:0:0:
124,148,196813,1,2,0:0:0:0:
44,88,196969,1,0,0:0:0:0:
220,136,197125,1,2,0:0:0:0:
84,256,197281,1,0,0:0:0:0:
220,20,197438,6,0,P|254:20|288:24,1,67.5000025749208,2|0,0:0|0:0,0:0:0:0:
372,84,197750,1,0,0:0:0:0:
376,100,197828,1,0,0:0:0:0:
380,116,197906,1,0,0:0:0:0:
384,132,197984,1,0,0:0:0:0:
388,148,198063,1,2,0:0:0:0:
336,320,198219,1,0,0:0:0:0:
416,256,198375,2,0,P|452:252|488:256,1,67.5000025749208
280,236,198688,6,0,P|244:240|208:236,1,67.5000025749208,2|0,0:0|0:0,0:0:0:0:
124,188,199000,1,0,0:0:0:0:
108,184,199078,1,0,0:0:0:0:
92,180,199156,1,0,0:0:0:0:
76,180,199234,1,0,0:0:0:0:
60,188,199313,1,2,0:0:0:0:
92,284,199469,1,0,0:0:0:0:
248,140,199625,1,2,0:0:0:0:
78,296,199781,1,0,0:0:0:0:
261,127,199937,5,2,0:0:0:0:
336,156,200094,1,0,0:0:0:0:
336,236,200250,1,0,0:0:0:0:
256,252,200406,1,0,0:0:0:0:
212,184,200562,5,2,0:0:0:0:
344,96,200719,1,0,0:0:0:0:
440,224,200875,1,0,0:0:0:0:
308,312,201032,1,0,0:0:0:0:
216,40,201188,5,4,0:0:0:0:
108,24,201656,1,0,0:0:0:0:
28,92,202125,1,2,0:0:0:0:
368,348,202438,5,2,0:0:0:0:
448,276,202750,1,0,0:0:0:0:
316,248,203063,1,2,0:0:0:0:
456,168,203375,1,0,0:0:0:0:
456,168,203531,1,0,0:0:0:0:
176,40,203688,5,2,0:0:0:0:
112,120,204156,1,0,0:0:0:0:
12,108,204625,1,0,0:0:0:0:
12,108,204781,1,0,0:0:0:0:
256,372,204938,5,2,0:0:0:0:
336,296,205250,1,0,0:0:0:0:
440,332,205563,1,2,0:0:0:0:
440,332,206813,6,0,B|456:280|444:236|444:236|428:188|452:144,1,180
72,52,208063,2,0,B|56:104|68:148|68:148|84:196|60:240,1,180,2|0,0:0|0:0,0:0:0:0:
0,180,208922,5,0,0:0:0:0:
140,104,209156,1,0,0:0:0:0:
136,288,209313,5,2,0:0:0:0:
296,200,209469,1,0,0:0:0:0:
112,301,209625,1,2,0:0:0:0:
319,186,209781,1,0,0:0:0:0:
88,312,209938,5,2,0:0:0:0:
80,132,210094,1,0,0:0:0:0:
240,220,210250,1,2,0:0:0:0:
128,224,210406,1,0,0:0:0:0:
120,44,210562,1,2,0:0:0:0:
280,132,210718,1,0,0:0:0:0:
184,312,210875,1,2,0:0:0:0:
176,132,211031,1,0,0:0:0:0:
336,220,211188,6,0,P|340:264|336:312,1,90,4|0,0:0|0:0,0:0:0:0:
428,132,211500,1,0,0:0:0:0:
424,109,211578,1,0,0:0:0:0:
421,86,211656,1,0,0:0:0:0:
424,63,211734,1,0,0:0:0:0:
427,40,211813,1,2,0:0:0:0:
452,260,211969,1,0,0:0:0:0:
316,108,212125,1,0,0:0:0:0:
256,304,212281,1,0,0:0:0:0:
408,164,212438,6,0,P|372:192|316:200,1,90,2|0,0:0|0:0,0:0:0:0:
212,132,212750,1,0,0:0:0:0:
211,111,212828,1,0,0:0:0:0:
211,91,212906,1,0,0:0:0:0:
211,70,212984,1,0,0:0:0:0:
211,50,213063,1,2,0:0:0:0:
76,56,213219,1,0,0:0:0:0:
32,192,213375,1,0,0:0:0:0:
82,36,213531,1,0,0:0:0:0:
25,211,213688,6,0,P|72:224|120:212,1,90,2|0,0:0|0:0,0:0:0:0:
480,168,214000,1,0,0:0:0:0:
459,160,214079,1,0,0:0:0:0:
437,157,214157,1,0,0:0:0:0:
415,161,214235,1,0,0:0:0:0:
394,167,214313,1,2,0:0:0:0:
184,288,214469,1,0,0:0:0:0:
328,88,214625,1,0,0:0:0:0:
328,288,214781,1,0,0:0:0:0:
184,88,214938,6,0,L|198:176,1,90,2|0,0:0|0:0,0:0:0:0:
327,287,215250,2,0,L|313:199,1,90,2|0,0:0|0:0,0:0:0:0:
52,319,215563,6,0,L|184:288,1,135.000005149842,2|0,0:0|0:0,0:0:0:0:
459,56,215875,2,0,L|328:88,1,135.000005149842,2|0,0:0|0:0,0:0:0:0:
72,99,216188,5,2,0:0:0:0:
4,219,216344,1,0,0:0:0:0:
140,216,216500,1,0,0:0:0:0:
161,223,216578,1,0,0:0:0:0:
183,225,216656,1,0,0:0:0:0:
204,219,216734,1,0,0:0:0:0:
226,216,216813,1,2,0:0:0:0:
172,91,216969,1,0,0:0:0:0:
52,319,217125,1,0,0:0:0:0:
312,311,217281,1,0,0:0:0:0:
172,91,217438,6,0,L|172:204,1,90,2|0,0:0|0:0,0:0:0:0:
312,311,217750,1,0,0:0:0:0:
312,288,217828,1,0,0:0:0:0:
312,264,217906,1,0,0:0:0:0:
312,240,217984,1,0,0:0:0:0:
312,216,218063,1,2,0:0:0:0:
392,108,218219,1,0,0:0:0:0:
216,264,218375,2,0,P|167:276|123:261,1,90
56,152,218688,5,2,0:0:0:0:
168,76,218844,1,0,0:0:0:0:
172,212,219000,1,0,0:0:0:0:
40,153,219156,1,0,0:0:0:0:
175,61,219312,1,2,0:0:0:0:
180,225,219468,1,0,0:0:0:0:
23,154,219625,1,0,0:0:0:0:
183,45,219781,1,0,0:0:0:0:
189,239,219937,5,2,0:0:0:0:
352,136,220094,1,0,0:0:0:0:
183,45,220250,1,2,0:0:0:0:
199,220,220406,1,0,0:0:0:0:
329,136,220563,1,2,0:0:0:0:
194,64,220719,1,0,0:0:0:0:
207,204,220875,1,2,0:0:0:0:
312,137,221032,1,0,0:0:0:0:
204,79,221188,6,0,P|156:72|112:80,1,90,4|0,0:0|0:0,0:0:0:0:
28,184,221500,1,0,0:0:0:0:
24,208,221578,1,0,0:0:0:0:
20,232,221656,1,0,0:0:0:0:
16,256,221734,1,0,0:0:0:0:
12,280,221813,1,2,0:0:0:0:
112,368,221969,1,0,0:0:0:0:
200,264,222125,2,0,P|208:212|200:172,1,90
304,360,222438,6,0,P|356:368|392:360,1,90,2|0,0:0|0:0,0:0:0:0:
488,264,222750,1,0,0:0:0:0:
484,240,222829,1,0,0:0:0:0:
480,216,222907,1,0,0:0:0:0:
476,192,222985,1,0,0:0:0:0:
472,168,223063,1,2,0:0:0:0:
372,76,223219,1,0,0:0:0:0:
252,184,223375,1,0,0:0:0:0:
394,55,223531,1,0,0:0:0:0:
229,204,223688,6,0,P|180:212|136:204,1,90,2|0,0:0|0:0,0:0:0:0:
192,80,224000,1,0,0:0:0:0:
192,80,224078,1,0,0:0:0:0:
192,80,224156,1,0,0:0:0:0:
192,80,224234,1,0,0:0:0:0:
192,80,224313,1,2,0:0:0:0:
320,296,224469,1,0,0:0:0:0:
394,55,224625,1,0,0:0:0:0:
184,196,224781,1,0,0:0:0:0:
436,172,224938,6,0,L|440:264,1,90,2|0,0:0|0:0,0:0:0:0:
76,212,225250,2,0,L|72:120,1,90,2|0,0:0|0:0,0:0:0:0:
464,168,225563,6,0,L|472:316,1,135.000005149842,2|0,0:0|0:0,0:0:0:0:
48,216,225875,2,0,L|40:68,1,135.000005149842,2|0,0:0|0:0,0:0:0:0:
492,168,226188,6,0,L|496:264,1,90,2|0,0:0|0:0,0:0:0:0:
396,348,226500,1,0,0:0:0:0:
372,352,226578,1,0,0:0:0:0:
348,356,226656,1,0,0:0:0:0:
324,352,226734,1,0,0:0:0:0:
300,348,226813,1,2,0:0:0:0:
232,192,226969,1,0,0:0:0:0:
140,324,227125,1,0,0:0:0:0:
247,170,227281,1,0,0:0:0:0:
124,345,227437,5,2,0:0:0:0:
32,148,227594,1,0,0:0:0:0:
247,170,227750,1,0,0:0:0:0:
247,170,227828,1,0,0:0:0:0:
247,170,227906,1,0,0:0:0:0:
247,170,227984,1,0,0:0:0:0:
247,170,228063,1,2,0:0:0:0:
132,224,228219,1,0,0:0:0:0:
256,45,228376,1,0,0:0:0:0:
345,243,228532,1,0,0:0:0:0:
140,96,228688,6,0,P|96:88|48:104,1,90,2|0,0:0|0:0,0:0:0:0:
16,232,229000,1,0,0:0:0:0:
16,256,229078,1,0,0:0:0:0:
16,280,229156,1,0,0:0:0:0:
32,296,229234,1,0,0:0:0:0:
48,312,229313,1,2,0:0:0:0:
164,380,229469,1,0,0:0:0:0:
298,257,229625,2,0,P|255:245|212:256,1,90
348,380,229938,5,2,0:0:0:0:
404,208,230094,1,0,0:0:0:0:
444,344,230250,1,2,0:0:0:0:
368,180,230406,1,0,0:0:0:0:
508,268,230563,1,2,0:0:0:0:
324,168,230719,1,0,0:0:0:0:
512,168,230875,1,2,0:0:0:0:
276,180,231031,1,0,0:0:0:0:
172,324,231188,6,0,B|148:280|144:232|144:232|136:284,1,135.000005149842,4|0,0:0|0:0,0:0:0:0:
108,368,231656,1,0,0:0:0:0:
228,252,231813,1,2,0:0:0:0:
72,196,231969,1,0,0:0:0:0:
252,368,232125,2,0,P|280:372|320:368,1,67.5000025749208
408,316,232438,5,2,0:0:0:0:
424,216,232594,1,0,0:0:0:0:
324,200,232750,1,0,0:0:0:0:
308,300,232906,1,2,0:0:0:0:
479,273,233063,5,0,0:0:0:0:
383,141,233219,1,0,0:0:0:0:
252,237,233375,1,2,0:0:0:0:
346,368,233531,1,0,0:0:0:0:
346,368,233609,1,0,0:0:0:0:
346,368,233688,2,0,P|312:376|268:368,1,67.5000025749208,4|0,0:0|0:0,0:0:0:0:
192,324,234000,5,0,0:0:0:0:
116,256,234156,1,0,0:0:0:0:
96,356,234313,1,2,0:0:0:0:
181,346,234469,1,0,0:0:0:0:
92,266,234625,1,0,0:0:0:0:
68,383,234782,1,0,0:0:0:0:
256,172,234938,5,2,0:0:0:0:
280,55,235094,1,0,0:0:0:0:
369,135,235251,1,0,0:0:0:0:
272,148,235406,1,2,0:0:0:0:
296,31,235562,1,0,0:0:0:0:
385,111,235719,1,0,0:0:0:0:
288,124,235875,1,2,0:0:0:0:
420,12,236031,1,0,0:0:0:0:
420,12,236109,1,0,0:0:0:0:
420,12,236188,1,2,0:0:0:0:
448,184,236813,5,4,0:0:0:0:
