osu file format v14

[General]
AudioFilename: colorful.mp3
AudioLeadIn: 0
PreviewTime: 185250
Countdown: 1
SampleSet: Soft
StackLeniency: 0.7
Mode: 0
LetterboxInBreaks: 0
WidescreenStoryboard: 1

[Editor]
Bookmarks: 21188,56188,61813,83688,92438,138688,144313,201188,206813
DistanceSpacing: 1
BeatDivisor: 4
GridSize: 4
TimelineZoom: 2.1

[Metadata]
Title:Colorful
TitleUnicode:Colorful
Artist:Mili
ArtistUnicode:Mili
Creator:Backstep
Version:Easy
Source:
Tags:H△G relaxing カラフル
BeatmapID:1406528
BeatmapSetID:373742

[Difficulty]
HPDrainRate:2
CircleSize:2.5
OverallDifficulty:2
ApproachRate:3
SliderMultiplier:0.799999999999999
SliderTickRate:1

[Events]
//Background and Video events
0,0,"colorful-bg.jpg",0,0
//Break Periods
2,85138,92248
//Storyboard Layer 0 (Background)
//Storyboard Layer 1 (Fail)
//Storyboard Layer 2 (Pass)
//Storyboard Layer 3 (Foreground)
//Storyboard Sound Samples

[TimingPoints]
1188,312.5,4,2,0,50,1,0
1188,-133.333333333333,4,2,0,50,0,0
63688,-100,4,2,0,50,0,1
78688,-100,4,2,0,50,0,1
83688,-133.333333333333,4,2,0,50,0,0
146188,-100,4,2,0,50,0,1
161188,-100,4,2,0,50,0,1
166188,-133.333333333333,4,2,0,50,0,0
211188,-100,4,2,0,50,0,1
226188,-100,4,2,0,50,0,1
231188,-133.333333333333,4,2,0,50,0,0

[Colours]
Combo1 : 255,224,130
Combo2 : 138,255,138
Combo3 : 140,192,255
Combo4 : 245,84,108

[HitObjects]
256,192,1188,12,0,2438,0:0:0:0:
256,192,3688,12,0,4938,0:0:0:0:
256,192,6188,12,0,7438,0:0:0:0:
256,192,8688,12,0,9938,0:0:0:0:
176,184,11188,6,0,P|112:176|52:188,2,120.000004577637
288,232,13063,2,0,L|296:292,1,60.0000022888184
308,352,13688,6,0,L|440:344,2,120.000004577637
204,296,15563,2,0,L|136:300,1,60.0000022888184
96,336,16188,6,0,L|-32:348,2,120.000004577637
164,236,18063,2,0,L|160:168,1,60.0000022888184
196,128,18688,6,0,P|320:92|408:152,1,240.000009155273
476,248,20563,2,0,L|480:320,1,60.0000022888184
484,368,21188,5,4,0:0:0:0:
256,296,22438,1,0,0:0:0:0:
432,132,23688,1,0,0:0:0:0:
484,368,24938,1,0,0:0:0:0:
256,296,26188,6,0,P|196:284|132:304,1,120.000004577637
32,248,27438,2,0,P|8:188|24:132,1,120.000004577637
100,44,28688,5,0,0:0:0:0:
220,44,29313,2,0,L|280:44,2,60.0000022888184
220,164,30563,2,0,L|280:164,1,60.0000022888184
340,164,31188,5,0,0:0:0:0:
488,352,32438,1,0,0:0:0:0:
476,112,33688,1,0,0:0:0:0:
344,312,34938,1,0,0:0:0:0:
108,364,36188,6,0,P|92:308|112:244,1,120.000004577637
184,156,37438,2,0,P|200:100|180:36,1,120.000004577637
76,96,38688,5,0,0:0:0:0:
184,156,39313,2,0,L|184:224,2,60.0000022888184
296,204,40563,2,0,L|296:272,1,60.0000022888184
296,324,41188,5,4,0:0:0:0:
408,276,41813,2,0,P|440:272|468:276,2,60.0000022888184
376,160,43063,2,0,P|395:134|418:117,2,60.0000022888184
264,120,44313,2,0,P|259:88|263:59,2,60.0000022888184
172,196,45563,1,0,0:0:0:0:
80,276,46188,5,0,0:0:0:0:
8,180,46813,2,0,P|0:144|4:116,2,60.0000022888184
116,128,48063,2,0,P|135:96|158:79,2,60.0000022888184
224,176,49313,5,0,0:0:0:0:
312,260,49938,2,0,L|332:200,1,60.0000022888184
332,144,50563,2,0,L|308:80,1,60.0000022888184
336,32,51188,6,0,P|424:16|492:72,1,180.000006866455
508,128,52438,2,0,B|496:184|496:184|512:232|512:232|500:304,1,180.000006866455
464,352,53688,6,0,P|364:364|292:328,1,180.000006866455
256,284,54938,2,0,P|174:248|86:262,1,180.000006866455
36,296,56188,5,0,0:0:0:0:
152,84,57438,1,0,0:0:0:0:
388,116,58688,1,0,0:0:0:0:
288,332,59938,2,0,L|216:332,2,60.0000022888184
256,192,61813,12,0,63063,0:0:0:0:
124,132,63688,5,4,0:0:0:0:
232,64,64313,1,0,0:0:0:0:
336,140,64938,2,0,P|380:148|416:140,2,79.9999999999999
212,180,66188,6,0,P|192:260|216:340,1,160
336,360,67438,2,0,L|420:344,1,79.9999999999999
412,280,68063,2,0,L|488:232,1,79.9999999999999
460,176,68688,6,0,P|480:92|456:16,1,160
332,20,69938,2,0,L|244:20,2,79.9999999999999
460,22,71188,5,0,0:0:0:0:
508,140,71813,1,0,0:0:0:0:
440,248,72438,2,0,P|396:256|356:248,1,79.9999999999999
300,232,73063,2,0,P|260:226|221:234,1,79.9999999999999
160,256,73688,6,0,P|72:272|8:148,1,240,4|0,0:0|0:0,0:0:0:0:
32,96,74938,2,0,B|100:72|100:72|100:72|100:72|184:136|272:88,1,240
312,60,76188,6,0,B|396:28|476:72|476:72|512:140,1,240
512,196,77438,2,0,L|488:288,1,79.9999999999999
428,264,78063,2,0,L|380:332,1,79.9999999999999
324,304,78688,6,0,P|232:316|164:300,1,160
168,172,79938,2,0,P|260:160|328:176,1,160
428,252,81188,5,0,0:0:0:0:
480,136,81813,1,0,0:0:0:0:
388,44,82438,2,0,P|344:36|304:44,1,79.9999999999999
248,60,83063,2,0,P|208:65|169:57,1,79.9999999999999
256,192,83688,12,0,84938,0:0:0:0:
200,328,93688,6,0,P|160:344|104:348,2,90.0000034332276
244,284,94938,2,0,B|244:160|244:160|296:196,1,180.000006866455
340,224,96188,2,0,P|380:240|436:244,2,90.0000034332276
52,140,98688,6,0,L|52:44,2,90.0000034332276
52,200,99938,2,0,P|144:228|232:204,1,180.000006866455
224,268,101188,2,0,L|224:364,2,90.0000034332276
