osu file format v14

[General]
AudioFilename: audio.mp3
AudioLeadIn: 0
PreviewTime: 185563
Countdown: 0
SampleSet: Soft
StackLeniency: 0.7
Mode: 0
LetterboxInBreaks: 0
WidescreenStoryboard: 1

[Editor]
DistanceSpacing: 1
BeatDivisor: 2
GridSize: 32
TimelineZoom: 1.2

[Metadata]
Title:Colorful
TitleUnicode:カラフル
Artist:Mili
ArtistUnicode:Mili
Creator:- Ex -
Version:Normal
Source:
Tags:Miracle Milk Saihate Records Hag momocashew cassie wei projectmili yamato kasai hamo project pop H△G HAG cover colourful english classical female vocal vocalist featured artist fa mappers' guild mg mpg -_Ex_- Shizuku- Kazato Asa Shikibe Mayu Ayesha Altugle l1ght_u light_u -Hitomi
BeatmapID:3944062
BeatmapSetID:1910670

[Difficulty]
HPDrainRate:4
CircleSize:3
OverallDifficulty:4
ApproachRate:6
SliderMultiplier:1.1
SliderTickRate:1

[Events]
//Background and Video events
0,0,"bg.jpg",0,0
//Break Periods
2,60763,62013
2,83888,92013
2,143263,144513
2,205763,207638
//Storyboard Layer 0 (Background)
//Storyboard Layer 1 (Fail)
//Storyboard Layer 2 (Pass)
//Storyboard Layer 3 (Foreground)
//Storyboard Layer 4 (Overlay)
//Storyboard Sound Samples

[TimingPoints]
1188,312.5,4,2,1,40,1,0
1188,-125,4,2,1,40,0,0
11188,-117.647058823529,4,2,1,60,0,0
21188,-111.111111111111,4,2,1,50,0,0
31188,-100,4,2,1,50,0,0
41188,-100,4,2,1,60,0,0
49313,-100,4,2,1,60,0,0
49625,-100,4,2,1,60,0,0
50563,-100,4,2,1,60,0,0
50875,-100,4,2,1,60,0,0
51188,-100,4,2,1,60,0,0
63063,-100,4,2,1,50,0,0
63688,-100,4,2,1,70,0,0
93063,-100,4,2,1,40,0,0
103688,-111.111111111111,4,2,1,50,0,0
123688,-100,4,2,1,60,0,0
128063,-100,4,2,1,60,0,0
128375,-100,4,2,1,60,0,0
128688,-100,4,2,1,60,0,0
133063,-100,4,2,1,60,0,0
133375,-100,4,2,1,60,0,0
133688,-100,4,2,1,60,0,0
145563,-100,4,2,1,50,0,0
146188,-100,4,2,1,70,0,0
166188,-100,4,2,1,60,0,0
183688,-100,4,2,1,50,0,0
186188,-111.111111111111,4,2,1,50,0,0
193688,-100,4,2,1,50,0,0
195563,-100,4,2,1,50,0,0
195875,-100,4,2,1,50,0,0
196188,-100,4,2,1,50,0,0
208688,-100,4,2,1,55,0,0
209938,-100,4,2,1,60,0,0
210563,-100,4,2,1,60,0,0
211188,-100,4,2,1,70,0,0
231188,-100,4,2,1,40,0,0
231500,-125,4,2,1,40,0,0
236813,-100,4,2,1,30,0,0

[Colours]
Combo1 : 240,140,140
Combo2 : 200,180,220
Combo3 : 240,200,155
Combo4 : 150,185,220

[HitObjects]
68,327,1188,6,0,L|170:327,1,88,2|2,3:2|0:0,0:0:0:0:
219,265,1813,1,2,0:0:0:0:
219,265,1969,2,0,L|310:266,1,88,2|2,0:0|0:0,0:0:0:0:
351,266,2438,1,2,0:0:0:0:
475,141,3063,1,2,0:0:0:0:
387,141,3375,1,2,0:0:0:0:
298,141,3688,6,0,L|206:140,1,88,2|0,3:2|0:0,0:0:0:0:
126,131,4313,1,2,0:0:0:0:
126,131,4469,2,0,P|112:177|130:223,1,88,2|2,0:0|0:0,0:0:0:0:
155,245,4938,1,2,3:2:0:0:
330,245,5563,1,2,3:2:0:0:
417,245,5875,1,2,0:0:0:0:
417,333,6188,6,0,L|315:332,1,88,2|0,3:2|0:0,0:0:0:0:
244,332,6813,1,2,0:0:0:0:
244,332,6969,2,0,L|152:331,1,88,2|2,0:0|0:0,0:0:0:0:
111,331,7438,1,2,0:0:0:0:
48,268,7750,2,0,L|48:208,1,44,2|0,0:0|0:0,0:0:0:0:
48,179,8063,1,2,0:0:0:0:
48,91,8375,1,2,3:2:0:0:
136,91,8688,6,0,L|239:91,1,88,2|0,3:2|0:0,0:0:0:0:
316,91,9313,1,2,0:0:0:0:
316,91,9469,2,0,P|325:138|303:185,1,88,2|2,0:0|0:0,0:0:0:0:
281,205,9938,2,0,L|281:312,2,88,2|2|2,3:2|3:2|3:2,0:0:0:0:
193,205,10875,1,2,3:2:0:0:
130,142,11188,5,4,1:0:0:0:
130,142,11344,2,0,L|29:140,1,93.500001783371,0|8,0:0|0:0,0:0:0:0:
36,187,11813,1,2,0:0:0:0:
36,280,12125,2,0,L|99:281,1,46.7500008916855,0|2,1:0|0:0,0:0:0:0:
129,280,12438,1,2,0:0:0:0:
298,358,13063,2,0,L|361:358,1,46.7500008916855,2|0,0:0|0:0,0:0:0:0:
391,358,13375,1,2,0:0:0:0:
457,291,13688,5,4,1:0:0:0:
457,291,13844,2,0,L|457:187,1,93.500001783371,0|10,0:0|0:0,0:0:0:0:
457,150,14313,1,2,0:0:0:0:
390,83,14625,2,0,L|323:83,1,46.7500008916855,0|2,1:2|0:0,0:0:0:0:
310,50,14938,1,2,0:0:0:0:
123,50,15563,2,0,L|122:117,1,46.7500008916855,10|0,0:0|0:0,0:0:0:0:
89,129,15875,1,2,1:2:0:0:
89,226,16188,5,2,1:2:0:0:
89,226,16344,2,0,L|188:226,1,93.500001783371,2|8,0:0|0:0,0:0:0:0:
229,226,16813,1,2,0:0:0:0:
295,159,17125,2,0,L|363:159,1,46.7500008916855,0|2,1:0|0:0,0:0:0:0:
388,159,17438,1,2,0:0:0:0:
481,159,17750,2,0,L|481:227,1,46.7500008916855,2|0,0:1|0:0,0:0:0:0:
481,252,18063,1,2,0:0:0:0:
481,345,18375,1,2,0:0:0:0:
391,345,18688,5,4,1:0:0:0:
391,345,18844,2,0,L|281:345,1,93.500001783371,0|8,0:0|0:0,0:0:0:0:
250,345,19313,1,2,0:0:0:0:
156,345,19625,2,0,L|156:282,1,46.7500008916855,0|2,1:0|0:0,0:0:0:0:
122,265,19938,2,0,L|122:202,1,46.7500008916855,2|0,1:2|0:0,0:0:0:0:
122,171,20250,1,4,3:0:0:0:
215,171,20563,1,10,3:0:0:0:
308,171,20875,1,12,3:0:0:0:
308,71,21188,6,0,L|433:72,1,98.9999969787599,2|2,3:2|0:0,0:0:0:0:
456,70,21656,2,0,P|435:132|454:179,1,98.9999969787599,2|2,3:2|0:0,0:0:0:0:
478,197,22125,1,0,0:0:0:0:
414,272,22438,1,2,0:0:0:0:
336,212,22750,2,0,L|253:211,1,49.4999984893799,4|8,3:0|3:0,0:0:0:0:
236,211,23063,1,2,3:0:0:0:
137,211,23375,2,0,L|78:212,1,49.4999984893799,2|2,3:2|0:0,0:0:0:0:
37,211,23688,6,0,P|15:267|36:323,1,98.9999969787599,2|2,3:2|0:0,0:0:0:0:
57,338,24156,2,0,L|175:338,1,98.9999969787599,2|2,0:0|0:0,0:0:0:0:
205,338,24625,1,2,0:0:0:0:
304,338,24938,2,0,L|396:341,2,74.2499977340699,2|0|0,3:2|3:0|3:0,0:0:0:0:
304,288,25563,1,2,3:0:0:0:
304,189,25875,2,0,L|304:117,1,49.4999984893799,12|2,3:0|0:0,0:0:0:0:
304,89,26188,6,0,L|415:91,1,98.9999969787599,2|2,0:1|0:0,0:0:0:0:
456,90,26656,1,2,0:0:0:0:
456,90,26813,2,0,P|487:144|474:199,1,98.9999969787599,2|2,0:0|3:2,0:0:0:0:
413,248,27438,2,0,L|412:367,2,98.9999969787599,2|4|4,3:2|3:0|3:0,0:0:0:0:
313,248,28375,1,4,3:0:0:0:
213,248,28688,6,0,L|96:248,1,98.9999969787599,2|0,3:2|0:0,0:0:0:0:
64,248,29156,2,0,P|42:190|56:148,1,98.9999969787599,0|2,3:0|0:0,0:0:0:0:
86,121,29625,1,2,0:0:0:0:
86,21,29938,2,0,L|-6:20,2,74.2499977340699,2|0|0,3:2|3:0|3:0,0:0:0:0:
135,21,30563,1,8,3:0:0:0:
233,21,30875,2,0,L|291:21,1,49.4999984893799,4|2,3:0|3:0,0:0:0:0:
337,21,31188,6,0,P|354:97|329:146,1,110,2|2,3:2|0:0,0:0:0:0:
305,163,31656,1,2,3:2:0:0:
227,240,31969,1,2,0:0:0:0:
227,240,32125,2,0,L|145:238,1,55,0|2,3:0|0:0,0:0:0:0:
116,237,32438,1,2,0:0:0:0:
6,237,32750,2,0,L|6:311,1,55,4|8,3:0|3:0,0:0:0:0:
6,347,33063,2,0,L|134:348,1,110,2|2,3:0|3:2,0:0:0:0:
226,347,33688,6,0,L|366:350,1,110,2|2,3:2|0:0,0:0:0:0:
390,349,34156,1,2,3:2:0:0:
467,271,34469,1,2,0:0:0:0:
467,271,34625,2,0,L|467:208,1,55,2|2,3:2|0:0,0:0:0:0:
427,176,34938,2,0,L|430:87,2,82.5,2|0|0,3:2|3:0|3:0,0:0:0:0:
371,176,35563,1,2,3:0:0:0:
261,176,35875,2,0,L|261:114,1,55,12|2,3:0|0:0,0:0:0:0:
261,65,36188,6,0,L|143:64,1,110,2|2,0:1|0:0,0:0:0:0:
96,64,36656,2,0,L|93:187,1,110,2|0,0:0|0:0,0:0:0:0:
54,213,37125,2,0,L|53:302,1,55,2|0,3:2|0:0,0:0:0:0:
14,307,37438,1,2,3:2:0:0:
110,359,37750,2,0,L|193:360,1,55,4|8,3:0|3:0,0:0:0:0:
220,359,38063,2,0,L|220:290,1,55,4|2,3:0|3:0,0:0:0:0:
220,249,38375,1,4,3:0:0:0:
220,138,38688,6,0,L|220:14,1,110,2|0,3:2|0:0,0:0:0:0:
274,28,39156,2,0,L|394:27,1,110,0|2,3:0|0:0,0:0:0:0:
439,27,39625,1,2,0:0:0:0:
499,118,39938,1,2,3:2:0:0:
425,199,40250,2,0,L|425:281,1,55,0|0,3:0|3:0,0:0:0:0:
385,293,40563,2,0,L|385:375,1,55,8|4,3:0|3:0,0:0:0:0:
330,348,40875,1,4,3:0:0:0:
219,348,41188,5,4,1:0:0:0:
109,348,41500,2,0,L|39:349,1,55,2|2,0:0|0:0,0:0:0:0:
14,309,41813,2,0,P|-5:253|13:196,1,110,2|2,3:2|0:0,0:0:0:0:
85,127,42438,1,2,1:2:0:0:
162,204,42750,2,0,L|238:203,1,55,2|0,3:2|0:0,0:0:0:0:
256,242,43063,2,0,L|381:242,1,110,2|8,0:0|3:0,0:0:0:0:
476,242,43688,6,0,P|491:182|475:132,1,110,2|0,1:2|3:0,0:0:0:0:
400,59,44313,2,0,L|275:59,1,110,4|2,3:0|0:0,0:0:0:0:
251,97,44781,1,0,0:0:0:0:
251,97,44938,1,2,1:2:0:0:
31,97,45563,1,2,1:2:0:0:
31,206,45875,2,0,L|31:272,1,55,2|2,3:2|0:0,0:0:0:0:
31,316,46188,5,2,1:2:0:0:
140,316,46500,2,0,L|221:316,1,55,2|2,3:2|3:2,0:0:0:0:
250,316,46813,2,0,P|270:251|253:198,1,110,8|2,3:0|3:0,0:0:0:0:
182,133,47438,1,2,1:2:0:0:
259,55,47750,2,0,L|335:54,1,55,2|0,3:2|0:0,0:0:0:0:
369,54,48063,2,0,L|486:54,1,110,8|2,3:0|3:2,0:0:0:0:
479,164,48688,6,0,L|480:293,1,110,2|0,1:0|3:0,0:0:0:0:
479,328,49156,1,2,0:0:0:0:
479,328,49313,1,2,1:2:0:0:
369,328,49625,2,0,L|284:326,1,55,2|2,0:0|0:0,0:0:0:0:
274,365,49938,2,0,L|147:363,1,110,2|8,1:0|0:0,0:0:0:0:
109,363,50406,1,0,0:0:0:0:
109,363,50563,1,2,1:0:0:0:
31,285,50875,2,0,L|31:215,1,55,8|0,0:0|0:0,0:0:0:0:
31,174,51188,5,2,1:2:0:0:
31,64,51500,2,0,L|109:64,1,55,8|0,0:0|0:0,0:0:0:0:
125,24,51813,2,0,L|248:25,1,110,2|8,1:2|0:0,0:0:0:0:
345,24,52438,1,2,1:2:0:0:
345,133,52750,2,0,L|344:199,1,55,10|0,0:0|0:0,0:0:0:0:
305,227,53063,2,0,L|186:227,1,110,2|10,1:2|0:0,0:0:0:0:
84,227,53688,6,0,P|67:285|94:346,1,110,4|10,1:2|3:2,0:0:0:0:
120,369,54156,1,0,0:0:0:0:
120,369,54313,1,2,1:2:0:0:
229,369,54625,2,0,L|313:369,1,55,10|2,3:2|0:0,0:0:0:0:
323,329,54938,2,0,L|447:333,1,110,2|2,1:2|3:0,0:0:0:0:
471,293,55406,1,4,3:0:0:0:
471,293,55563,1,2,1:2:0:0:
471,183,55875,2,0,L|471:111,1,55,8|2,3:0|3:0,0:0:0:0:
415,124,56188,6,0,L|228:123,2,165,4|4|4,1:0|3:0|3:0,0:0:0:0:
402,14,57438,2,0,L|292:13,1,110,2|2,0:0|0:0,0:0:0:0:
181,13,58063,2,0,P|146:69|154:132,1,110,2|2,0:0|1:2,0:0:0:0:
166,162,58531,5,2,0:0:0:0:
166,162,58688,2,0,L|164:278,1,110,2|2,1:2|0:0,0:0:0:0:
164,326,59156,1,2,1:2:0:0:
329,326,59625,2,0,L|400:326,1,55,2|0,1:2|0:0,0:0:0:0:
439,326,59938,1,2,0:0:0:0:
439,216,60250,1,2,0:0:0:0:
328,216,60563,1,2,3:2:0:0:
23,27,63063,6,0,L|101:28,1,55,8|2,0:0|1:2,0:0:0:0:
116,66,63375,2,0,L|194:67,1,55,4|8,3:0|0:0,0:0:0:0:
220,43,63688,6,0,P|201:105|236:171,1,110,4|10,1:0|0:0,0:0:0:0:
252,185,64156,1,2,0:0:0:0:
252,185,64313,2,0,L|334:185,1,55,4|8,3:0|3:0,0:0:0:0:
345,146,64625,1,8,0:0:0:0:
455,146,64938,2,0,P|476:198|458:259,1,110,2|10,1:2|0:0,0:0:0:0:
425,288,65406,1,2,0:0:0:0:
425,288,65563,1,4,3:0:0:0:
315,288,65875,2,0,L|234:288,1,55,8|2,0:0|0:0,0:0:0:0:
220,327,66188,6,0,L|93:327,1,110,2|8,1:2|0:0,0:0:0:0:
75,292,66656,1,4,3:0:0:0:
75,292,66813,2,0,L|75:221,1,55,8|4,3:0|3:0,0:0:0:0:
36,198,67125,1,8,0:0:0:0:
36,87,67438,2,0,P|94:72|164:97,1,110,2|10,1:2|0:0,0:0:0:0:
180,121,67906,1,0,0:0:0:0:
180,121,68063,2,0,P|238:136|308:111,1,110,2|10,1:2|0:0,0:0:0:0:
363,46,68688,6,0,L|492:47,1,110,2|8,1:0|0:0,0:0:0:0:
509,95,69156,1,2,0:0:0:0:
509,95,69313,1,4,3:0:0:0:
431,172,69625,2,0,L|431:241,1,55,8|4,0:0|3:0,0:0:0:0:
375,227,69938,2,0,L|251:226,1,110,2|10,1:0|0:0,0:0:0:0:
226,187,70406,1,2,0:0:0:0:
226,187,70563,2,0,L|152:187,1,55,4|8,3:0|3:0,0:0:0:0:
132,148,70875,1,8,0:0:0:0:
21,148,71188,6,0,P|8:206|34:267,1,110,2|10,1:0|0:0,0:0:0:0:
56,303,71656,1,2,0:0:0:0:
56,303,71813,1,4,3:0:0:0:
148,361,72125,2,0,L|225:361,1,55,8|0,0:0|0:0,0:0:0:0:
242,321,72438,2,0,L|372:322,1,110,2|10,1:2|0:0,0:0:0:0:
462,321,73063,2,0,L|463:253,1,55,6|8,3:0|3:0,0:0:0:0:
501,227,73375,2,0,L|502:159,1,55,8|2,0:0|0:0,0:0:0:0:
462,132,73688,6,0,L|462:15,1,110,6|10,1:2|0:0,0:0:0:0:
411,22,74156,1,2,0:0:0:0:
411,22,74313,2,0,L|339:22,1,55,4|8,3:0|3:0,0:0:0:0:
301,22,74625,1,8,0:0:0:0:
190,22,74938,2,0,P|174:83|196:142,1,110,2|10,1:2|0:0,0:0:0:0:
225,165,75406,1,0,0:0:0:0:
225,165,75563,1,4,3:0:0:0:
225,274,75875,2,0,L|225:338,1,55,8|2,0:0|0:0,0:0:0:0:
185,368,76188,6,0,L|58:367,1,110,2|8,1:0|0:0,0:0:0:0:
40,332,76656,1,4,3:0:0:0:
40,332,76813,2,0,L|39:249,1,55,8|2,3:0|3:0,0:0:0:0:
0,238,77125,1,10,0:0:0:0:
0,127,77438,2,0,L|127:128,1,110,4|8,1:0|0:0,0:0:0:0:
148,88,77906,1,0,0:0:0:0:
148,88,78063,2,0,L|275:89,1,110,4|8,3:0|0:0,0:0:0:0:
335,10,78688,6,0,L|470:11,1,110,2|8,1:0|0:0,0:0:0:0:
487,53,79156,1,2,0:0:0:0:
487,53,79313,1,4,3:0:0:0:
487,162,79625,2,0,L|409:163,1,55,8|2,0:0|0:0,0:0:0:0:
392,201,79938,2,0,L|267:200,1,110,2|10,1:0|0:0,0:0:0:0:
243,238,80406,1,2,0:0:0:0:
243,238,80563,2,0,L|171:237,1,55,4|8,3:0|3:0,0:0:0:0:
149,198,80875,1,8,0:0:0:0:
39,206,81188,6,0,P|24:259|43:330,1,110,2|10,1:2|0:0,0:0:0:0:
74,357,81656,1,2,0:0:0:0:
74,357,81813,2,0,L|193:358,1,110,2|8,1:2|0:0,0:0:0:0:
294,357,82438,2,0,L|296:280,1,55,2|0,1:0|0:0,0:0:0:0:
334,263,82750,2,0,L|336:186,1,55,8|2,0:0|3:0,0:0:0:0:
374,168,83063,1,4,3:0:0:0:
483,168,83375,2,0,L|483:104,1,55,8|4,0:0|3:0,0:0:0:0:
483,57,83688,5,6,1:2:0:0:
31,25,93063,6,0,P|17:77|39:141,1,110,10|2,0:2|0:0,0:0:0:0:
70,168,93531,1,2,0:0:0:0:
70,168,93688,2,0,L|195:169,1,110,2|2,1:2|0:2,0:0:0:0:
234,168,94156,1,2,3:2:0:0:
234,282,94469,1,2,0:2:0:0:
234,282,94625,1,2,3:2:0:0:
467,48,95563,6,0,L|393:48,1,55,2|2,0:2|0:2,0:0:0:0:
357,48,95875,1,2,0:2:0:0:
246,48,96188,2,0,P|231:106|250:164,1,110,2|2,1:2|0:2,0:0:0:0:
282,192,96656,2,0,P|297:250|278:308,1,110,2|2,3:2|0:2,0:0:0:0:
245,336,97125,1,2,3:2:0:0:
11,102,98063,6,0,L|140:102,1,110,8|2,0:0|3:2,0:0:0:0:
159,63,98531,1,2,0:0:0:0:
159,63,98688,2,0,L|288:63,1,110,2|2,1:2|3:2,0:0:0:0:
307,24,99156,1,2,3:2:0:0:
421,24,99469,1,2,3:2:0:0:
421,24,99625,1,2,3:2:0:0:
495,345,100563,6,0,L|427:345,1,55,2|2,0:2|0:2,0:0:0:0:
385,345,100875,1,2,0:2:0:0:
307,267,101188,2,0,P|255:253|185:269,1,110,2|2,1:2|3:2,0:0:0:0:
162,301,101656,2,0,P|110:315|40:299,1,110,2|2,3:2|3:2,0:0:0:0:
16,267,102125,1,2,3:2:0:0:
16,156,102438,1,2,0:0:0:0:
132,39,102906,1,4,3:0:0:0:
132,39,103063,2,0,L|247:39,1,110,8|2,0:0|0:0,0:0:0:0:
341,39,103688,6,0,P|358:102|329:161,1,98.9999969787599,12|2,0:0|3:2,0:0:0:0:
314,167,104156,1,0,1:0:0:0:
214,167,104469,2,0,L|84:167,1,98.9999969787599,2|4,0:0|3:0,0:0:0:0:
65,167,104938,2,0,L|65:85,2,74.2499977340699,8|0|2,3:2|0:0|0:0,0:0:0:0:
29,202,105563,1,8,0:0:0:0:
29,300,105875,2,0,L|97:299,1,49.4999984893799,8|8,0:0|0:0,0:0:0:0:
128,299,106188,6,0,L|242:298,1,98.9999969787599,2|8,1:2|0:0,0:0:0:0:
276,298,106656,1,4,3:0:0:0:
346,227,106969,2,0,P|357:177|337:117,1,98.9999969787599,2|8,0:0|3:2,0:0:0:0:
310,96,107438,2,0,L|223:97,2,74.2499977340699,2|0|0,1:2|0:0|0:0,0:0:0:0:
345,60,108063,1,8,0:0:0:0:
443,60,108375,2,0,L|443:121,1,49.4999984893799,10|4,3:0|3:0,0:0:0:0:
478,144,108688,6,0,P|491:209|470:257,1,98.9999969787599,10|2,0:0|0:0,0:0:0:0:
437,261,109156,2,0,L|437:372,1,98.9999969787599,2|0,0:0|0:0,0:0:0:0:
387,360,109625,1,8,0:0:0:0:
287,360,109938,2,0,L|174:359,2,98.9999969787599,8|2|8,0:0|1:2|0:0,0:0:0:0:
287,261,110875,2,0,L|288:202,1,49.4999984893799,8|2,3:0|3:0,0:0:0:0:
252,176,111188,6,0,L|143:177,1,98.9999969787599,14|8,0:0|0:0,0:0:0:0:
107,176,111656,1,4,3:0:0:0:
107,176,111813,1,10,0:2:0:0:
8,176,112125,2,0,L|8:251,1,49.4999984893799,0|4,1:0|3:0,0:0:0:0:
8,275,112438,2,0,L|8:363,2,74.2499977340699,10|4|8,0:0|3:0|3:0,0:0:0:0:
57,275,113063,1,2,3:0:0:0:
155,275,113375,1,14,3:0:0:0:
153,176,113688,6,0,L|155:69,1,98.9999969787599,12|2,0:0|3:2,0:0:0:0:
154,27,114156,1,0,1:0:0:0:
253,27,114469,2,0,L|355:27,1,98.9999969787599,2|4,0:0|3:0,0:0:0:0:
387,62,114938,2,0,L|481:62,2,74.2499977340699,8|0|10,3:2|0:0|0:0,0:0:0:0:
387,111,115563,1,8,0:0:0:0:
387,209,115875,2,0,L|321:209,1,49.4999984893799,8|8,0:0|0:0,0:0:0:0:
302,173,116188,6,0,P|251:161|198:177,1,98.9999969787599,2|8,1:2|0:0,0:0:0:0:
163,195,116656,1,4,3:0:0:0:
63,195,116969,2,0,L|62:304,1,98.9999969787599,2|8,0:0|3:2,0:0:0:0:
111,293,117438,2,0,L|110:381,2,74.2499977340699,2|8|8,1:2|0:0|0:0,0:0:0:0:
160,293,118063,1,8,0:0:0:0:
229,362,118375,2,0,L|288:360,1,49.4999984893799,10|4,3:0|3:0,0:0:0:0:
313,325,118688,6,0,L|423:326,1,98.9999969787599,14|2,0:0|0:0,0:0:0:0:
461,325,119156,2,0,P|479:269|457:215,1,98.9999969787599,10|4,0:0|3:0,0:0:0:0:
433,196,119625,1,8,0:0:0:0:
362,125,119938,2,0,L|254:125,2,98.9999969787599,8|2|8,0:0|1:2|0:0,0:0:0:0:
362,26,120875,2,0,L|286:26,1,49.4999984893799,8|2,3:0|3:0,0:0:0:0:
262,26,121188,6,0,L|139:27,1,98.9999969787599,14|8,0:0|0:0,0:0:0:0:
113,26,121656,2,0,P|91:79|107:137,1,98.9999969787599,4|8,3:0|3:0,0:0:0:0:
132,153,122125,1,0,1:0:0:0:
77,235,122438,2,0,L|-10:235,2,74.2499977340699,10|4|8,0:0|3:0|3:0,0:0:0:0:
112,270,123063,1,2,3:0:0:0:
181,339,123375,1,14,3:0:0:0:
258,261,123688,6,0,L|258:134,1,110,4|10,1:0|0:0,0:0:0:0:
258,40,124313,2,0,L|326:40,1,55,2|8,1:2|3:0,0:0:0:0:
367,40,124625,2,0,L|435:40,1,55,4|2,3:0|3:0,0:0:0:0:
477,40,124938,2,0,P|498:98|482:155,1,110,10|8,3:0|0:0,0:0:0:0:
410,221,125563,2,0,L|410:289,1,55,2|4,1:2|3:0,0:0:0:0:
410,330,125875,1,8,0:0:0:0:
299,330,126188,6,0,L|181:330,1,110,10|8,3:0|3:2,0:0:0:0:
150,368,126656,1,8,3:2:0:0:
150,368,126813,2,0,L|32:368,1,110,8|8,3:0|0:0,0:0:0:0:
40,257,127438,1,10,3:3:0:0:
40,147,127750,2,0,L|39:75,1,55,8|4,0:0|3:0,0:0:0:0:
39,36,128063,1,10,3:2:0:0:
148,36,128375,1,4,3:0:0:0:
258,36,128688,6,0,L|258:157,1,110,6|2,1:2|3:2,0:0:0:0:
180,223,129313,2,0,L|180:293,1,55,8|4,3:0|3:0,0:0:0:0:
180,332,129625,2,0,L|263:332,1,55,2|4,3:0|3:0,0:0:0:0:
290,332,129938,2,0,L|436:333,1,110,2|10,1:2|3:2,0:0:0:0:
510,332,130563,2,0,L|510:273,1,55,8|4,3:0|3:0,0:0:0:0:
510,222,130875,1,2,3:2:0:0:
432,144,131188,6,0,P|378:132|320:147,1,110,2|8,1:0|0:0,0:0:0:0:
286,183,131656,1,10,0:0:0:0:
286,183,131813,2,0,P|232:195|174:180,1,110,2|2,1:2|0:0,0:0:0:0:
82,130,132438,1,2,1:0:0:0:
82,20,132750,2,0,L|146:21,1,55,8|0,0:0|0:0,0:0:0:0:
192,20,133063,1,2,1:0:0:0:
301,20,133375,1,8,0:0:0:0:
411,20,133688,6,0,L|411:140,1,110,2|8,1:2|0:0,0:0:0:0:
411,240,134313,2,0,L|411:316,1,55,2|0,1:2|0:0,0:0:0:0:
411,349,134625,2,0,L|340:349,1,55,8|2,0:0|0:0,0:0:0:0:
316,309,134938,2,0,L|198:311,1,110,2|10,1:2|0:0,0:0:0:0:
95,310,135563,2,0,L|95:250,1,55,2|0,1:2|0:0,0:0:0:0:
56,216,135875,1,10,0:0:0:0:
56,105,136188,6,0,P|109:92|178:116,1,110,4|10,1:2|3:2,0:0:0:0:
204,148,136656,1,0,0:0:0:0:
204,148,136813,2,0,L|323:147,1,110,2|10,1:2|3:2,0:0:0:0:
391,69,137438,2,0,L|458:70,1,55,2|2,1:2|0:0,0:0:0:0:
500,69,137750,1,2,3:0:0:0:
500,179,138063,1,2,1:2:0:0:
500,288,138375,2,0,L|413:289,1,55,8|2,3:0|3:0,0:0:0:0:
405,327,138688,6,0,L|230:325,2,165,4|4|4,1:0|3:0|3:0,0:0:0:0:
405,216,139938,2,0,L|291:214,1,110,2|2,0:0|0:0,0:0:0:0:
184,214,140563,2,0,L|70:212,1,110,2|2,0:0|1:2,0:0:0:0:
35,173,141031,5,2,0:0:0:0:
35,173,141188,2,0,P|18:112|38:51,1,110,2|2,1:2|0:0,0:0:0:0:
67,28,141656,1,2,1:2:0:0:
232,28,142125,2,0,L|302:28,1,55,2|0,1:2|0:0,0:0:0:0:
342,28,142438,1,2,0:0:0:0:
342,137,142750,1,2,0:0:0:0:
231,137,143063,1,2,3:2:0:0:
486,28,145563,6,0,L|486:103,1,55,8|2,0:0|1:2,0:0:0:0:
486,137,145875,2,0,L|414:137,1,55,4|8,3:0|0:0,0:0:0:0:
391,97,146188,6,0,L|277:98,1,110,4|10,1:0|0:0,0:0:0:0:
230,97,146656,1,2,0:0:0:0:
230,97,146813,2,0,L|161:97,1,55,4|8,3:0|3:0,0:0:0:0:
120,97,147125,1,8,0:0:0:0:
9,97,147438,2,0,P|-7:155|15:214,1,110,2|10,1:2|0:0,0:0:0:0:
49,244,147906,1,2,0:0:0:0:
49,244,148063,1,4,3:0:0:0:
158,244,148375,2,0,L|226:244,1,55,8|2,0:0|0:0,0:0:0:0:
252,204,148688,6,0,L|388:203,1,110,2|8,1:2|0:0,0:0:0:0:
400,164,149156,1,4,3:0:0:0:
400,164,149313,2,0,L|465:165,1,55,8|4,3:0|3:0,0:0:0:0:
504,141,149625,1,8,0:0:0:0:
511,250,149938,2,0,L|510:369,1,110,2|10,1:2|0:0,0:0:0:0:
459,367,150406,1,0,0:0:0:0:
459,367,150563,2,0,L|340:368,1,110,2|10,1:2|0:0,0:0:0:0:
238,367,151188,6,0,P|219:304|233:257,1,110,2|8,1:0|0:0,0:0:0:0:
268,224,151656,1,2,0:0:0:0:
268,224,151813,1,4,3:0:0:0:
345,146,152125,2,0,L|345:84,1,55,8|4,0:0|3:0,0:0:0:0:
345,35,152438,2,0,L|223:35,1,110,2|10,1:0|0:0,0:0:0:0:
196,73,152906,1,2,0:0:0:0:
196,73,153063,2,0,L|118:73,1,55,4|8,3:0|3:0,0:0:0:0:
86,73,153375,1,8,0:0:0:0:
8,150,153688,6,0,L|5:284,1,110,2|10,1:0|0:0,0:0:0:0:
5,319,154156,1,2,0:0:0:0:
5,319,154313,1,4,3:0:0:0:
103,367,154625,2,0,L|183:368,1,55,8|0,0:0|0:0,0:0:0:0:
213,367,154938,2,0,L|350:368,1,110,2|10,1:2|0:0,0:0:0:0:
433,367,155563,2,0,P|445:335|444:303,1,55,6|8,3:0|3:0,0:0:0:0:
484,275,155875,2,0,P|469:243|446:221,1,55,8|2,0:0|0:0,0:0:0:0:
416,189,156188,6,0,L|289:189,1,110,6|10,1:2|0:0,0:0:0:0:
267,227,156656,1,2,0:0:0:0:
267,227,156813,2,0,L|186:227,1,55,4|8,3:0|3:0,0:0:0:0:
157,227,157125,1,8,0:0:0:0:
46,227,157438,2,0,P|26:164|41:117,1,110,2|10,1:2|0:0,0:0:0:0:
75,84,157906,1,0,0:0:0:0:
75,84,158063,1,4,3:0:0:0:
152,6,158375,2,0,L|229:9,1,55,8|2,0:0|0:0,0:0:0:0:
246,47,158688,6,0,L|364:47,1,110,2|8,1:0|0:0,0:0:0:0:
395,7,159156,1,4,3:0:0:0:
395,7,159313,2,0,L|467:8,1,55,8|2,3:0|3:0,0:0:0:0:
488,46,159625,1,10,0:0:0:0:
488,156,159938,2,0,L|371:157,1,110,4|8,1:0|0:0,0:0:0:0:
326,156,160406,1,0,0:0:0:0:
326,156,160563,2,0,P|310:215|329:281,1,110,4|8,3:0|0:0,0:0:0:0:
241,339,161188,6,0,L|106:338,1,110,2|8,1:0|0:0,0:0:0:0:
80,338,161656,1,2,0:0:0:0:
80,338,161813,1,4,3:0:0:0:
2,260,162125,2,0,L|2:195,1,55,8|2,0:0|0:0,0:0:0:0:
41,165,162438,2,0,L|153:168,1,110,2|10,1:0|0:0,0:0:0:0:
193,210,162906,1,2,0:0:0:0:
193,210,163063,2,0,L|271:210,1,55,4|8,3:0|3:0,0:0:0:0:
302,210,163375,1,8,0:0:0:0:
412,210,163688,6,0,P|435:147|419:91,1,110,2|10,1:2|0:0,0:0:0:0:
392,71,164156,1,2,0:0:0:0:
392,71,164313,2,0,L|265:70,1,110,2|8,1:2|0:0,0:0:0:0:
171,70,164938,2,0,L|170:150,1,55,2|0,1:0|0:0,0:0:0:0:
131,163,165250,2,0,L|130:243,1,55,8|2,0:0|3:0,0:0:0:0:
91,257,165563,1,4,3:0:0:0:
91,366,165875,2,0,L|163:367,1,55,8|4,0:0|3:0,0:0:0:0:
201,366,166188,5,6,1:2:0:0:
278,288,166500,2,0,L|349:288,1,55,8|4,3:0|3:0,0:0:0:0:
372,248,166813,2,0,L|504:251,1,110,10|2,3:2|3:2,0:0:0:0:
481,140,167438,1,8,0:0:0:0:
371,140,167750,2,0,L|282:141,1,55,8|4,3:0|3:0,0:0:0:0:
276,179,168063,2,0,L|187:180,1,55,10|2,0:0|0:0,0:0:0:0:
182,140,168375,1,8,0:0:0:0:
71,140,168688,6,0,P|54:199|76:262,1,110,2|8,1:2|3:0,0:0:0:0:
108,287,169156,1,4,3:0:0:0:
108,287,169313,1,8,0:0:0:0:
185,364,169625,2,0,L|265:364,1,55,8|0,0:0|0:0,0:0:0:0:
279,324,169938,1,2,1:2:0:0:
388,324,170250,2,0,L|458:325,1,55,8|8,3:0|3:2,0:0:0:0:
498,324,170563,2,0,L|498:254,1,55,10|0,3:2|0:0,0:0:0:0:
498,214,170875,1,10,3:0:0:0:
498,103,171188,6,0,L|368:103,1,110,8|2,0:0|3:2,0:0:0:0:
277,103,171813,1,8,3:0:0:0:
277,212,172125,1,8,0:0:0:0:
166,212,172438,2,0,L|77:212,1,55,8|2,0:0|0:0,0:0:0:0:
56,212,172750,2,0,L|56:123,1,55,10|8,3:2|1:2,0:0:0:0:
16,117,173063,1,8,0:0:0:0:
93,39,173375,1,10,3:2:0:0:
170,116,173688,6,0,L|291:116,1,110,14|10,3:2|0:0,0:0:0:0:
318,77,174156,1,2,0:0:0:0:
318,77,174313,1,10,3:2:0:0:
427,77,174625,2,0,L|487:77,1,55,8|2,0:0|3:0,0:0:0:0:
482,132,174938,1,10,0:0:0:0:
482,241,175250,1,8,3:0:0:0:
482,241,175406,2,0,L|482:318,2,55,4|10|4,3:0|0:0|3:0,0:0:0:0:
426,241,175875,1,10,0:0:0:0:
315,241,176188,6,0,L|171:242,1,110,8|2,3:2|3:0,0:0:0:0:
166,280,176656,1,4,3:0:0:0:
166,280,176813,1,10,0:0:0:0:
56,280,177125,2,0,L|56:215,1,55,8|4,3:0|3:0,0:0:0:0:
56,169,177438,2,0,L|58:44,1,110,8|8,0:0|3:0,0:0:0:0:
167,59,178063,2,0,L|243:59,1,55,10|4,0:0|3:0,0:0:0:0:
276,59,178375,1,10,3:2:0:0:
386,59,178688,6,0,P|405:118|382:182,1,110,2|10,1:2|0:0,0:0:0:0:
354,202,179156,1,4,3:0:0:0:
354,202,179313,2,0,L|270:202,1,55,10|2,0:0|0:0,0:0:0:0:
244,202,179625,1,8,0:0:0:0:
133,202,179938,1,10,3:0:0:0:
23,202,180250,2,0,L|24:271,1,55,8|4,0:0|3:0,0:0:0:0:
62,296,180563,2,0,L|63:365,1,55,8|2,0:0|3:0,0:0:0:0:
117,350,180875,1,8,0:0:0:0:
227,350,181188,6,0,L|365:349,1,110,10|8,0:0|3:0,0:0:0:0:
396,349,181656,1,0,0:0:0:0:
396,349,181813,1,8,0:0:0:0:
396,239,182125,2,0,L|479:239,1,55,10|2,0:0|3:0,0:0:0:0:
506,239,182438,2,0,P|524:158|495:103,1,110,10|8,0:0|3:0,0:0:0:0:
481,99,182906,1,4,3:0:0:0:
481,99,183063,1,10,3:2:0:0:
403,21,183375,2,0,L|332:22,1,55,8|4,3:2|3:0,0:0:0:0:
292,21,183688,5,14,0:0:0:0:
182,21,184000,2,0,L|182:111,1,55,0|0,3:0|3:0,0:0:0:0:
182,131,184313,2,0,L|181:264,1,110,2|2,3:2|3:2,0:0:0:0:
181,351,184938,2,0,L|283:352,2,82.5,10|8|8,3:0|0:0|1:2,0:0:0:0:
125,351,185563,1,10,0:0:0:0:
15,351,185875,2,0,L|15:268,1,55,8|4,3:0|3:0,0:0:0:0:
15,246,186188,5,4,1:0:0:0:
15,147,186500,1,2,0:0:0:0:
15,47,186813,2,0,L|143:48,1,98.9999969787599,2|2,3:2|0:0,0:0:0:0:
213,47,187438,1,2,1:2:0:0:
311,47,187750,1,2,3:2:0:0:
410,47,188063,1,2,0:0:0:0:
410,145,188375,2,0,L|337:145,1,49.4999984893799,8|4,3:0|3:0,0:0:0:0:
325,180,188688,6,0,L|206:180,1,98.9999969787599,2|0,1:2|3:0,0:0:0:0:
176,180,189156,1,0,0:0:0:0:
176,180,189313,2,0,L|57:180,1,98.9999969787599,4|2,3:0|0:0,0:0:0:0:
6,250,189938,2,0,P|5:321|130:352,1,197.99999395752,2|2,1:2|1:2,0:0:0:0:
209,363,190875,1,10,3:2:0:0:
308,363,191188,5,2,1:2:0:0:
308,264,191500,1,2,3:2:0:0:
407,264,191813,2,0,L|512:264,1,98.9999969787599,8|2,3:0|3:0,0:0:0:0:
506,164,192438,1,2,1:2:0:0:
506,65,192750,1,2,3:2:0:0:
406,65,193063,1,8,3:0:0:0:
406,163,193375,2,0,L|334:164,1,49.4999984893799,2|0,3:2|3:0,0:0:0:0:
301,163,193688,6,0,L|159:164,1,110,2|0,1:0|3:0,0:0:0:0:
151,202,194156,1,2,0:2:0:0:
151,202,194313,2,0,L|14:201,1,110,2|2,1:2|0:2,0:0:0:0:
41,91,194938,2,0,L|41:27,1,55,2|0,1:0|0:0,0:0:0:0:
95,36,195250,1,8,0:0:0:0:
205,36,195563,1,2,1:0:0:0:
314,36,195875,2,0,L|400:36,1,55,8|2,0:0|0:0,0:0:0:0:
424,36,196188,6,0,P|441:93|423:155,1,110,2|8,1:2|0:0,0:0:0:0:
352,219,196813,2,0,L|295:219,1,55,2|0,1:2|0:0,0:0:0:0:
258,180,197125,1,8,0:0:0:0:
147,180,197438,2,0,L|27:179,1,110,2|10,1:2|0:0,0:0:0:0:
37,289,198063,1,2,1:2:0:0:
146,289,198375,1,10,0:0:0:0:
223,366,198688,6,0,L|356:365,1,110,4|10,1:2|3:2,0:0:0:0:
372,326,199156,1,0,0:0:0:0:
372,326,199313,2,0,L|493:327,1,110,2|10,1:2|3:2,0:0:0:0:
505,219,199938,2,0,P|521:165|493:94,1,110,2|2,1:2|3:0,0:0:0:0:
473,79,200406,1,4,3:0:0:0:
473,79,200563,1,2,1:2:0:0:
370,117,200875,2,0,L|286:118,1,55,8|2,3:0|3:0,0:0:0:0:
259,117,201188,6,0,L|257:299,2,165,4|4|4,1:0|3:0|3:0,0:0:0:0:
148,117,202438,2,0,L|22:115,1,110,2|2,0:0|0:0,0:0:0:0:
38,225,203063,2,0,L|37:354,1,110,2|2,0:0|1:2,0:0:0:0:
92,334,203531,5,2,0:0:0:0:
92,334,203688,2,0,L|212:336,1,110,2|2,1:2|0:0,0:0:0:0:
256,335,204156,1,2,1:2:0:0:
256,169,204625,2,0,L|256:76,1,55,2|0,1:2|0:0,0:0:0:0:
256,58,204938,1,2,0:0:0:0:
365,58,205250,1,2,0:0:0:0:
365,168,205563,1,2,3:2:0:0:
95,361,208688,6,0,L|-1:360,2,82.5,2|2|2,3:2|0:2|0:2,0:0:0:0:
134,321,209313,2,0,L|197:321,1,55,2|2,3:2|0:2,0:0:0:0:
243,321,209625,1,2,0:2:0:0:
353,321,209938,2,0,P|366:258|350:215,1,110,2|2,3:2|0:2,0:0:0:0:
312,177,210406,1,2,0:2:0:0:
312,177,210563,1,2,1:2:0:0:
202,177,210875,2,0,L|130:176,1,55,2|2,0:2|0:2,0:0:0:0:
91,176,211188,6,0,P|70:123|86:69,1,110,4|10,1:0|0:0,0:0:0:0:
121,34,211656,1,2,0:0:0:0:
121,34,211813,2,0,L|194:34,1,55,4|8,3:0|3:0,0:0:0:0:
230,34,212125,1,8,0:0:0:0:
340,34,212438,2,0,L|340:157,1,110,2|10,1:2|0:0,0:0:0:0:
382,186,212906,1,2,0:0:0:0:
382,186,213063,1,4,3:0:0:0:
382,295,213375,2,0,L|382:353,1,55,8|2,0:0|0:0,0:0:0:0:
326,350,213688,6,0,L|211:354,1,110,2|8,1:2|0:0,0:0:0:0:
181,319,214156,1,4,3:0:0:0:
181,319,214313,2,0,L|111:318,1,55,8|4,3:0|3:0,0:0:0:0:
71,313,214625,1,8,0:0:0:0:
17,214,214938,2,0,P|4:152|25:95,1,110,2|10,1:2|0:0,0:0:0:0:
55,69,215406,1,0,0:0:0:0:
55,69,215563,2,0,L|135:70,1,55,2|0,1:2|0:0,0:0:0:0:
164,69,215875,1,10,0:0:0:0:
274,69,216188,6,0,P|292:128|266:200,1,110,2|8,1:0|0:0,0:0:0:0:
239,206,216656,1,2,0:0:0:0:
239,206,216813,1,4,3:0:0:0:
128,214,217125,2,0,L|47:214,1,55,8|4,0:0|3:0,0:0:0:0:
17,214,217438,2,0,P|4:277|26:327,1,110,2|10,1:0|0:0,0:0:0:0:
62,361,217906,1,2,0:0:0:0:
62,361,218063,2,0,L|132:362,1,55,4|8,3:0|3:0,0:0:0:0:
171,361,218375,1,8,0:0:0:0:
281,361,218688,6,0,L|401:362,1,110,2|10,1:0|0:0,0:0:0:0:
450,361,219156,1,2,0:0:0:0:
450,361,219313,1,4,3:0:0:0:
505,266,219625,2,0,L|505:202,1,55,8|0,0:0|0:0,0:0:0:0:
465,171,219938,2,0,L|466:52,1,110,2|10,1:2|0:0,0:0:0:0:
355,61,220563,2,0,L|281:61,1,55,6|8,3:0|3:0,0:0:0:0:
261,22,220875,2,0,L|187:22,1,55,8|2,0:0|0:0,0:0:0:0:
150,22,221188,6,0,P|132:93|146:135,1,110,6|10,1:2|0:0,0:0:0:0:
184,169,221656,1,2,0:0:0:0:
184,169,221813,2,0,L|255:169,1,55,4|8,3:0|3:0,0:0:0:0:
293,169,222125,1,8,0:0:0:0:
293,279,222438,2,0,L|178:279,1,110,2|10,1:2|0:0,0:0:0:0:
143,318,222906,1,0,0:0:0:0:
143,318,223063,1,4,3:0:0:0:
33,318,223375,2,0,L|33:250,1,55,8|2,0:0|0:0,0:0:0:0:
33,207,223688,6,0,L|32:57,1,110,2|8,1:0|0:0,0:0:0:0:
32,42,224156,1,4,3:0:0:0:
32,42,224313,2,0,L|112:44,1,55,8|2,3:0|3:0,0:0:0:0:
141,43,224625,1,10,0:0:0:0:
218,120,224938,2,0,L|350:121,1,110,4|8,1:0|0:0,0:0:0:0:
378,96,225406,1,0,0:0:0:0:
378,96,225563,2,0,P|363:163|391:222,1,110,4|8,3:0|0:0,0:0:0:0:
480,234,226188,6,0,P|495:301|467:360,1,110,2|8,1:0|0:0,0:0:0:0:
435,361,226656,1,2,0:0:0:0:
435,361,226813,1,4,3:0:0:0:
325,361,227125,2,0,L|258:361,1,55,8|2,0:0|0:0,0:0:0:0:
214,361,227438,2,0,L|215:249,1,110,2|10,1:0|0:0,0:0:0:0:
254,211,227906,1,2,0:0:0:0:
254,211,228063,2,0,L|254:128,1,55,4|8,3:0|3:0,0:0:0:0:
293,117,228375,1,8,0:0:0:0:
215,39,228688,6,0,L|83:39,1,110,2|10,1:2|0:0,0:0:0:0:
53,39,229156,1,2,0:0:0:0:
53,39,229313,2,0,P|39:99|59:158,1,110,2|8,1:2|0:0,0:0:0:0:
51,254,229938,2,0,L|133:253,1,55,2|0,1:0|0:0,0:0:0:0:
133,301,230250,2,0,L|215:300,1,55,8|2,0:0|3:0,0:0:0:0:
243,300,230563,1,4,3:0:0:0:
333,361,230875,2,0,L|392:361,1,55,8|4,0:0|3:0,0:0:0:0:
443,361,231188,1,6,1:2:0:0:
443,273,231500,6,0,L|443:215,1,44,2|2,0:0|0:0,0:0:0:0:
474,197,231813,2,0,L|474:89,1,88,2|2,0:0|0:0,0:0:0:0:
474,20,232438,1,2,0:0:0:0:
386,20,232750,2,0,L|385:80,2,44,2|0|2,0:0|0:0|0:2,0:0:0:0:
297,20,233375,1,2,0:0:0:0:
297,108,233688,5,2,3:2:0:0:
297,195,234000,2,0,L|233:195,1,44,2|2,0:0|0:0,0:0:0:0:
221,226,234313,2,0,L|118:226,1,88,2|2,0:0|0:0,0:0:0:0:
44,226,234938,1,2,0:0:0:0:
44,138,235250,2,0,L|-12:138,2,44,2|2|2,0:2|0:2|0:2,0:0:0:0:
132,138,235875,1,2,0:2:0:0:
220,138,236188,5,2,3:2:0:0:
428,207,236813,1,4,1:2:0:0:
