osu file format v14

[General]
AudioFilename: audio.mp3
AudioLeadIn: 0
PreviewTime:58504
Countdown: 0
SampleSet: Soft
StackLeniency: 0.4
Mode: 0
LetterboxInBreaks: 0
WidescreenStoryboard: 1

[Editor]
DistanceSpacing: 2.7
BeatDivisor: 6
GridSize: 32
TimelineZoom: 3.799999

[Metadata]
Title:Cerebrite
TitleUnicode:Cerebrite
Artist:Mili
ArtistUnicode:Mili
Creator:Visionary
Version:Rorupan's Extra
Source:DEEMO
Tags:english momocashew cassie wei miracle milk lunicia blacky design rorupan l9 midorijeon xyperx jonjon rock pop featured artist projectmili yamato kasai hamo video game mg mappersguild mappers' guild -stocking
BeatmapID:3822341
BeatmapSetID:1853363

[Difficulty]
HPDrainRate:5
CircleSize:3.9
OverallDifficulty:8.3
ApproachRate:9.3
SliderMultiplier:2
SliderTickRate:1

[Events]
//Background and Video events
0,0,"51214565_p0.jpg",0,0
//Break Periods
2,27198,31715
2,69157,70025
//Storyboard Layer 0 (Background)
//Storyboard Layer 1 (Fail)
//Storyboard Layer 2 (Pass)
//Storyboard Layer 3 (Foreground)
//Storyboard Layer 4 (Overlay)
//Storyboard Sound Samples

[TimingPoints]
242,405.405405405405,4,2,1,90,1,0
6728,-55.5555555555556,4,2,5,90,0,1
6863,-55.5555555555556,4,2,2,90,0,1
6998,-66.6666666666667,4,2,3,90,0,1
7133,-66.6666666666667,4,2,4,90,0,1
7268,-66.6666666666667,4,2,5,90,0,1
7404,-66.6666666666667,4,2,6,90,0,1
7539,-55.5555555555556,4,2,7,90,0,1
7674,-55.5555555555556,4,2,8,90,0,1
7809,-66.6666666666667,4,2,9,90,0,1
7944,-66.6666666666667,4,2,10,90,0,1
8214,-66.6666666666667,4,2,6,90,0,1
8350,-66.6666666666667,4,2,11,90,0,1
8485,-66.6666666666667,4,2,12,90,0,1
8620,-55.5555555555556,4,2,13,90,0,1
8755,-55.5555555555556,4,2,4,90,0,1
8890,-55.5555555555556,4,2,5,90,0,1
9025,-55.5555555555556,4,2,6,90,0,1
9160,-62.5,4,2,7,90,0,1
9431,-62.5,4,2,14,90,0,1
9566,-66.6666666666667,4,2,15,90,0,1
9836,-66.6666666666667,4,2,8,90,0,1
9971,-55.5555555555556,4,2,9,90,0,1
10241,-55.5555555555556,4,2,16,90,0,1
10377,-55.5555555555556,4,2,17,90,0,1
10647,-55.5555555555556,4,2,18,90,0,1
10782,-55.5555555555556,4,2,19,90,0,1
11052,-55.5555555555556,4,2,20,90,0,1
11187,-83.3333333333333,4,2,21,90,0,1
11457,-83.3333333333333,4,2,14,90,0,1
11593,-55.5555555555556,4,2,22,90,0,1
11728,-55.5555555555556,4,2,23,90,0,1
11863,-55.5555555555556,4,2,24,90,0,1
11998,-66.6666666666667,4,2,25,90,0,1
12133,-66.6666666666667,4,2,26,90,0,1
12268,-66.6666666666667,4,2,27,90,0,1
12404,-58.8235294117647,4,2,28,90,0,1
12809,-58.8235294117647,4,2,15,90,0,1
13079,-58.8235294117647,4,2,17,90,0,1
13214,-125,4,2,18,65,0,0
13619,-125,4,2,31,65,0,0
14025,-100,4,2,19,65,0,0
14431,-100,4,2,31,65,0,0
14633,-100,4,2,20,65,0,0
14836,-100,4,2,32,65,0,0
15241,-100,4,2,33,65,0,0
15646,-100,4,2,24,65,0,0
16052,-100,4,2,34,65,0,0
16458,-71.4285714285714,4,2,25,65,0,0
16863,-71.4285714285714,4,2,35,65,0,0
17269,-125,4,2,26,65,0,0
17573,-125,4,0,999,5,0,0
17674,-100,4,2,36,65,0,0
17876,-100,4,2,20,65,0,0
18079,-83.3333333333333,4,2,37,65,0,0
18383,-83.3333333333333,4,0,999,5,0,0
18485,-83.3333333333333,4,2,38,65,0,0
18687,-83.3333333333333,4,2,1,65,0,0
18890,-83.3333333333333,4,2,29,65,0,0
19296,-100,4,2,39,65,0,0
19498,-100,4,2,20,65,0,0
19701,-100,4,2,30,65,0,0
20106,-100,4,2,40,65,0,0
20511,-100,4,2,31,65,0,0
20714,-80,4,2,31,65,0,0
20916,-80,4,2,41,65,0,0
21120,-80,4,2,33,65,0,0
21323,-80,4,2,42,65,0,0
21525,-80,4,2,20,65,0,0
21728,-83.3333333333333,4,2,43,65,0,0
21930,-83.3333333333333,4,2,34,65,0,0
22133,-76.9230769230769,4,2,34,65,0,0
22538,-76.9230769230769,4,2,44,65,0,0
22944,-100,4,2,35,65,0,0
23248,-100,4,0,999,5,0,0
23350,-83.3333333333333,4,2,45,65,0,0
23755,-125,4,2,39,65,0,0
24059,-125,4,0,999,5,0,0
24160,-63.2790241228264,4,2,46,65,0,0
24430,-63.2790241228264,4,2,43,65,0,0
24566,-66.6666666666667,4,2,47,65,0,0
24971,-66.6666666666667,4,2,48,65,0,0
25174,-167.453453101107,4,2,37,65,0,0
25377,-167.453453101107,4,2,46,65,0,0
25782,-83.3333333333333,4,2,49,65,0,0
26187,-100,4,2,47,60,0,0
26795,-100,4,2,1,60,0,0
26863,-100,4,2,52,60,0,0
26998,-100,4,2,53,55,0,0
32269,-142.857142857143,4,2,20,55,0,0
32573,-142.857142857143,4,0,999,5,0,0
32674,-83.3333333333333,4,2,66,60,0,0
32876,-83.3333333333333,4,2,20,60,0,0
33079,-83.3333333333333,4,2,67,60,0,0
33282,-83.3333333333333,4,2,20,60,0,0
33485,-100,4,2,67,60,0,0
33687,-100,4,2,20,60,0,0
33789,-125,4,2,20,60,0,0
33890,-125,4,2,70,60,0,0
34093,-125,4,2,20,60,0,0
34296,-83.3333333333333,4,2,72,60,0,0
34701,-83.3333333333333,4,2,73,60,0,0
35106,-83.3333333333333,4,2,68,60,0,0
35241,-83.3333333333333,4,2,69,60,0,0
35377,-83.3333333333333,4,2,16,60,0,0
35512,-83.3333333333333,4,2,75,60,0,0
35782,-83.3333333333333,4,2,76,60,0,0
35917,-83.3333333333333,4,2,77,60,0,0
36187,-83.3333333333333,4,2,71,60,0,0
36323,-62.7245395160492,4,2,78,60,0,0
36593,-62.7245395160492,4,2,80,60,0,0
36728,-66.6666666666667,4,2,72,60,0,0
36863,-66.6666666666667,4,2,73,60,0,0
36998,-66.6666666666667,4,2,71,60,0,0
37133,-142.857142857143,4,2,81,60,0,0
37403,-142.857142857143,4,2,82,60,0,0
37539,-71.4285714285715,4,2,83,60,0,0
37809,-71.4285714285715,4,2,74,60,0,0
37944,-66.6666666666667,4,2,84,60,0,0
38079,-66.6666666666667,4,2,85,60,0,0
38214,-66.6666666666667,4,2,86,60,0,0
38350,-83.3333333333333,4,2,75,60,0,0
38755,-83.3333333333333,4,2,87,60,0,0
38890,-83.3333333333333,4,2,59,60,0,0
39025,-83.3333333333333,4,2,88,60,0,0
39160,-83.3333333333333,4,2,89,60,0,0
39566,-83.3333333333333,4,2,20,60,0,0
39971,-83.3333333333333,4,2,90,60,0,0
40377,-166.666666666667,4,2,20,60,0,0
40782,-166.666666666667,4,2,90,60,0,0
41187,-166.666666666667,4,2,20,60,0,0
41491,-166.666666666667,4,0,999,5,0,0
41593,-166.666666666667,4,2,90,60,0,0
42403,-166.666666666667,4,2,59,60,0,0
42809,-166.666666666667,4,2,20,60,0,0
43214,-166.666666666667,4,2,90,60,0,0
44025,-166.666666666667,4,2,59,60,0,0
44431,-166.666666666667,4,2,20,60,0,0
44701,-166.666666666667,4,0,999,5,0,0
44836,-87.3771523286071,4,2,90,60,0,0
45106,-87.3771523286071,4,0,999,5,0,0
45241,-87.3771523286071,4,2,90,60,0,0
45512,-87.3771523286071,4,2,13,60,0,0
45647,-83.3333333333333,4,2,78,60,0,0
45782,-83.3333333333333,4,2,79,60,0,0
45917,-83.3333333333333,4,2,80,60,0,0
46052,-83.3333333333333,4,2,81,60,0,0
46187,-83.3333333333333,4,2,82,60,0,0
46323,-83.3333333333333,4,2,83,60,0,0
46458,-83.3333333333333,4,2,84,60,0,0
46593,-83.3333333333333,4,2,85,60,0,0
46728,-83.3333333333333,4,2,86,60,0,0
46863,-100,4,2,87,60,0,0
47133,-100,4,2,89,60,0,0
47269,-100,4,2,91,60,0,0
47404,-100,4,2,90,60,0,0
47539,-100,4,2,41,60,0,0
47674,-100,4,2,90,60,0,0
47809,-100,4,2,91,60,0,0
47944,-100,4,2,92,60,0,0
48079,-66.6666666666667,4,2,92,60,0,0
48349,-66.6666666666667,4,2,41,60,0,0
48485,-66.6666666666667,4,2,90,60,0,0
48890,-83.3333333333333,4,2,93,60,0,0
49025,-83.3333333333333,4,2,79,60,0,0
49160,-83.3333333333333,4,2,80,60,0,0
49296,-83.3333333333333,4,2,81,60,0,0
49431,-83.3333333333333,4,2,82,60,0,0
49566,-83.3333333333333,4,2,83,60,0,0
49701,-100,4,2,84,60,0,0
49836,-100,4,2,94,60,0,0
49971,-100,4,2,80,60,0,0
50106,-71.4285714285714,4,2,87,60,0,0
50376,-71.4285714285714,4,2,89,60,0,0
50512,-100,4,2,95,60,0,0
51187,-100,4,0,999,5,0,0
51323,-125,4,2,96,60,0,0
52032,-125,4,0,999,5,0,0
52133,-100,4,2,97,60,0,0
52639,-100,4,0,999,5,0,0
52741,-125,4,2,20,60,0,0
52842,-125,4,0,999,5,0,0
52944,-100,4,2,97,60,0,0
53450,-100,4,0,999,5,0,0
53552,-100,4,2,20,60,0,0
53755,-100,4,2,98,60,0,0
54160,-100,4,2,20,60,0,0
54566,-83.3333333333333,4,2,99,60,0,0
54971,-125,4,2,20,60,0,0
55275,-125,4,0,999,5,0,0
55377,-90.9090909090909,4,2,97,60,0,0
55985,-90.9090909090909,4,2,20,60,0,0
56187,-83.3333333333333,4,2,97,60,0,0
56796,-100,4,2,20,60,0,0
56897,-100,4,0,999,5,0,0
56998,-83.3333333333333,4,2,98,60,0,0
57302,-83.3333333333333,4,0,999,5,0,0
57404,-83.3333333333333,4,2,20,60,0,0
57708,-83.3333333333333,4,0,999,5,0,0
57809,-83.3333333333333,4,2,100,60,0,0
58012,-83.3333333333333,4,2,20,60,0,0
58214,-166.666666666667,4,2,20,60,0,0
58518,-166.666666666667,4,0,999,5,0,0
58620,405.405405405405,3,2,101,60,1,0
58620,-83.3333333333333,3,2,101,60,0,0
59025,-83.3333333333333,3,2,20,60,0,0
59836,-83.3333333333333,3,2,102,60,0,0
60342,-83.3333333333333,3,0,999,5,0,0
60444,-200,3,2,20,60,0,0
60950,-200,3,0,999,5,0,0
61052,-200,3,2,103,60,0,0
61660,-200,3,2,20,60,0,0
62268,-200,3,2,105,60,0,0
62674,-200,3,2,20,60,0,0
63484,-125,3,2,106,60,0,0
64092,-125,3,2,20,60,0,0
64701,-83.3333333333333,3,2,109,60,0,0
65207,-83.3333333333333,3,0,999,5,0,0
65309,-166.666666666667,3,2,20,60,0,0
65410,-166.666666666667,3,0,999,5,0,0
65511,-83.3333333333333,3,2,93,60,0,0
65815,-83.3333333333333,3,0,999,5,0,0
65917,-100,3,2,110,60,0,0
66423,-100,3,0,999,5,0,0
66525,-125,3,2,111,60,0,0
66930,-125,3,2,112,60,0,0
67133,-200,3,2,113,60,0,0
67538,-200,3,2,114,60,0,0
67943,-200,3,2,116,60,0,0
68349,-166.666666666667,3,2,117,60,0,0
70579,-132.149294099586,3,2,117,60,0,0
70714,-132.149294099586,3,0,999,5,0,0
70782,405.405405405405,4,2,135,70,1,0
70782,-83.3333333333333,4,2,135,70,0,0
71086,-83.3333333333333,4,0,999,5,0,0
71187,-71.4285714285714,4,2,135,70,0,0
71727,-71.4285714285714,4,2,136,70,0,0
71863,-71.4285714285714,4,2,137,70,0,0
71998,-71.4285714285714,4,2,138,70,0,0
72133,-71.4285714285714,4,2,139,70,0,0
72268,-71.4285714285714,4,2,140,70,0,0
72403,-66.6666666666667,4,2,141,70,0,0
72808,-66.6666666666667,4,2,142,70,0,0
73079,-100,4,2,20,70,0,0
73214,-100,4,2,143,70,0,0
73349,-100,4,2,144,70,0,0
73484,-100,4,2,146,70,0,0
73619,-83.3333333333333,4,2,147,70,0,0
73754,-83.3333333333333,4,2,23,70,0,0
73890,-83.3333333333333,4,2,148,70,0,0
74025,-71.4285714285714,4,2,149,70,0,0
74971,-71.4285714285714,4,2,150,70,0,0
75106,-71.4285714285714,4,2,151,70,0,0
75241,-71.4285714285714,4,2,152,70,0,0
75376,-62.5,4,2,153,70,0,0
75511,-62.5,4,2,154,70,0,0
75646,-62.5,4,2,155,70,0,0
76052,-83.3333333333333,4,2,156,70,0,0
76322,-83.3333333333333,4,2,158,70,0,0
76457,-66.6666666666667,4,2,159,70,0,0
76862,-66.6666666666667,4,2,162,70,0,0
76998,-100,4,2,162,70,0,0
77268,-100,4,2,163,70,0,0
77403,-100,4,2,23,70,0,0
77538,-100,4,2,160,70,0,0
77673,-83.3333333333333,4,2,164,70,0,0
78078,-83.3333333333333,4,2,166,70,0,0
78483,-83.3333333333333,4,2,168,70,0,0
78619,-83.3333333333333,4,2,169,70,0,0
78754,-83.3333333333333,4,2,165,70,0,0
78890,-66.6666666666667,4,2,170,70,0,0
79160,-66.6666666666667,4,2,23,70,0,0
79295,-83.3333333333333,4,2,171,70,0,0
79700,-83.3333333333333,4,2,172,70,0,0
80105,-83.3333333333333,4,2,173,70,0,0
80376,-83.3333333333333,4,2,174,70,0,0
80511,-62.5,4,2,175,70,0,0
80815,-62.5,4,0,999,5,0,0
80917,-71.4285714285714,4,2,176,70,0,0
81322,-71.4285714285714,4,2,177,70,0,0
81727,-71.4285714285714,4,2,178,70,0,0
81863,-71.4285714285714,4,2,66,70,0,0
81998,-71.4285714285714,4,2,16,70,0,0
82133,-71.4285714285714,4,2,179,70,0,0
82268,-71.4285714285714,4,2,66,70,0,0
82403,-71.4285714285714,4,2,41,70,0,0
82538,-62.5,4,2,180,70,0,0
82943,-62.5,4,2,181,70,0,0
83348,-62.5,4,2,182,70,0,0
83619,-62.5,4,2,13,70,0,0
83754,-71.4285714285714,4,2,183,75,0,0
83889,-71.4285714285714,4,2,184,75,0,0
84024,-71.4285714285714,4,2,13,75,0,0
84160,-66.6666666666667,4,2,185,75,0,0
84430,-66.6666666666667,4,2,186,75,0,0
84565,-58.8235294117647,4,2,187,75,0,0
84835,-58.8235294117647,4,2,186,75,0,0
84971,-55.5555555555556,4,2,188,75,0,0
85241,-55.5555555555556,4,2,186,75,0,0
85376,-66.6666666666667,4,2,189,75,0,0
85511,-66.6666666666667,4,2,36,75,0,0
85646,-66.6666666666667,4,2,184,75,0,0
85781,-71.4285714285714,4,2,190,75,0,0
85916,-71.4285714285714,4,2,36,75,0,0
86051,-71.4285714285714,4,2,38,75,0,0
86187,-66.6666666666667,4,2,191,75,0,0
86322,-66.6666666666667,4,2,36,75,0,0
86457,-66.6666666666667,4,2,184,75,0,0
86592,-66.6666666666667,4,2,192,75,0,0
86727,-66.6666666666667,4,2,13,75,0,0
86862,-66.6666666666667,4,2,193,75,0,0
86998,-58.8235294117647,4,2,194,75,0,0
87268,-58.8235294117647,4,2,45,75,0,0
87403,-58.8235294117647,4,2,196,75,0,0
87538,-58.8235294117647,4,2,195,75,0,0
87673,-58.8235294117647,4,2,197,75,0,0
87809,-62.5,4,2,198,75,0,0
87944,-62.5,4,2,44,75,0,0
88079,-62.5,4,2,199,75,0,0
88214,-71.4285714285714,4,2,200,75,0,0
88349,-71.4285714285714,4,2,201,75,0,0
88484,-71.4285714285714,4,2,197,75,0,0
88619,-58.8235294117647,4,2,202,75,0,0
88889,-58.8235294117647,4,2,195,75,0,0
89025,-66.6666666666667,4,2,203,75,0,0
89160,-66.6666666666667,4,2,201,75,0,0
89295,-66.6666666666667,4,2,204,75,0,0
89430,-66.6666666666667,4,2,205,75,0,0
89565,-66.6666666666667,4,2,201,75,0,0
89700,-66.6666666666667,4,2,195,75,0,0
89836,-500,4,2,206,75,0,0
90241,-500,4,2,183,50,0,0
90917,-125,4,2,208,50,0,0
90984,-125,4,0,999,5,0,0
91052,-111.111111111111,4,2,209,50,0,0
91863,-166.666666666666,4,2,210,50,0,0
92268,-166.666666666666,4,2,211,50,0,0
92673,-166.666666666666,4,2,212,50,0,0
93079,-166.666666666666,4,2,213,50,0,0
93383,-166.666666666666,4,0,999,5,0,0
93484,-99.9999999999999,4,2,214,50,0,0
93889,-99.9999999999999,4,2,215,50,0,0
94294,-99.9999999999999,4,2,216,50,0,0
94700,-166.666666666667,4,2,217,50,0,0
95004,-166.666666666667,4,0,999,5,0,0
95106,-118.721439789434,4,2,218,50,0,0
95781,-118.721439789434,4,2,222,50,0,0
95917,-200,4,2,223,50,0,0
96727,-142.857142857143,4,2,228,50,0,0
97132,-142.857142857143,4,2,230,50,0,0
97403,-142.857142857143,4,2,229,50,0,0
97538,-76.9230769230769,4,2,232,50,0,0
97673,-76.9230769230769,4,2,91,50,0,0
97808,-76.9230769230769,4,2,174,50,0,0
97944,-80.5775310909931,4,2,233,50,0,0
98214,-80.5775310909931,4,0,999,5,0,0
98349,-125,4,2,234,50,0,0
98754,-125,4,2,236,50,0,0
99159,-125,4,2,237,50,0,0
99565,-125,4,2,239,50,0,0
99869,-125,4,0,999,5,0,0
99971,-200,4,2,241,50,0,0
100376,-200,4,2,243,50,0,0
100781,-200,4,2,244,50,0,0
101052,-200,4,2,245,50,0,0
101187,-200,4,2,246,50,0,0
101322,-200,4,2,247,50,0,0
101457,-200,4,2,248,50,0,0
101592,-125,4,2,249,55,0,0
102267,-125,4,2,83,55,0,0
102403,-200,4,2,84,55,0,0
102808,-200,4,2,251,55,0,0
103011,-200,4,2,20,55,0,0
103214,-142.857142857143,4,2,252,60,0,0
103619,-142.857142857143,4,2,253,60,0,0
103754,-142.857142857143,4,2,255,60,0,0
103890,-142.857142857143,4,2,256,60,0,0
104025,-100,4,2,257,60,0,0
104430,-100,4,2,260,60,0,0
104700,-100,4,2,262,60,0,0
104836,-83.3333333333333,4,2,263,65,0,0
104971,-83.3333333333333,4,2,79,65,0,0
105106,-83.3333333333333,4,2,80,65,0,0
105241,-71.4285714285714,4,2,250,65,0,0
105376,-71.4285714285714,4,2,82,65,0,0
105511,-71.4285714285714,4,2,83,65,0,0
105646,-125,4,2,84,65,0,0
106051,-125,4,2,251,65,0,0
106322,-125,4,2,79,65,0,0
106457,-83.3333333333333,4,2,264,75,0,0
106862,-83.3333333333333,4,2,253,75,0,0
107268,-100,4,2,257,75,0,0
107538,-100,4,2,259,75,0,0
107673,-71.4285714285714,4,2,265,75,0,0
107875,-71.4285714285714,4,2,20,75,0,0
108079,-62.5,4,2,94,90,0,0
108349,-62.5,4,2,13,90,0,0
108484,-71.4285714285714,4,2,2,90,0,0
108619,-71.4285714285714,4,2,95,90,0,0
108754,-71.4285714285714,4,2,96,90,0,0
108890,-50,4,2,97,90,0,0
109025,-50,4,2,266,90,0,0
109160,-50,4,2,2,90,0,0
109295,-500,4,2,98,90,0,0
109565,-500,4,0,999,5,0,0
109700,-45.4545454545455,4,2,267,90,0,1
109835,-45.4545454545455,4,2,2,90,0,1
109971,-45.4545454545455,4,2,3,90,0,1
110106,-52.6315789473684,4,2,4,90,0,1
110241,-52.6315789473684,4,2,5,90,0,1
110376,-52.6315789473684,4,2,6,90,0,1
110511,-52.6315789473684,4,2,7,90,0,1
110646,-52.6315789473684,4,2,8,90,0,1
110781,-52.6315789473684,4,2,9,90,0,1
110917,-50,4,2,10,90,0,1
111187,-50,4,2,99,90,0,1
111322,-45.4545454545455,4,2,11,90,0,1
111457,-45.4545454545455,4,2,12,90,0,1
111592,-45.4545454545455,4,2,13,90,0,1
111727,-55.5555555555556,4,2,4,90,0,1
111862,-55.5555555555556,4,2,5,90,0,1
111997,-55.5555555555556,4,2,6,90,0,1
112133,-50,4,2,7,90,0,1
112268,-50,4,2,100,90,0,1
112403,-50,4,2,14,90,0,1
112538,-45.4545454545455,4,2,15,90,0,1
112808,-45.4545454545455,4,2,101,90,0,1
112944,-40,4,2,102,90,0,1
113214,-40,4,2,16,90,0,1
113349,-55.5555555555556,4,2,17,90,0,1
113619,-55.5555555555556,4,2,18,90,0,1
113754,-50,4,2,19,90,0,1
114024,-50,4,2,20,90,0,1
114160,-111.111111111111,4,2,21,90,0,1
114430,-111.111111111111,4,2,103,90,0,1
114565,-47.6190476190476,4,2,22,90,0,1
114700,-47.6190476190476,4,2,23,90,0,1
114835,-47.6190476190476,4,2,24,90,0,1
114971,-55.5555555555556,4,2,25,90,0,1
115106,-55.5555555555556,4,2,26,90,0,1
115241,-55.5555555555556,4,2,27,90,0,1
115376,-45.4545454545455,4,2,28,90,0,1
115511,-45.4545454545455,4,2,104,90,0,1
115646,-45.4545454545455,4,2,30,90,0,1
115781,-45.4545454545455,4,2,15,90,0,1
115917,-45.4545454545455,4,2,16,90,0,1
116052,-45.4545454545455,4,2,17,90,0,1
116187,-45.4545454545455,4,2,5,90,0,1
116322,-45.4545454545455,4,2,2,90,0,1
116457,-45.4545454545455,4,2,3,90,0,1
116592,-52.6315789473684,4,2,4,90,0,1
116727,-52.6315789473684,4,2,5,90,0,1
116862,-52.6315789473684,4,2,6,90,0,1
116998,-45.4545454545455,4,2,7,90,0,1
117133,-45.4545454545455,4,2,8,90,0,1
117268,-45.4545454545455,4,2,9,90,0,1
117403,-55.5555555555556,4,2,10,90,0,1
117673,-55.5555555555556,4,2,99,90,0,1
117809,-45.4545454545455,4,2,11,90,0,1
117944,-45.4545454545455,4,2,12,90,0,1
118079,-45.4545454545455,4,2,13,90,0,1
118214,-55.5555555555556,4,2,4,90,0,1
118349,-55.5555555555556,4,2,5,90,0,1
118484,-55.5555555555556,4,2,6,90,0,1
118619,-55.5555555555556,4,2,7,90,0,1
118890,-55.5555555555556,4,2,14,90,0,1
119025,-45.4545454545455,4,2,15,90,0,1
119295,-45.4545454545455,4,2,101,90,0,1
119430,-52.6315789473684,4,2,9,90,0,1
119565,-52.6315789473684,4,2,10,90,0,1
119700,-52.6315789473684,4,2,16,90,0,1
119836,-45.4545454545455,4,2,17,90,0,1
119971,-45.4545454545455,4,2,11,90,0,1
120106,-45.4545454545455,4,2,18,90,0,1
120241,-55.5555555555556,4,2,19,90,0,1
120376,-55.5555555555556,4,2,12,90,0,1
120511,-55.5555555555556,4,2,20,90,0,1
120646,-50,4,2,21,90,0,1
120916,-50,4,2,103,90,0,1
121052,-50,4,2,22,90,0,1
121187,-50,4,2,23,90,0,1
121322,-50,4,2,24,90,0,1
121457,-50,4,2,25,90,0,1
121592,-50,4,2,26,90,0,1
121727,-50,4,2,27,90,0,1
121863,-50,4,2,28,90,0,1
121998,-50,4,2,104,90,0,1
122133,-50,4,2,30,90,0,1
122268,-50,4,2,15,90,0,1
122403,-50,4,2,16,90,0,1
122538,-50,4,2,17,90,0,1
122673,-66.6666666666667,4,2,18,70,0,0
123078,-66.6666666666667,4,2,31,70,0,0
123484,-100,4,2,19,70,0,0
123788,-100,4,0,999,5,0,0
123890,-100,4,2,31,70,0,0
124092,-83.3333333333333,4,2,20,70,0,0
124193,-83.3333333333333,4,0,999,5,0,0
124295,-71.4285714285714,4,2,32,70,0,0
124700,-71.4285714285714,4,2,33,70,0,0
125105,-71.4285714285714,4,2,24,70,0,0
125511,-83.3333333333333,4,2,34,70,0,0
125917,-100,4,2,25,70,0,0
126322,-100,4,2,35,70,0,0
126727,-100,4,2,26,70,0,0
127133,-62.5,4,2,36,70,0,0
127335,-62.5,4,2,20,70,0,0
127538,-100,4,2,37,70,0,0
127740,-100,4,2,20,70,0,0
127943,-100,4,2,105,70,0,0
128146,-100,4,2,1,70,0,0
128349,-62.5,4,2,268,70,0,0
128754,-62.5,4,2,39,70,0,0
129160,-83.3333333333333,4,2,30,70,0,0
129464,-83.3333333333333,4,0,999,5,0,0
129565,-83.3333333333333,4,2,40,70,0,0
129835,-83.3333333333333,4,0,999,5,0,0
129971,-55.5555555555556,4,2,31,70,0,0
130241,-45.4545454545455,4,2,32,70,0,0
130511,-45.4545454545455,4,0,999,5,0,0
130579,-55.5555555555556,4,2,33,70,0,0
130781,-55.5555555555556,4,2,42,70,0,0
130984,-55.5555555555556,4,2,20,70,0,0
131187,-83.3333333333333,4,2,43,70,0,0
131389,-83.3333333333333,4,2,1,70,0,0
131592,-125,4,2,34,70,0,0
131896,-125,4,0,999,5,0,0
131998,-71.4285714285714,4,2,44,70,0,0
132302,-71.4285714285714,4,0,999,5,0,0
132403,-53.4870048351777,4,2,35,70,0,0
132673,-53.4870048351777,4,2,37,70,0,0
132809,-100,4,2,45,70,0,0
133214,-100,4,2,39,70,0,0
133619,-54.1504797937118,4,2,46,70,0,0
133889,-54.1504797937118,4,2,43,70,0,0
134025,-83.3333333333333,4,2,107,70,0,0
134430,-83.3333333333333,4,2,48,70,0,0
134633,-100,4,2,37,70,0,0
134836,-100,4,2,269,70,0,0
135241,-83.3333333333333,4,2,108,70,0,0
135646,-83.3333333333333,4,2,270,80,0,0
135781,-83.3333333333333,4,2,95,80,0,0
135917,-83.3333333333333,4,2,109,80,0,0
136052,-83.3333333333333,4,2,110,80,0,0
136187,-83.3333333333333,4,2,111,80,0,0
136322,-83.3333333333333,4,2,112,80,0,0
136457,-166.666666666667,4,2,113,80,0,0
136592,-166.666666666667,4,2,114,80,0,0
136727,-166.666666666667,4,2,13,80,0,0
136863,-76.2277104975626,4,2,115,80,0,0
137133,-76.2277104975626,4,2,6,80,0,0
137268,-71.4285714285714,4,2,116,80,0,0
137403,-71.4285714285714,4,2,117,80,0,0
137538,-71.4285714285714,4,2,118,80,0,0
137673,-83.3333333333333,4,2,110,80,0,0
137808,-83.3333333333333,4,2,111,80,0,0
137944,-83.3333333333333,4,2,112,80,0,0
138079,-65.1018747134868,4,2,113,80,0,0
138349,-65.1018747134868,4,2,120,80,0,0
138484,-93.0958749587376,4,2,121,80,0,0
138754,-93.0958749587376,4,2,122,80,0,0
138890,-100,4,2,123,65,0,0
139295,-100,4,2,124,65,0,0
139565,-100,4,2,68,65,0,0
139700,-166.666666666667,4,2,125,65,0,0
140105,-166.666666666667,4,2,127,65,0,0
140376,-166.666666666667,4,2,274,65,0,0
140511,-166.666666666667,4,2,128,65,0,0
140646,-166.666666666667,4,2,10,65,0,0
140781,-166.666666666667,4,2,129,65,0,0
140917,-166.666666666667,4,2,130,65,0,0
141052,-166.666666666667,4,2,167,65,0,0
141187,-166.666666666667,4,2,131,65,0,0
141322,-333.333333333333,4,2,132,65,0,0
141592,-333.333333333333,4,2,133,65,0,0
141727,-71.4285714285714,4,2,276,65,0,0
141997,-71.4285714285714,4,2,277,65,0,0
142133,-45.4545454545455,4,2,270,80,0,1
142268,-45.4545454545455,4,2,95,80,0,1
142403,-45.4545454545455,4,2,109,80,0,1
142538,-45.4545454545455,4,2,110,80,0,1
142673,-45.4545454545455,4,2,111,80,0,1
142809,-45.4545454545455,4,2,112,80,0,1
142944,-52.6315789473684,4,2,113,80,0,1
143079,-52.6315789473684,4,2,114,80,0,1
143214,-52.6315789473684,4,2,13,80,0,1
143349,-50,4,2,115,80,0,1
143619,-50,4,2,6,80,0,1
143754,-55.5555555555556,4,2,116,80,0,1
143889,-55.5555555555556,4,2,117,80,0,1
144025,-55.5555555555556,4,2,118,80,0,1
144160,-45.4545454545455,4,2,110,80,0,1
144295,-45.4545454545455,4,2,111,80,0,1
144430,-45.4545454545455,4,2,112,80,0,1
144565,-45.4545454545455,4,2,113,80,0,1
144700,-45.4545454545455,4,2,119,80,0,1
144836,-45.4545454545455,4,2,120,80,0,1
144971,-52.6315789473684,4,2,278,80,0,1
145241,-52.6315789473684,4,2,279,80,0,1
145376,-45.4545454545455,4,2,134,85,0,1
145511,-45.4545454545455,4,2,271,85,0,1
145646,-45.4545454545455,4,2,135,85,0,1
145781,-52.6315789473684,4,2,280,85,0,1
145916,-52.6315789473684,4,2,272,85,0,1
146051,-52.6315789473684,4,2,136,85,0,1
146187,-45.4545454545455,4,2,137,85,0,1
146457,-45.4545454545455,4,2,138,85,0,1
146592,-55.5555555555556,4,2,281,85,0,1
146862,-55.5555555555556,4,2,91,85,0,1
146998,-50,4,2,139,85,0,1
147268,-50,4,2,141,85,0,1
147403,-58.8235294117647,4,2,142,85,0,1
147673,-58.8235294117647,4,2,144,85,0,1
147809,-50,4,2,145,85,0,1
148079,-50,4,2,147,85,0,1
148214,-100,4,2,148,85,0,1
148484,-100,4,2,282,85,0,1
148619,-100,4,2,283,60,0,0
148754,-100,4,2,284,60,0,0
150106,-100,4,2,161,60,0,0
150241,-71.4285714285714,4,2,293,60,0,0
150511,-71.4285714285714,4,2,294,60,0,0
150646,-100,4,2,149,60,0,0
150916,-100,4,2,167,60,0,0
151052,-125,4,2,150,60,0,0
151457,-125,4,2,151,60,0,0
151863,-83.3333333333333,4,2,298,75,0,0
151998,-83.3333333333333,4,2,152,75,0,0
152133,-83.3333333333333,4,2,153,75,0,0
152268,-100,4,2,154,75,0,0
152403,-100,4,2,155,75,0,0
152538,-100,4,2,20,75,0,0
152673,-76.9230769230769,4,2,156,75,0,0
152943,-76.9230769230769,4,2,158,75,0,0
153079,-76.9230769230769,4,2,159,75,0,0
153349,-76.9230769230769,4,2,161,75,0,0
153484,-83.3333333333333,4,2,299,75,0,0
153889,-83.3333333333333,4,2,164,75,0,0
154294,-83.3333333333333,4,2,167,75,0,0
154430,-83.3333333333333,4,2,168,75,0,0
154565,-83.3333333333333,4,2,169,75,0,0
154700,-83.3333333333333,4,2,170,75,0,0
154836,-83.3333333333333,4,2,171,75,0,0
154971,-83.3333333333333,4,2,172,75,0,0
155106,-333.333333333333,4,2,173,75,0,0
155376,-333.333333333333,4,0,999,5,0,0
155511,-333.333333333333,4,2,300,75,0,0
155781,-333.333333333333,4,2,174,75,0,0
155917,-200,4,2,301,75,0,0

[Colours]
Combo1 : 130,175,235
Combo2 : 236,200,207
Combo3 : 181,173,196
Combo4 : 185,212,228

[HitObjects]
226,0,6728,6,1,P|272:35|280:93,1,119.99999999999987,14|6,1:2|2:3,0:0:0:0:
81,239,6998,2,1,B|9:268|9:268|-12:312,2,99.99999999999994,6|10|6,2:3|1:3|2:3,0:0:0:0:
263,109,7404,5,6,2:3:0:0:
11,300,7539,2,1,P|74:323|131:378,1,119.99999999999987,10|6,1:3|2:3,0:0:0:0:
120,74,7809,6,1,B|81:2|81:2|27:-7,1,99.99999999999994,6|10,2:3|1:3,0:0:0:0:
104,370,8214,5,10,2:2:0:0:
266,188,8350,2,1,P|254:236|225:276,1,99.99999999999994,10|6,1:3|2:3,0:0:0:0:
429,98,8620,2,1,B|390:9|390:9|329:-3,2,119.99999999999987,6|10|6,2:3|1:3|2:3,0:0:0:0:
447,112,9025,5,6,2:3:0:0:
288,59,9160,2,1,P|251:20|203:0,1,106.66666666666666,10|2,1:3|2:2,0:0:0:0:
354,238,9431,5,6,2:3:0:0:
512,151,9566,2,1,B|350:193|350:193|331:240,1,199.9999999999999,10|10,1:3|2:2,0:0:0:0:
486,258,9971,6,1,P|277:193|201:190,1,239.99999999999974,14|6,1:2|2:3,0:0:0:0:
409,126,10377,1,10,1:3:0:0:
110,173,10647,5,6,2:3:0:0:
0,25,10782,2,1,B|204:92|204:92|234:153,1,239.99999999999974,10|6,1:3|2:3,0:0:0:0:
242,16,11187,6,1,B|215:-4|215:-4|67:33,1,160.00000000000006,10|10,1:3|2:2,0:0:0:0:
131,352,11593,2,1,P|162:300|170:239,1,119.99999999999987,10|6,1:3|2:3,0:0:0:0:
24,173,11863,5,6,2:3:0:0:
271,314,11998,2,1,B|336:351|336:351|381:344,2,99.99999999999994,10|6|6,1:3|2:3|2:3,0:0:0:0:
0,378,12404,6,1,P|190:278|372:247,1,340,10|10,1:3|1:2,0:0:0:0:
97,284,13079,5,10,2:2:0:0:
512,368,13214,2,1,P|436:364|408:293,1,160,6|2,1:2|2:3,0:0:0:0:
418,283,14025,2,1,L|435:381,1,100,10|0,2:2|0:0,0:0:0:0:
343,246,14431,1,2,2:3:0:0:
434,52,14633,5,2,1:2:0:0:
327,259,14836,2,1,P|254:200|153:160,2,200,2|2|10,1:3|2:3|2:2,0:0:0:0:
142,174,15850,5,1,0:0:0:0:
122,44,16052,5,2,1:3:0:0:
9,341,16255,1,1,0:0:0:0:
0,60,16458,6,1,B|190:12|190:12|241:37|241:37|223:100,1,280.00000000000006,6|2,1:2|2:3,0:0:0:0:
0,60,17269,2,1,P|84:42|81:7,1,120,10|0,2:2|0:0,0:0:0:0:
94,8,17674,2,1,B|143:64|143:64|146:110,1,100,2|2,2:3|1:2,0:0:0:0:
0,329,18079,2,1,P|106:256|186:235,1,180.00000000000003,2|0,1:3|0:0,0:0:0:0:
166,255,18485,5,2,2:3:0:0:
85,219,18687,1,0,1:1:0:0:
239,141,18890,1,10,2:2:0:0:
152,349,19093,5,1,0:0:0:0:
343,119,19296,2,1,B|337:138|337:138|261:161,1,100,2|2,1:3|2:2,0:0:0:0:
512,110,19701,6,1,P|430:63|327:36,2,200,6|2|10,1:2|2:3|2:2,0:0:0:0:
334,49,20714,2,1,P|399:52|418:-9,1,125,0|2,0:0|2:3,0:0:0:0:
332,328,21120,5,2,1:2:0:0:
403,217,21323,1,2,1:3:0:0:
144,349,21525,1,2,2:2:0:0:
436,383,21728,6,1,B|421:338|421:338|465:314|460:271,1,120.00000000000001,2|0,2:3|1:1,0:0:0:0:
512,377,22133,2,1,P|401:308|277:270,1,260,10|2,2:2|1:3,0:0:0:0:
0,98,22944,2,1,B|10:71|10:71|121:21,1,150,6|0,1:2|0:0,0:0:0:0:
99,11,23350,6,1,P|43:73|20:142,1,120.00000000000001,2|0,2:3|0:0,0:0:0:0:
0,350,23755,2,1,P|56:337|35:270,1,120,10|0,2:2|0:0,0:0:0:0:
66,199,24160,6,1,P|148:150|260:128,1,210.7069999602546,2|2,2:3|2:2,0:0:0:0:
350,64,24566,2,1,B|233:26|233:26|343:234,1,299.99999999999983,2|2,1:3|2:3,0:0:0:0:
332,170,25174,6,1,L|328:189,1,19.906029237394673,0|2,1:1|2:2,0:0:0:0:
458,42,25377,1,10,2:2:0:0:
206,5,25579,5,1,0:0:0:0:
512,304,25782,2,1,B|417:277|417:277|399:245,1,120.00000000000001,2|0,1:3|0:0,0:0:0:0:
512,206,26187,6,1,B|256:267|256:267|232:308,1,300,6|0,1:2|0:0,0:0:0:0:
242,310,26863,1,2,2:2:0:0:
221,349,26998,1,2,2:2:0:0:
9,6,32269,6,1,P|65:31|66:91,1,104.99999999999989,2|0,2:2|0:0,0:0:0:0:
161,117,32674,2,1,B|252:86|252:86|274:40,1,120.00000000000001,2|2,1:3|2:2,0:0:0:0:
266,47,32978,1,2,2:2:0:0:
284,39,33079,1,2,2:3:0:0:
98,234,33282,5,2,2:2:0:0:
58,83,33485,2,1,P|99:111|128:151,1,100,10|2,2:2|2:2,0:0:0:0:
78,211,33789,6,1,L|91:173,1,40,2|2,2:2|2:3,0:0:0:0:
180,0,34093,1,2,2:2:0:0:
210,222,34296,6,1,P|313:281|391:370,2,240.00000000000003,2|2|10,1:3|2:3|2:2,0:0:0:0:
206,238,35241,1,2,2:2:0:0:
160,304,35377,1,2,2:2:0:0:
86,332,35512,1,2,2:3:0:0:
410,121,35782,5,2,2:3:0:0:
415,132,35917,2,1,B|437:127|437:127|506:6,1,160.00000000000006,2|2,1:3|2:2,0:0:0:0:
401,0,36323,6,1,P|474:114|491:188,1,212.56964875639713,2|2,2:3|2:3,0:0:0:0:
433,342,36728,2,1,B|365:304|365:304|362:274,2,99.99999999999994,10|2|2,2:2|2:2|2:2,0:0:0:0:
502,194,37133,6,1,P|451:217|459:254,1,93.33333333333324,2|2,2:3|2:3,0:0:0:0:
468,265,37539,2,1,P|370:305|313:380,1,186.6666666666665,2|2,1:3|2:2,0:0:0:0:
223,336,37944,2,1,B|251:262|251:262|303:248,1,99.99999999999994,2|2,2:3|2:3,0:0:0:0:
235,352,38214,5,2,2:3:0:0:
154,216,38350,2,1,P|106:92|43:-15,1,240.00000000000003,10|2,2:2|2:3,0:0:0:0:
78,2,38890,1,2,2:3:0:0:
94,15,39025,1,2,2:3:0:0:
0,79,39160,5,2,2:3:0:0:
103,33,39566,1,2,2:2:0:0:
155,91,39971,1,2,2:3:0:0:
57,297,40377,6,1,P|33:281|13:241,2,59.99999999999987,2|2|2,2:2|2:2|2:3,0:0:0:0:
64,316,40985,1,1,0:0:0:0:
125,250,41187,6,1,P|142:209|182:189,1,89.99999999999982,2|0,2:2|0:0,0:0:0:0:
178,202,41593,2,1,B|385:245|385:245|408:226,1,239.99999999999952,2|2,2:3|2:3,0:0:0:0:
321,260,42809,6,1,P|350:312|363:378,1,119.99999999999976,2|2,2:2|2:3,0:0:0:0:
433,87,44025,1,2,2:3:0:0:
512,41,44296,5,1,0:0:0:0:
421,80,44431,2,1,P|403:142|392:167,1,79.99999999999983,2|0,2:2|0:0,0:0:0:0:
489,135,44836,2,1,B|495:112|495:112|435:-2,1,152.59519196951473,2|0,2:3|0:0,0:0:0:0:
423,3,45241,1,1,0:0:0:0:
410,7,45377,5,1,0:0:0:0:
398,13,45512,1,2,2:2:0:0:
391,164,45647,6,1,P|357:184|337:217,1,80.00000000000003,2|2,1:2|2:2,0:0:0:0:
404,145,45917,1,2,2:2:0:0:
246,213,46052,2,1,B|266:276|266:276|303:296,1,80.00000000000003,10|2,2:2|2:2,0:0:0:0:
437,381,46323,5,10,2:2:0:0:
457,376,46458,1,2,1:2:0:0:
468,361,46593,1,2,2:2:0:0:
470,342,46728,1,2,2:2:0:0:
476,384,46863,6,1,P|409:350|336:333,1,133.33333333333331,10|2,2:2|2:2,0:0:0:0:
365,357,47269,2,1,L|293:375,1,66.66666666666666,2|2,2:3|2:2,0:0:0:0:
421,275,47539,5,2,2:2:0:0:
359,226,47674,1,2,2:2:0:0:
350,147,47809,1,2,2:2:0:0:
398,79,47944,5,2,2:2:0:0:
246,23,48079,2,1,B|230:14|230:14|134:50|134:50|130:87|130:87|175:108,1,199.9999999999999,2|2,2:3|2:2,0:0:0:0:
249,3,48485,5,2,2:2:0:0:
172,122,48890,2,1,P|201:148|222:182,1,80.00000000000003,2|2,1:2|2:2,0:0:0:0:
169,105,49160,5,2,2:2:0:0:
12,166,49296,2,1,B|30:160|30:160|95:183,1,80.00000000000003,10|2,2:2|2:2,0:0:0:0:
256,80,49566,5,10,2:2:0:0:
93,212,49701,2,1,L|34:243,2,66.66666666666666,2|2|2,1:2|2:2|2:2,0:0:0:0:
117,332,50106,6,1,P|201:265|163:225,1,186.6666666666667,10|2,2:2|2:2,0:0:0:0:
0,383,50512,2,1,P|136:289|293:233,1,333.3333333333333,2|0,2:2|0:0,0:0:0:0:
169,227,51323,2,1,B|283:296|283:296|232:145,1,280,2|0,2:2|0:0,0:0:0:0:
302,71,52133,6,1,B|402:22|402:22|331:189,1,250,2|0,2:2|0:0,0:0:0:0:
253,8,52741,2,1,L|301:28,1,40,2|0,2:2|0:0,0:0:0:0:
236,156,52944,6,1,P|385:90|505:72,1,250,2|0,2:2|0:0,0:0:0:0:
485,91,53552,1,2,2:2:0:0:
402,0,53755,1,2,2:2:0:0:
485,109,54160,5,2,2:2:0:0:
394,171,54363,1,2,2:2:0:0:
301,81,54566,2,1,P|266:31|211:29,1,120.00000000000001,2|0,2:2|0:0,0:0:0:0:
126,75,54971,2,1,P|66:39|0:23,1,120,2|0,2:2|0:0,0:0:0:0:
0,100,55377,6,1,B|128:26|128:26|37:199,1,330,2|2,2:2|2:2,0:0:0:0:
107,257,56187,2,1,B|197:302|197:302|137:140,1,240.00000000000003,2|0,2:2|0:0,0:0:0:0:
62,321,56796,6,1,L|75:267,1,50,2|0,2:2|0:0,0:0:0:0:
124,384,56998,2,1,P|164:309|280:219,1,180.00000000000003,2|0,2:2|0:0,0:0:0:0:
359,246,57404,2,1,B|351:278|351:278|270:309|270:309|205:264,1,180.00000000000003,2|0,2:2|0:0,0:0:0:0:
232,244,57809,5,2,2:2:0:0:
288,331,58012,1,2,2:2:0:0:
512,124,58214,6,1,B|451:105|451:105|477:137,1,89.99999999999982,2|0,2:2|0:0,0:0:0:0:
468,220,58620,2,1,B|384:34|384:34|397:-6,2,240.00000000000003,2|2|2,1:2|2:2|2:2,0:0:0:0:
512,308,59836,6,1,P|386:221|238:189,1,300.00000000000006,2|0,2:2|0:0,0:0:0:0:
467,220,60444,2,1,P|398:221|383:272,1,125,2|0,2:2|0:0,0:0:0:0:
512,308,61052,6,1,B|392:282|392:282|354:300,2,150,2|2|2,2:2|2:2|2:2,0:0:0:0:
244,189,62674,5,2,2:2:0:0:
114,0,63079,1,2,2:2:0:0:
284,276,63383,5,1,0:0:0:0:
288,286,63484,2,1,P|181:257|139:126,1,240,6|2,1:2|2:2,0:0:0:0:
18,170,64701,6,1,P|58:43|219:70,1,300.00000000000006,2|0,1:2|0:0,0:0:0:0:
210,88,65309,2,1,L|181:81,1,29.999999999999932,2|0,2:2|0:0,0:0:0:0:
135,145,65511,2,1,B|146:51|222:17|222:17|274:26,1,180.00000000000003,2|0,2:3|0:0,0:0:0:0:
290,175,65917,6,1,B|501:119|501:119|524:51,1,250,2|0,1:2|0:0,0:0:0:0:
512,198,66525,2,1,B|496:213|496:213|421:197|399:119,1,160,2|2,2:2|2:2,0:0:0:0:
96,45,67133,6,1,P|62:13|5:0,2,100,2|2|2,1:2|2:2|1:2,0:0:0:0:
12,86,68349,2,1,B|21:108|49:126|49:126|23:55|63:6,1,179.99999999999966,2|0,1:2|0:0,0:0:0:0:
259,259,70579,6,1,L|271:308,1,50.447993022518546,0|0,0:0|0:0,0:0:0:0:
169,268,70782,2,1,B|197:195|290:206|290:206|276:243,1,180.00000000000003,10|0,1:2|0:0,0:0:0:0:
341,368,71187,6,1,P|210:318|71:315,1,280.00000000000006,10|10,2:2|1:2,0:0:0:0:
236,303,71727,1,2,2:2:0:0:
317,252,71863,1,2,2:2:0:0:
356,167,71998,1,10,2:2:0:0:
334,53,72133,5,10,2:2:0:0:
384,132,72268,1,10,2:2:0:0:
262,0,72403,6,1,P|392:71|479:193,1,299.99999999999983,10|10,1:2|2:2,0:0:0:0:
496,187,73079,2,1,L|480:263,2,66.66666666666666,10|10|10,2:2|1:2|2:2,0:0:0:0:
493,272,73484,5,2,2:2:0:0:
341,49,73619,2,1,B|282:66|282:66|248:50,1,80.00000000000003,10|2,2:2|2:2,0:0:0:0:
356,23,73890,5,10,2:2:0:0:
511,0,74025,2,1,P|421:106|368:234,2,280.00000000000006,10|10|10,1:2|2:2|1:2,0:0:0:0:
497,76,74971,5,2,2:2:0:0:
472,0,75106,1,10,2:2:0:0:
438,130,75241,1,10,2:2:0:0:
380,0,75376,6,1,B|299:29|299:29|291:51,1,106.66666666666666,10|10,2:2|2:2,0:0:0:0:
495,272,75646,1,10,1:2:0:0:
434,216,75782,5,8,2:2:0:0:
511,222,75917,1,8,2:2:0:0:
421,229,76052,6,1,P|351:190|273:168,1,160.00000000000006,10|10,2:2|2:2,0:0:0:0:
173,192,76457,2,1,B|276:258|276:258|217:67,1,299.99999999999983,10|10,1:2|2:2,0:0:0:0:
210,96,76998,2,1,L|238:2,1,66.66666666666666,0|8,0:0|2:2,0:0:0:0:
130,124,77268,5,10,1:2:0:0:
70,57,77403,1,2,2:2:0:0:
149,0,77538,1,2,2:2:0:0:
273,168,77673,6,1,P|173:103|57:80,2,240.00000000000003,10|10|10,2:2|1:2|2:2,0:0:0:0:
258,180,78619,1,10,2:2:0:0:
287,252,78754,1,10,2:2:0:0:
337,357,78890,6,1,P|383:329|321:348,1,199.9999999999999,10|2,1:2|2:2,0:0:0:0:
235,384,79295,2,1,P|377:325|472:324,2,240.00000000000003,10|10|10,2:2|1:2|2:2,0:0:0:0:
388,356,80376,5,10,2:2:0:0:
512,241,80511,2,1,B|377:182|377:182|454:335,1,240,10|0,1:2|0:0,0:0:0:0:
333,295,80917,6,1,B|226:358|226:358|296:194,2,280.00000000000006,10|10|10,2:2|1:2|2:2,0:0:0:0:
309,219,81863,1,10,2:2:0:0:
222,154,81998,1,10,2:2:0:0:
103,113,82133,5,10,1:2:0:0:
185,83,82268,1,10,2:2:0:0:
106,143,82403,1,10,2:2:0:0:
0,91,82538,6,1,B|120:31|120:31|39:229,2,320,10|10|10,2:2|1:2|2:2,0:0:0:0:
30,208,83619,1,10,2:2:0:0:
219,143,83754,2,1,B|283:109|283:109|308:116,2,93.33333333333336,2|2|10,1:2|2:2|2:2,0:0:0:0:
22,228,84160,2,1,P|124:278|213:396,1,199.9999999999999,10|10,2:2|2:2,0:0:0:0:
16,242,84565,6,1,B|207:198|207:198|239:132,1,226.66666666666666,2|10,1:2|2:2,0:0:0:0:
238,0,84971,2,1,P|358:111|308:197,1,239.99999999999974,10|10,2:2|2:2,0:0:0:0:
440,5,85376,2,1,P|418:56|347:78,1,99.99999999999994,2|2,1:2|2:2,0:0:0:0:
219,89,85646,5,10,2:2:0:0:
378,34,85781,2,1,B|449:56|449:56|465:90,2,93.33333333333336,10|10|10,2:2|2:2|2:2,0:0:0:0:
50,74,86187,6,1,P|99:70|134:35,1,99.99999999999994,2|2,1:2|2:2,0:0:0:0:
224,109,86457,5,10,2:2:0:0:
129,72,86592,2,1,B|67:17|67:17|59:-22,2,99.99999999999994,10|2|10,2:2|2:2|2:2,0:0:0:0:
399,196,86998,6,1,P|478:276|512:384,1,226.66666666666666,2|10,1:2|2:2,0:0:0:0:
451,334,87403,2,1,B|472:243|472:243|521:216,2,113.33333333333333,10|10|10,2:2|2:2|2:2,0:0:0:0:
365,384,87809,6,1,P|319:302|371:231,1,106.66666666666666,2|2,1:2|2:2,0:0:0:0:
498,252,88079,1,10,2:2:0:0:
304,310,88214,6,1,P|263:286|218:274,2,93.33333333333336,10|2|10,2:2|2:2|2:2,0:0:0:0:
0,153,88619,2,1,B|97:120|97:120|36:246,1,226.66666666666666,2|10,1:2|2:2,0:0:0:0:
48,322,89025,2,1,P|27:276|25:227,1,99.99999999999994,10|10,2:2|2:2,0:0:0:0:
39,339,89295,5,10,2:2:0:0:
114,271,89430,1,10,1:2:0:0:
222,198,89565,1,10,1:2:0:0:
383,144,89700,1,10,1:2:0:0:
33,354,89836,6,1,L|26:314,1,40,10|6,1:2|2:2,0:0:0:0:
421,98,90917,2,1,L|433:123,1,26.666666666666668,2|0,2:2|0:0,0:0:0:0:
512,83,91052,6,1,B|272:40|272:40|249:-4,1,270.0000000000002,2|0,2:2|0:0,0:0:0:0:
329,88,91863,2,1,P|299:138|241:147,2,120.00000000000047,2|2|2,2:2|2:2|2:2,0:0:0:0:
151,126,93079,6,1,P|197:137|232:163,1,90.00000000000037,2|0,2:2|0:0,0:0:0:0:
306,0,93484,2,1,P|366:110|372:195,2,200.00000000000014,2|2|2,2:2|2:2|2:2,0:0:0:0:
487,384,94700,2,1,P|518:353|511:310,1,89.99999999999982,2|0,2:2|0:0,0:0:0:0:
475,235,95106,6,1,B|242:168|242:168|232:131,1,280.7692813737249,2|2,2:2|2:2,0:0:0:0:
404,172,95917,2,1,P|324:188|272:245,1,150,2|0,2:2|0:0,0:0:0:0:
204,204,96727,2,1,P|159:254|167:322,1,139.99999999999986,2|2,2:2|2:2,0:0:0:0:
181,329,97403,5,2,2:2:0:0:
133,246,97538,2,1,B|68:270|68:270|60:291,2,86.66666666666666,2|2|2,2:2|2:2|2:2,0:0:0:0:
18,384,97944,6,1,P|37:303|79:233,1,165.47210063158315,2|0,2:2|0:0,0:0:0:0:
0,177,98349,2,1,P|56:95|119:112,2,160,2|2|2,2:2|2:2|2:2,0:0:0:0:
105,119,99565,2,1,B|197:93|197:93|216:66,1,120,2|0,2:2|0:0,0:0:0:0:
270,20,99971,6,1,P|317:29|345:69,2,100,2|2|2,2:2|2:2|2:2,0:0:0:0:
333,84,100917,1,1,0:0:0:0:
371,149,101052,1,2,2:2:0:0:
446,163,101187,5,2,2:2:0:0:
436,152,101322,1,2,2:2:0:0:
418,146,101457,1,2,2:2:0:0:
350,346,101592,6,1,P|437:194|516:117,1,266.6666666666667,2|2,2:2|2:2,0:0:0:0:
501,102,102403,2,1,B|481:116|481:116|461:204,1,100,2|2,2:2|2:2,0:0:0:0:
478,203,103011,5,2,2:2:0:0:
346,356,103214,2,1,P|284:301|325:255,1,139.99999999999986,2|2,2:2|2:2,0:0:0:0:
333,258,103754,1,2,2:2:0:0:
354,226,103890,1,2,2:2:0:0:
161,313,104025,6,1,B|183:302|183:302|354:340,1,200,2|2,2:2|2:2,0:0:0:0:
169,327,104700,5,2,2:2:0:0:
229,268,104836,2,1,P|223:228|207:192,2,80.00000000000003,2|2|2,2:2|2:2|2:2,0:0:0:0:
236,109,105241,2,1,P|282:109|314:141,1,93.33333333333336,2|2,2:2|2:2,0:0:0:0:
188,190,105511,5,2,2:2:0:0:
140,65,105646,2,1,B|116:-6|116:-6|157:73,1,160,2|2,2:2|2:2,0:0:0:0:
66,117,106322,5,2,2:2:0:0:
0,74,106457,2,1,P|157:133|201:230,1,240.00000000000003,2|2,2:2|2:2,0:0:0:0:
385,58,107268,2,1,P|458:37|518:7,1,133.33333333333331,2|2,2:2|2:2,0:0:0:0:
512,48,107673,6,1,B|493:65|493:65|364:29,1,140.00000000000003,2|2,2:2|2:2,0:0:0:0:
190,188,108079,2,1,P|134:201|97:254,1,106.66666666666666,10|6,1:3|2:3,0:0:0:0:
301,7,108349,5,6,2:3:0:0:
202,209,108484,2,1,B|209:190|209:190|186:121,2,93.33333333333336,10|6|6,1:3|2:3|2:3,0:0:0:0:
18,306,108890,2,1,P|82:322|140:355,1,133.33333333333331,10|2,1:3|2:2,0:0:0:0:
5,322,109160,5,10,1:3:0:0:
307,118,109295,2,1,L|301:152,1,26.666666666666668,10|0,1:3|0:0,0:0:0:0:
512,260,109700,6,1,P|442:242|385:197,1,146.6666666666665,14|6,1:2|2:3,0:0:0:0:
194,24,109971,1,6,2:3:0:0:
400,183,110106,6,1,B|426:196|426:196|454:289,2,126.6666666666667,10|6|6,1:3|2:3|2:3,0:0:0:0:
405,317,110511,2,1,P|461:345|512:384,1,126.6666666666667,10|6,1:3|2:3,0:0:0:0:
384,327,110781,5,6,2:3:0:0:
223,203,110917,2,1,B|241:169|241:169|485:121,1,266.66666666666663,10|6,1:3|2:3,0:0:0:0:
280,128,111322,6,1,P|243:73|173:87,1,146.6666666666665,10|6,1:3|2:3,0:0:0:0:
242,216,111592,1,6,2:3:0:0:
234,87,111727,6,1,B|188:2|188:2|157:-2,2,119.99999999999987,10|6|6,1:3|2:3|2:3,0:0:0:0:
126,286,112133,2,1,P|61:303|0:331,1,133.33333333333331,10|6,1:3|2:3,0:0:0:0:
135,301,112403,5,6,2:3:0:0:
65,153,112538,2,1,P|190:179|199:338,1,293.333333333333,10|6,1:3|2:3,0:0:0:0:
7,384,112944,6,1,P|115:254|309:191,1,333.33333333333326,10|6,1:3|2:3,0:0:0:0:
207,19,113349,2,1,B|310:-5|310:-5|232:118,1,239.99999999999974,10|6,1:3|2:3,0:0:0:0:
101,12,113754,6,1,P|227:50|378:233,1,266.66666666666663,10|6,1:3|2:3,0:0:0:0:
436,350,114160,2,1,P|372:298|406:225,1,120.0000000000001,10|6,1:3|2:3,0:0:0:0:
512,287,114565,6,1,B|409:330|409:330|405:358,2,140.00000000000006,10|6|6,1:3|2:3|2:3,0:0:0:0:
188,262,114971,2,1,P|244:282|291:318,1,119.99999999999987,10|6,1:3|2:3,0:0:0:0:
172,280,115241,5,6,2:3:0:0:
341,20,115376,2,1,B|384:129|384:129|346:200,2,146.6666666666665,10|6|6,1:3|2:3|2:3,0:0:0:0:
349,0,115781,5,10,1:2:0:0:
272,77,115917,1,10,2:2:0:0:
464,23,116052,1,10,2:2:0:0:
256,97,116187,6,1,P|200:80|105:38,1,146.6666666666665,14|6,1:2|2:3,0:0:0:0:
0,263,116457,1,6,2:3:0:0:
370,155,116592,6,1,B|397:252|397:252|371:296,2,126.6666666666667,10|6|6,1:3|2:3|2:3,0:0:0:0:
346,281,116998,2,1,P|381:203|428:141,1,146.6666666666665,10|6,1:3|2:3,0:0:0:0:
406,349,117268,5,6,2:3:0:0:
0,46,117403,2,1,B|19:31|19:31|124:64|124:64|128:115|128:115|82:143,1,239.99999999999974,10|6,1:3|2:3,0:0:0:0:
107,141,117809,6,1,P|85:71|36:17,1,146.6666666666665,10|6,1:3|2:3,0:0:0:0:
43,219,118079,5,6,2:3:0:0:
186,34,118214,2,1,B|278:-7|278:-7|339:16,2,119.99999999999987,10|6|6,1:3|2:3|2:3,0:0:0:0:
31,205,118619,5,10,1:3:0:0:
165,253,118754,1,2,2:2:0:0:
262,363,118890,1,6,2:3:0:0:
406,100,119025,6,1,B|246:33|246:33|324:183,1,293.333333333333,10|6,1:3|2:3,0:0:0:0:
497,46,119430,2,1,L|368:67,1,126.6666666666667,14|2,1:2|2:2,0:0:0:0:
512,13,119700,5,6,2:3:0:0:
278,125,119836,2,1,B|270:154|270:154|343:245,1,146.6666666666665,10|2,1:3|2:2,0:0:0:0:
362,245,120106,1,6,2:3:0:0:
61,227,120241,6,1,P|23:273|0:328,2,119.99999999999987,10|2|6,1:3|2:2|2:3,0:0:0:0:
4,235,120646,2,1,B|48:344|48:344|2:161,1,266.66666666666663,10|6,1:3|2:3,0:0:0:0:
78,84,121052,5,10,1:3:0:0:
160,26,121187,1,6,2:3:0:0:
30,68,121322,1,6,2:3:0:0:
211,49,121457,5,10,1:3:0:0:
262,140,121592,1,6,2:3:0:0:
147,305,121727,1,6,2:3:0:0:
147,305,121795,1,1,0:0:0:0:
147,305,121863,1,10,1:3:0:0:
128,216,121998,5,6,2:3:0:0:
172,123,122133,1,6,2:3:0:0:
261,32,122268,1,10,1:2:0:0:
422,0,122403,1,14,2:2:0:0:
295,108,122538,5,14,2:2:0:0:
504,161,122673,6,1,P|364:115|272:0,1,299.99999999999983,6|2,1:2|2:3,0:0:0:0:
512,143,123484,2,1,B|381:167|381:167|364:205,1,150,10|0,2:2|0:0,0:0:0:0:
386,200,123890,1,2,2:3:0:0:
390,24,124092,6,1,L|371:81,1,60.00000000000001,2|0,1:2|0:0,0:0:0:0:
345,267,124295,2,1,B|464:330|464:330|413:193,2,280.00000000000006,2|2|10,1:3|2:3|2:2,0:0:0:0:
63,272,125511,2,1,P|116:254|145:302,1,120.00000000000001,2|0,1:3|0:0,0:0:0:0:
2,383,125917,6,1,P|64:306|154:263,2,200,6|2|10,1:2|2:3|2:2,0:0:0:0:
228,302,127133,2,1,B|277:188|277:188|260:141,1,160,2|2,2:3|1:2,0:0:0:0:
328,106,127538,2,1,P|330:61|265:36,2,100,2|2|2,1:3|2:2|2:3,0:0:0:0:
275,43,128146,5,0,1:1:0:0:
511,22,128349,2,1,B|494:42|494:42|204:86,1,320,10|2,2:2|1:3,0:0:0:0:
194,72,128957,1,1,0:0:0:0:
104,247,129160,6,1,B|105:184|34:172|34:172|79:197|65:269,1,180.00000000000003,6|0,1:2|0:0,0:0:0:0:
0,303,129565,2,1,P|103:215|123:163,1,160.00000000000006,2|0,2:3|0:0,0:0:0:0:
170,91,129971,6,1,B|77:79|126:30|81:-5|20:0,1,179.9999999999999,10|0,2:2|0:0,0:0:0:0:
13,74,130241,2,1,B|181:12|181:12|109:152,1,293.333333333333,2|0,2:2|0:0,0:0:0:0:
199,173,130579,6,1,B|262:216|262:216|201:103,1,179.9999999999999,2|2,1:2|1:3,0:0:0:0:
101,122,130984,1,2,2:2:0:0:
343,228,131187,2,1,P|288:251|247:294,1,120.00000000000001,2|0,2:3|1:1,0:0:0:0:
232,280,131592,6,1,B|318:251|318:251|362:277,1,120,10|0,2:2|0:0,0:0:0:0:
371,342,131998,2,1,P|462:336|440:210,1,210.00000000000003,2|0,1:3|0:0,0:0:0:0:
498,369,132403,6,1,P|451:240|371:165,1,249.28173440297363,6|2,1:2|2:2,0:0:0:0:
322,98,132809,2,1,B|392:67|392:67|426:80,2,100,2|0|10,2:3|0:0|2:2,0:0:0:0:
364,175,133417,5,1,0:0:0:0:
512,140,133619,2,1,P|351:83|277:71,1,246.22742742312062,2|2,2:3|2:2,0:0:0:0:
176,50,134025,2,1,B|267:120|267:120|225:-30,1,240.00000000000003,2|2,1:3|2:3,0:0:0:0:
162,31,134633,6,1,L|151:77,1,33.33333333333333,0|2,1:1|2:2,0:0:0:0:
320,0,134836,1,10,2:2:0:0:
105,104,135038,5,1,0:0:0:0:
16,269,135241,2,1,P|56:201|8:264,1,240.00000000000003,2|14,1:3|1:2,0:0:0:0:
137,332,135781,5,6,2:3:0:0:
96,306,135917,1,6,2:3:0:0:
53,352,136052,5,10,1:3:0:0:
147,309,136187,1,6,2:3:0:0:
238,266,136322,1,6,2:3:0:0:
38,364,136457,6,1,L|0:354,2,39.999999999999915,10|6|6,1:3|2:3|2:3,0:0:0:0:
486,384,136863,2,1,P|490:334|389:311,1,174.91451922538945,10|6,1:3|2:3,0:0:0:0:
384,321,137268,6,1,B|311:302|311:302|288:261,2,93.33333333333336,10|6|6,1:3|2:3|2:3,0:0:0:0:
233,351,137673,2,1,P|211:318|198:281,1,80.00000000000003,10|6,1:3|2:3,0:0:0:0:
225,375,137944,5,6,2:3:0:0:
124,225,138079,2,1,P|159:139|249:166,1,204.8072101151204,10|6,1:3|2:3,0:0:0:0:
240,170,138484,6,1,B|148:145|148:145|125:103,1,143.2215266169741,10|6,1:3|2:3,0:0:0:0:
212,0,138890,2,1,P|288:12|303:128,1,200,2|2,2:3|2:3,0:0:0:0:
413,51,139565,5,2,2:3:0:0:
411,128,139700,2,1,B|451:44|451:44|430:0,1,119.99999999999976,2|2,2:3|2:3,0:0:0:0:
395,147,140376,5,10,2:2:0:0:
494,128,140511,1,2,2:3:0:0:
480,148,140646,5,2,2:2:0:0:
410,178,140781,1,2,2:3:0:0:
308,165,140917,1,2,2:3:0:0:
226,102,141052,1,2,2:2:0:0:
183,1,141187,1,2,2:3:0:0:
120,52,141322,6,1,L|170:37,1,40.000000000000036,2|2,2:3|2:3,0:0:0:0:
41,49,141727,2,1,B|146:85|146:85|80:46,1,186.6666666666667,10|2,2:2|2:2,0:0:0:0:
225,297,142133,6,1,P|179:239|155:170,2,146.6666666666665,14|6|6,1:2|2:3|2:3,0:0:0:0:
178,151,142538,1,10,1:3:0:0:
86,238,142673,1,6,2:3:0:0:
0,193,142809,1,6,2:3:0:0:
253,185,142944,6,1,B|347:161|347:161|365:123,1,126.6666666666667,10|6,1:3|2:3,0:0:0:0:
222,151,143214,1,6,2:3:0:0:
495,255,143349,6,1,P|411:115|253:25,1,266.66666666666663,10|6,1:3|2:3,0:0:0:0:
321,70,143754,2,1,B|336:92|336:92|447:113,1,119.99999999999987,10|6,1:3|2:3,0:0:0:0:
479,24,144025,5,6,2:3:0:0:
298,184,144160,2,1,P|224:253|181:321,2,146.6666666666665,10|6|6,1:3|2:3|2:3,0:0:0:0:
234,303,144565,5,10,1:3:0:0:
212,212,144700,1,6,2:3:0:0:
135,111,144836,1,6,2:3:0:0:
0,29,144971,6,1,B|215:74|215:74|271:34,1,253.33333333333337,10|10,1:2|2:2,0:0:0:0:
249,37,145376,2,1,P|180:50|160:117,1,146.6666666666665,10|2,1:3|2:2,0:0:0:0:
329,277,145646,1,6,2:3:0:0:
15,209,145781,6,1,B|39:223|39:223|131:190,2,126.6666666666667,10|2|6,2:2|2:2|2:3,0:0:0:0:
0,186,146187,6,1,P|157:239|291:351,1,293.333333333333,10|6,1:3|2:3,0:0:0:0:
384,376,146592,2,1,B|401:334|401:334|333:248|333:248|241:280,1,239.99999999999974,10|2,2:2|2:2,0:0:0:0:
211,384,146998,2,1,P|374:276|530:262,1,266.66666666666663,10|6,1:3|2:3,0:0:0:0:
476,21,147403,6,1,B|371:-11|371:-11|470:156,1,226.66666666666666,10|6,1:3|2:3,0:0:0:0:
511,38,147809,2,1,P|382:67|293:187,1,266.66666666666663,10|6,1:3|2:3,0:0:0:0:
100,0,148214,6,1,B|128:7|128:7|163:105,1,133.33333333333331,10|10,1:3|2:2,0:0:0:0:
43,297,148619,1,6,1:2:0:0:
256,192,148754,12,2,150106,2:2:0:0:
240,384,150241,6,1,B|282:235|282:235|324:216,1,186.6666666666667,6|2,1:2|2:2,0:0:0:0:
238,293,150646,2,1,B|242:263|242:263|182:122,1,133.33333333333331,2|2,2:3|2:2,0:0:0:0:
447,384,151052,6,1,P|399:332|272:319,1,160,2|2,2:3|2:3,0:0:0:0:
77,162,151863,2,1,P|49:137|6:128,2,80.00000000000003,14|6|6,1:2|2:3|2:3,0:0:0:0:
0,0,152268,6,1,B|18:4|18:4|46:41,1,66.66666666666666,10|6,1:3|2:3,0:0:0:0:
159,56,152538,1,6,2:3:0:0:
21,167,152673,6,1,P|71:96|138:42,1,173.33333333333337,10|6,1:3|2:3,0:0:0:0:
0,250,153079,2,1,P|76:271|109:199,1,173.33333333333337,10|6,1:3|2:3,0:0:0:0:
7,242,153484,6,1,B|217:285|217:285|248:338,2,240.00000000000003,14|10|10,1:2|1:3|1:3,0:0:0:0:
13,260,154430,1,6,2:3:0:0:
80,306,154565,1,6,2:3:0:0:
179,304,154700,1,10,1:3:0:0:
290,228,154836,1,6,2:3:0:0:
383,94,154971,1,6,2:3:0:0:
370,14,155106,6,1,L|332:0,1,40.000000000000036,10|0,1:3|0:0,0:0:0:0:
403,4,155511,1,2,1:2:0:0:
460,176,155781,5,6,2:3:0:0:
460,176,155849,1,1,0:0:0:0:
460,176,155917,2,1,B|441:97|441:97|418:82,1,100,14|0,2:2|0:0,0:0:0:0:
