osu file format v14

[General]
AudioFilename: audio.mp3
AudioLeadIn: 0
PreviewTime: 109607
Countdown: 0
SampleSet: Soft
StackLeniency: 0.7
Mode: 0
LetterboxInBreaks: 0
WidescreenStoryboard: 0

[Editor]
Bookmarks: 6635,13121,26094,32581,39067,45554,52040,58527,70689,77175,83661,91770,109607,116094,122580,135553,142040,145283,148526
DistanceSpacing: 2
BeatDivisor: 6
GridSize: 32
TimelineZoom: 2.599998

[Metadata]
Title:Cerebrite
TitleUnicode:Cerebrite
Artist:Mili
ArtistUnicode:Mili
Creator:Iceluin
Version:Expert
Source:DEEMO
Tags:featured artist fa mappers' guild miracle milk english rock projectmili video game momocashew cassie wei yamato kasai hamo project pop
BeatmapID:3982570
BeatmapSetID:1928448

[Difficulty]
HPDrainRate:6
CircleSize:4.2
OverallDifficulty:8.5
ApproachRate:9.2
SliderMultiplier:2
SliderTickRate:1

[Events]
//Background and Video events
0,0,"bg.jpg",0,0
//Break Periods
2,59943,62686
//Storyboard Layer 0 (Background)
//Storyboard Layer 1 (Fail)
//Storyboard Layer 2 (Pass)
//Storyboard Layer 3 (Foreground)
//Storyboard Layer 4 (Overlay)
//Storyboard Sound Samples

[TimingPoints]
149,405.405405405405,4,2,1,40,1,0
149,-200,4,2,1,40,0,0
3392,-153.846153846153,4,2,1,40,0,0
6635,-80,4,2,1,75,0,0
9878,-60.6060606060606,4,2,1,75,0,0
10284,-153.846153846153,4,2,1,75,0,0
10689,-60.6060606060606,4,2,1,75,0,0
11094,-153.846153846153,4,2,1,75,0,0
11500,-80,4,2,1,75,0,0
12716,-60.6060606060606,4,2,1,75,0,0
13121,-111.111111111111,4,2,1,65,0,0
13932,-66.6666666666667,4,2,1,65,0,0
14540,-111.111111111111,4,2,1,65,0,0
15554,-66.6666666666667,4,2,1,65,0,0
15959,-222.222222222223,4,2,1,65,0,0
16365,-111.111111111111,4,2,1,65,0,0
17176,-66.6666666666667,4,2,1,65,0,0
17581,-111.111111111111,4,2,1,65,0,0
18392,-222.222222222222,4,2,1,65,0,0
18797,-66.6666666666667,4,2,1,65,0,0
19608,-111.111111111111,4,2,1,65,0,0
20013,-222.222222222222,4,2,1,65,0,0
20689,-66.6666666666667,4,2,1,65,0,0
20959,-66.6666666666667,4,2,1,65,0,0
21027,-66.6666666666667,4,2,1,65,0,0
21162,-66.6666666666667,4,2,1,65,0,0
21230,-66.6666666666667,4,2,1,65,0,0
21635,-222.222222222222,4,2,1,65,0,0
22040,-66.6666666666667,4,2,1,65,0,0
22446,-222.222222222222,4,2,1,65,0,0
22851,-111.111111111111,4,2,1,65,0,0
23662,-66.6666666666667,4,2,1,65,0,0
24067,-222.222222222222,4,2,1,65,0,0
24473,-111.111111111111,4,2,1,65,0,0
25284,-66.6666666666667,4,2,1,65,0,0
25689,-111.111111111111,4,2,1,65,0,0
26094,-200,4,2,1,50,0,0
30959,-285.714285714286,4,2,1,50,0,0
32581,-166.666666666667,4,2,1,40,0,0
39067,-250.000000000001,4,2,1,30,0,0
42378,-250.000000000001,4,2,1,5,0,0
42716,-250.000000000001,4,2,1,30,0,0
43189,-250.000000000001,4,2,1,5,0,0
43932,-250.000000000001,4,2,1,30,0,0
44000,-250.000000000001,4,2,1,5,0,0
44135,-250.000000000001,4,2,1,30,0,0
44811,-250.000000000001,4,2,1,5,0,0
45148,-250.000000000001,4,2,1,30,0,0
45554,-133.333333333333,4,2,1,40,0,0
49743,-133.333333333333,4,2,1,5,0,0
49811,-133.333333333333,4,2,1,40,0,0
49946,-133.333333333333,4,2,1,5,0,0
50013,-133.333333333333,4,2,1,40,0,0
52040,-166.666666666666,4,2,1,50,0,0
58527,405.405405405405,3,2,1,50,1,0
58527,-166.666666666667,3,2,1,50,0,0
59743,-250,3,2,1,15,0,0
63256,-250,3,2,1,40,0,0
69067,-166.666666666667,3,2,1,40,0,0
69472,-125,3,2,1,40,0,0
69878,-100,3,2,1,40,0,0
70283,-83.3333333333333,3,2,1,40,0,0
70689,405.405405405405,4,2,1,40,1,0
70689,-166.666666666667,4,2,1,40,0,0
77175,-166.666666666667,4,2,1,50,0,0
80418,-151.515151515152,4,2,1,50,0,0
80824,-138.888888888889,4,2,1,50,0,0
81229,-128.205128205128,4,2,1,50,0,0
81634,-119.047619047619,4,2,1,50,0,0
82040,-111.111111111111,4,2,1,50,0,0
82445,-104.166666666667,4,2,1,50,0,0
82851,-98.0392156862745,4,2,1,50,0,0
83256,-92.5925925925926,4,2,1,50,0,0
83661,-71.4285714285714,4,2,1,60,0,0
84067,-111.111111111111,4,2,1,60,0,0
85283,-71.4285714285714,4,2,1,60,0,0
85689,-111.111111111111,4,2,1,60,0,0
86905,-71.4285714285714,4,2,1,60,0,0
87310,-249.999999999999,4,2,1,60,0,0
87716,-111.111111111111,4,2,1,60,0,0
88121,-166.666666666666,4,2,1,60,0,0
88526,-71.4285714285714,4,2,1,60,0,0
88932,-83.3333333333333,4,2,1,60,0,0
89743,-62.5,4,2,1,60,0,0
90148,-133.333333333333,4,2,1,60,0,0
90959,-153.846153846154,4,2,1,60,0,0
91634,-153.846153846154,4,2,1,15,0,0
91770,-250,4,2,1,30,0,0
93256,-250,4,2,1,15,0,0
93391,-250,4,2,1,30,0,0
94878,-250,4,2,1,15,0,0
95013,-250,4,2,1,30,0,0
101499,-250,4,2,1,30,0,0
103121,-200,4,2,1,30,0,0
104743,-166.666666666667,4,2,1,30,0,0
106364,-142.857142857143,4,2,1,30,0,0
107986,-142.857142857143,4,2,1,50,0,0
109607,-80,4,2,1,75,0,0
112851,-60.6060606060606,4,2,1,75,0,0
113256,-153.846153846153,4,2,1,75,0,0
113661,-60.6060606060606,4,2,1,75,0,0
114066,-153.846153846153,4,2,1,75,0,0
114472,-80,4,2,1,75,0,0
116094,-71.4285714285714,4,2,1,75,0,0
119337,-60.6060606060606,4,2,1,75,0,0
119743,-153.846153846153,4,2,1,75,0,0
120148,-60.6060606060606,4,2,1,75,0,0
120553,-153.846153846153,4,2,1,75,0,0
120959,-71.4285714285714,4,2,1,75,0,0
122580,-111.111111111111,4,2,1,65,0,0
123391,-66.6666666666667,4,2,1,65,0,0
123999,-111.111111111111,4,2,1,65,0,0
125013,-66.6666666666667,4,2,1,65,0,0
125418,-222.222222222223,4,2,1,65,0,0
125824,-111.111111111111,4,2,1,65,0,0
126635,-66.6666666666667,4,2,1,65,0,0
127040,-111.111111111111,4,2,1,65,0,0
127851,-222.222222222222,4,2,1,65,0,0
128256,-66.6666666666667,4,2,1,65,0,0
128661,-222.222222222222,4,2,1,65,0,0
129067,-111.111111111111,4,2,1,65,0,0
129472,-222.222222222222,4,2,1,65,0,0
130148,-66.6666666666667,4,2,1,65,0,0
130418,-66.6666666666667,4,2,1,65,0,0
130486,-66.6666666666667,4,2,1,65,0,0
130621,-66.6666666666667,4,2,1,65,0,0
130689,-66.6666666666667,4,2,1,65,0,0
131094,-222.222222222222,4,2,1,65,0,0
131499,-66.6666666666667,4,2,1,65,0,0
131905,-222.222222222222,4,2,1,65,0,0
132310,-111.111111111111,4,2,1,65,0,0
133121,-66.6666666666667,4,2,1,65,0,0
133526,-222.222222222222,4,2,1,65,0,0
133932,-111.111111111111,4,2,1,65,0,0
134743,-66.6666666666667,4,2,1,65,0,0
135148,-60.6060606060606,4,2,1,65,0,0
135553,-111.111111111111,4,2,1,65,0,0
136770,-76.9230769230769,4,2,1,65,0,0
137175,-100,4,2,1,65,0,0
138797,-71.4285714285714,4,2,1,65,0,0
139202,-250,4,2,1,65,0,0
139607,-71.4285714285714,4,2,1,65,0,0
140012,-250,4,2,1,65,0,0
140418,-71.4285714285714,4,2,1,65,0,0
140823,-250,4,2,1,65,0,0
141229,-71.4285714285714,4,2,1,65,0,0
141634,-50,4,2,1,65,0,0
142040,-71.4285714285714,4,2,1,75,0,0
145283,-57.1428571428571,4,2,1,85,0,0
148526,-166.666666666667,4,2,1,75,0,0
150148,-80,4,2,1,75,0,0
150553,-166.666666666667,4,2,1,75,0,0
151770,-80,4,2,1,75,0,0
153391,-71.4285714285714,4,2,1,75,0,0
155418,-60.6060606060606,4,2,1,75,0,0

[Colours]
Combo1 : 181,255,255
Combo2 : 201,201,201

[HitObjects]
238,179,149,5,2,0:0:0:0:
185,117,284,2,0,L|163:90,1,33.3333333333333
253,168,554,1,2,0:0:0:0:
260,86,689,2,0,L|262:52,1,33.3333333333333
273,174,959,1,2,0:0:0:0:
335,120,1094,2,0,L|361:98,1,33.3333333333333
282,191,1365,1,2,0:0:0:0:
363,197,1500,2,0,L|395:199,1,33.3333333333333
277,210,1770,1,2,0:0:0:0:
331,272,1905,2,0,L|351:297,1,33.3333333333333
259,220,2175,1,2,0:0:0:0:
254,301,2310,2,0,L|251:333,1,33.3333333333333
241,213,2581,1,2,0:0:0:0:
180,267,2716,2,0,L|154:287,1,33.3333333333333
232,195,2986,1,2,0:0:0:0:
150,190,3121,2,0,L|116:186,1,33.3333333333333
241,213,3392,5,2,0:0:0:0:
180,267,3527,2,0,P|167:282|173:302,1,43.3333313496908
259,220,3797,1,2,0:0:0:0:
254,301,3932,2,0,P|256:321|274:330,1,43.3333313496908
277,211,4203,1,2,0:0:0:0:
331,272,4338,2,0,P|346:284|366:278,1,43.3333313496908
282,191,4608,1,2,0:0:0:0:
363,196,4743,2,0,P|383:193|392:175,1,43.3333313496908
273,174,5013,1,2,0:0:0:0:
334,120,5148,2,0,P|346:104|340:84,1,43.3333313496908
253,168,5418,1,2,0:0:0:0:
258,87,5553,2,0,P|255:66|237:57,1,43.3333313496908
238,179,5824,1,2,0:0:0:0:
184,118,5959,2,0,P|168:105|148:111,1,43.3333313496908
232,195,6229,1,2,0:0:0:0:
151,190,6364,2,0,P|130:192|121:210,1,43.3333313496908
237,319,6635,5,2,1:2:0:0:
156,357,6770,1,2,0:0:0:0:
226,304,6905,1,2,0:0:0:0:
358,179,7040,5,4,0:3:0:0:
439,217,7175,1,2,0:0:0:0:
369,164,7310,1,2,0:0:0:0:
239,11,7446,5,4,0:3:0:0:
177,72,7581,1,2,0:0:0:0:
241,131,7716,1,2,0:0:0:0:
301,71,7851,2,0,B|319:115|279:149|268:135|227:170|241:214,1,166.666666666667,4|10,0:3|0:0,0:0:0:0:
274,285,8189,5,8,0:0:0:0:
281,292,8257,1,2,1:2:0:0:
360,255,8392,1,2,0:0:0:0:
439,217,8527,1,2,0:0:0:0:
301,71,8662,5,4,0:3:0:0:
380,33,8797,1,2,0:0:0:0:
305,91,8932,1,2,0:0:0:0:
94,19,9067,5,8,0:3:0:0:
24,63,9203,5,8,0:3:0:0:
17,155,9338,5,8,0:3:0:0:
92,222,9473,6,0,B|180:242|203:156|203:156|195:155|183:148,1,166.666666666667,4|8,0:3|0:0,0:0:0:0:
108,106,9811,5,8,0:0:0:0:
103,116,9878,2,0,B|156:150|209:106|193:88|248:43|302:71,1,220.000002098084,2|4,1:2|0:3,0:0:0:0:
497,177,10284,6,0,P|489:219|481:262,1,86.6666626993817,4|4,0:3|0:3,0:0:0:0:
506,348,10689,6,0,B|453:375|398:330|414:312|361:268|308:302,1,220.000002098084,2|4,1:2|0:3,0:0:0:0:
77,299,11094,6,0,B|86:283|84:259|84:259|97:279|119:286,1,86.6666626993817,4|8,0:3|0:0,0:0:0:0:
123,365,11432,5,8,0:0:0:0:
126,371,11500,1,2,1:2:0:0:
204,327,11635,1,2,0:0:0:0:
205,238,11770,1,2,0:0:0:0:
127,192,11905,1,2,0:0:0:0:
127,101,12040,1,2,0:0:0:0:
205,54,12176,1,2,0:0:0:0:
283,99,12311,2,0,P|323:90|365:84,1,83.3333333333333,4|8,0:3|0:3,0:0:0:0:
512,267,12581,1,0,1:0:0:0:
436,308,12716,6,0,B|374:296|312:200|378:129|447:125|476:192|454:200,1,275.000002622604,4|0,0:0|0:0,0:0:0:0:
454,209,13121,6,0,B|312:233|312:233|275:219|275:219|131:244,1,329.9999899292,6|0,1:2|0:0,0:0:0:0:
57,221,13932,6,0,B|36:259|1:267|1:267|37:263|70:293,1,150.000005722046,10|0,0:0|1:0,0:0:0:0:
512,84,14540,5,2,1:2:0:0:
444,37,14743,2,0,B|426:64|426:64|453:209,1,179.999994506836,2|0,1:2|0:0,0:0:0:0:
300,300,15351,5,2,1:2:0:0:
298,292,15419,1,2,0:0:0:0:
296,284,15486,1,2,0:0:0:0:
294,276,15554,2,0,P|365:263|420:310,1,150.000005722046,10|0,0:0|1:0,0:0:0:0:
495,216,15959,6,0,P|473:219|453:209,1,44.999998626709,2|0,0:0|1:0,0:0:0:0:
340,372,16365,6,0,B|390:292|325:213|298:237|230:155|272:74,1,329.9999899292,6|0,1:2|0:0,0:0:0:0:
340,32,17176,6,0,B|385:17|411:61|411:61|385:42|347:48,1,150.000005722046,10|0,0:0|1:0,0:0:0:0:
181,138,17581,5,2,0:0:0:0:
115,76,17784,1,2,1:2:0:0:
52,240,17986,2,0,P|39:165|25:92,1,149.999995422363,2|0,1:2|0:0,0:0:0:0:
12,87,18392,6,0,P|16:109|20:131,1,44.999998626709,2|0,0:0|1:0,0:0:0:0:
131,289,18797,6,0,P|60:273|5:321,1,150.000005722046,8|0,0:0|1:0,0:0:0:0:
140,197,19203,5,2,0:0:0:0:
140,197,19405,1,2,1:2:0:0:
189,367,19608,6,0,P|168:298|219:248,1,149.999995422363,6|0,1:2|0:0,0:0:0:0:
232,277,20013,6,0,P|239:320|210:353,1,89.9999972534181,2|10,0:0|0:0,0:0:0:0:
61,114,20689,6,0,P|135:175|231:159,1,200.000007629395,4|0,1:2|0:0,0:0:0:0:
309,222,21027,2,0,P|318:172|326:123,1,100.000003814697,4|0,1:2|0:0,0:0:0:0:
417,106,21230,2,0,P|406:180|394:254,1,150.000005722046,6|2,1:2|0:0,0:0:0:0:
487,324,21635,6,0,P|465:319|448:332,1,44.999998626709,2|0,0:0|1:0,0:0:0:0:
309,222,22040,6,0,P|248:262|177:245,1,150.000005722046,10|0,0:0|1:0,0:0:0:0:
73,286,22446,6,0,P|69:262|65:241,1,44.999998626709,2|0,0:0|1:0,0:0:0:0:
37,57,22851,6,0,B|-1:38|-57:115|9:186|93:174|124:101|92:94|138:67|180:53|217:84,1,329.9999899292,6|0,1:2|0:0,0:0:0:0:
253,6,23662,6,0,P|302:57|285:127,1,150.000005722046,8|0,0:0|1:0,0:0:0:0:
177,241,24067,6,0,P|182:266|187:295,1,44.999998626709,2|0,0:0|1:0,0:0:0:0:
31,375,24473,6,0,B|84:369|62:322|116:315|116:315|143:320|333:352,1,329.9999899292,2|0,1:2|0:0,0:0:0:0:
399,306,25284,6,0,P|425:256|376:287,1,150.000005722046,10|0,0:0|1:0,0:0:0:0:
202,372,25689,6,0,P|194:328|185:284,1,89.9999972534181,2|0,0:0|1:0,0:0:0:0:
48,152,26094,6,0,B|40:131|-24:159|-20:225|48:289|140:229|152:169,1,266.666666666667,6|0,1:2|0:0,0:0:0:0:
146,162,27311,1,8,0:3:0:0:
127,167,27446,1,8,0:3:0:0:
111,190,27581,1,8,0:3:0:0:
115,231,27716,1,4,0:3:0:0:
149,270,27851,1,4,0:3:0:0:
229,271,27986,1,4,0:3:0:0:
272,194,28121,6,0,P|263:145|254:95,1,100,4|4,0:3|0:3,0:0:0:0:
466,194,28865,1,4,0:3:0:0:
469,178,28932,2,0,P|476:137|483:96,1,83.3333333333333,4|0,0:3|0:0,0:0:0:0:
437,29,29338,6,0,B|403:94|457:160|479:140|531:204|491:268,1,266.666666666667,6|8,1:2|0:3,0:0:0:0:
432,333,30554,1,4,0:3:0:0:
352,327,30689,1,4,0:3:0:0:
336,312,30824,1,4,0:3:0:0:
332,300,30959,6,0,P|260:368|146:349,1,209.999993591309,2|2,0:0|0:0,0:0:0:0:
32,192,32581,6,0,P|25:152|18:113,1,79.9999975585938,0|2,1:0|0:0,0:0:0:0:
16,104,32919,1,2,0:0:0:0:
14,95,32986,1,2,0:0:0:0:
73,24,33189,1,2,0:0:0:0:
147,78,33392,2,0,P|154:118|161:157,1,79.9999975585938,10|2,0:0|0:0,0:0:0:0:
163,166,33730,1,2,0:0:0:0:
165,175,33797,1,2,0:0:0:0:
108,248,34000,1,2,0:0:0:0:
178,306,34203,6,0,P|276:321|374:340,1,199.999993896485,2|0,1:2|0:0,0:0:0:0:
460,358,35013,2,0,P|470:320|447:289,1,79.9999975585938,10|0,0:0|0:0,0:0:0:0:
467,205,35419,2,0,P|429:194|398:217,1,79.9999975585938,2|0,0:0|0:0,0:0:0:0:
325,268,35824,1,2,1:2:0:0:
200,122,36094,5,2,0:0:0:0:
200,122,36230,2,0,L|191:170,2,39.9999987792969,2|0|2,0:0|0:0|0:0,0:0:0:0:
286,116,36635,2,0,P|278:156|271:195,1,79.9999975585938,10|0,0:0|0:0,0:0:0:0:
325,268,37040,2,0,P|285:275|246:282,1,79.9999975585938,2|0,0:0|0:0,0:0:0:0:
177,330,37446,6,0,P|154:298|164:261,1,79.9999975585938,2|0,1:2|0:0,0:0:0:0:
76,249,37851,2,0,P|81:210|115:191,1,79.9999975585938,2|0,0:0|0:0,0:0:0:0:
61,120,38257,2,0,P|92:97|129:107,1,79.9999975585938,10|0,0:0|0:0,0:0:0:0:
198,57,38662,1,10,0:0:0:0:
282,70,38797,1,8,0:0:0:0:
332,138,38932,1,8,0:0:0:0:
319,221,39067,1,2,0:0:0:0:
319,221,39473,6,0,P|325:260|332:299,1,80,2|2,0:0|0:0,0:0:0:0:
461,167,40284,1,2,0:0:0:0:
461,167,40486,1,2,0:0:0:0:
487,256,40689,6,0,P|447:249|408:242,1,80,2|2,0:0|0:0,0:0:0:0:
257,356,41500,2,0,P|191:342|125:331,1,133.333333333333,2|0,0:0|0:0,0:0:0:0:
50,363,42311,6,0,L|43:341,1,13.3333333333333,2|0,0:0|0:0,0:0:0:0:
207,262,42716,5,2,0:0:0:0:
207,262,43121,6,0,L|214:240,1,13.3333333333333,2|0,0:0|0:0,0:0:0:0:
49,93,43932,6,0,L|44:80,1,13.3333333333333,2|0,0:0|0:0,0:0:0:0:
15,168,44135,5,2,0:0:0:0:
87,208,44338,2,0,P|119:202|149:198,1,53.3333333333333,2|0,0:0|0:0,0:0:0:0:
211,249,44743,6,0,L|206:261,1,13.3333333333333,2|0,0:0|0:0,0:0:0:0:
180,14,45148,6,0,P|173:46|167:79,1,66.6666666666667
164,99,45554,5,2,3:2:0:0:
371,216,45959,1,2,3:2:0:0:
160,115,46365,1,2,0:0:0:0:
229,154,46500,1,2,0:0:0:0:
298,193,46635,1,2,0:0:0:0:
367,232,46770,1,2,3:2:0:0:
209,265,47040,5,2,0:0:0:0:
158,200,47176,1,2,0:0:0:0:
301,109,47851,5,2,0:0:0:0:
352,44,47987,1,2,0:0:0:0:
495,122,48257,5,2,0:0:0:0:
497,111,48324,1,2,0:0:0:0:
499,101,48392,2,0,P|452:139|392:131,1,125.000004768372,2|0,0:0|0:0,0:0:0:0:
382,120,48797,1,2,3:2:0:0:
209,265,49203,1,2,3:2:0:0:
372,108,49608,2,0,L|382:168,1,50.0000019073487,2|0,0:0|0:0,0:0:0:0:
372,172,49811,2,0,L|382:232,1,50.0000019073487,2|0,0:0|0:0,0:0:0:0:
372,236,50013,2,0,L|389:334,1,100.000003814697,2|2,3:2|0:0,0:0:0:0:
499,309,50419,6,0,P|379:285|275:349,1,250.000009536744,2|0,3:2|0:0,0:0:0:0:
223,265,51230,2,0,P|118:329|0:305,1,250.000009536744,2|0,0:0|0:0,0:0:0:0:
66,152,52040,6,0,P|51:203|94:143,2,239.999992675781,6|2|2,0:0|0:0|0:0,0:0:0:0:
361,288,54067,5,2,0:0:0:0:
301,226,54270,1,2,0:0:0:0:
223,265,54473,2,0,P|202:298|211:335,1,79.9999975585938,2|0,0:0|0:0,0:0:0:0:
349,358,54878,2,0,P|371:326|362:289,1,79.9999975585938,2|0,0:0|0:0,0:0:0:0:
309,116,55284,6,0,P|312:202|342:122,2,239.999992675781,2|2|2,0:0|0:0|0:0,0:0:0:0:
48,158,57311,5,2,0:0:0:0:
108,220,57514,1,0,0:0:0:0:
189,181,57716,1,2,0:0:0:0:
189,181,57919,1,2,0:0:0:0:
156,23,58121,2,0,P|119:54|127:101,1,99.9999969482423,2|0,0:0|0:0,0:0:0:0:
143,110,58527,6,0,B|178:74|225:87|278:112|243:122|282:200|365:217|442:125|375:45|330:76,1,359.999989013672,2|0,1:2|0:0,0:0:0:0:
333,74,63256,5,0,3:0:0:0:
326,80,63324,1,0,3:0:0:0:
319,87,63391,2,0,P|329:145|341:215,1,120,6|2,1:2|0:0,0:0:0:0:
80,359,64608,6,0,P|70:301|58:231,1,120,2|2,1:2|0:0,0:0:0:0:
67,152,65418,2,0,P|92:148|113:165,1,53.3333333333333,2|0,0:3|3:0,0:0:0:0:
120,173,65756,1,0,3:0:0:0:
127,182,65824,6,0,P|186:171|245:162,1,120,2|2,1:2|0:0,0:0:0:0:
480,288,67040,5,2,1:2:0:0:
476,310,67243,1,8,0:3:0:0:
461,336,67445,1,4,0:3:0:0:
421,353,67648,1,4,1:3:0:0:
346,326,67850,1,4,1:3:0:0:
346,326,68256,6,0,P|280:335|213:347,1,133.333333333333,6|0,1:2|0:0,0:0:0:0:
142,313,69067,6,0,P|129:328|133:347,2,39.9999987792969,2|2|2,0:0|0:0|0:0,0:0:0:0:
115,231,69472,6,0,P|89:234|75:256,2,53.3333333333333,2|2|2,0:0|0:0|0:0,0:0:0:0:
165,150,69878,6,0,P|140:129|108:136,2,66.6666666666667,2|2|2,0:0|0:0|0:0,0:0:0:0:
260,131,70283,6,0,P|256:92|223:71,2,79.9999975585938,2|2|2,0:0|0:0|0:0,0:0:0:0:
226,237,70689,5,10,0:0:0:0:
295,284,71094,5,10,0:0:0:0:
364,331,71499,5,10,0:0:0:0:
444,300,71634,1,2,0:0:0:0:
369,346,71770,5,2,0:0:0:0:
449,315,71905,2,0,P|476:319|501:324,1,39.9999987792969,10|8,0:0|0:0,0:0:0:0:
508,230,72175,1,10,0:0:0:0:
508,230,72310,2,0,B|418:215|418:215|389:239,1,119.999996337891,10|8,0:0|0:0,0:0:0:0:
253,325,72986,5,2,0:0:0:0:
323,278,73121,5,8,0:0:0:0:
318,264,73256,1,8,0:0:0:0:
314,250,73391,1,8,0:0:0:0:
309,237,73526,1,8,0:0:0:0:
480,128,73797,5,8,0:0:0:0:
471,137,73932,1,10,0:0:0:0:
402,90,74337,5,10,0:0:0:0:
333,43,74742,5,10,0:0:0:0:
253,74,74877,1,2,0:0:0:0:
328,28,75013,5,2,0:0:0:0:
248,59,75148,2,0,P|221:55|196:50,1,39.9999987792969,8|8,0:0|0:0,0:0:0:0:
136,93,75418,1,10,0:0:0:0:
136,93,75553,2,0,P|109:89|84:84,3,39.9999987792969,10|8|8|8,0:0|0:0|0:0|0:0,0:0:0:0:
91,239,76229,5,2,0:0:0:0:
79,249,76364,5,10,0:0:0:0:
13,201,76499,1,8,0:0:0:0:
21,119,76634,1,8,0:0:0:0:
96,86,76770,1,8,0:0:0:0:
6,335,77040,5,0,3:0:0:0:
10,344,77107,1,0,3:0:0:0:
14,352,77175,2,0,P|53:357|92:365,1,79.9999975585938,6|0,1:2|0:0,0:0:0:0:
165,317,77580,2,0,P|204:322|243:330,1,79.9999975585938,10|0,0:0|0:0,0:0:0:0:
316,282,77986,2,0,P|355:287|394:295,1,79.9999975585938,10|0,0:0|0:0,0:0:0:0:
449,229,78391,1,10,0:0:0:0:
448,205,78526,1,8,0:0:0:0:
434,185,78661,1,8,0:0:0:0:
452,103,78797,6,0,P|414:92|383:115,1,79.9999975585938,10|0,0:0|0:0,0:0:0:0:
335,41,79202,2,0,P|301:59|295:98,1,79.9999975585938,10|0,0:0|0:0,0:0:0:0:
210,79,79607,2,0,P|199:116|222:147,1,79.9999975585938,10|0,0:0|0:0,0:0:0:0:
147,194,80013,2,0,P|165:227|204:233,1,79.9999975585938,10|0,0:0|3:0,0:0:0:0:
214,232,80351,1,0,3:0:0:0:
222,226,80418,6,0,P|214:269|206:312,1,87.9999997314453,6|0,1:2|0:0,0:0:0:0:
297,304,80824,6,0,P|339:326|381:349,1,96.0000023437501,10|0,0:0|0:0,0:0:0:0:
402,259,81229,6,0,P|439:222|476:186,1,104.000003491211,10|0,0:0|0:0,0:0:0:0:
397,138,81634,6,0,P|372:87|348:37,1,111.999996582031,10|0,0:0|0:0,0:0:0:0:
275,96,82040,6,0,P|215:104|156:112,1,119.999996337891,10|0,0:0|0:0,0:0:0:0:
192,199,82445,6,0,P|181:262|169:325,1,128.000003125,10|0,0:0|0:0,0:0:0:0:
261,317,82851,6,0,P|321:348|381:380,1,136.000000830078,10|0,0:0|0:0,0:0:0:0:
401,291,83256,6,0,P|452:240|504:191,1,144.000003515625,10|0,0:0|0:0,0:0:0:0:
429,54,83661,6,0,P|341:35|274:95,1,186.666660970052,6|2,1:2|0:0,0:0:0:0:
362,192,84067,5,2,3:2:0:0:
371,190,84134,1,0,3:0:0:0:
376,182,84202,2,0,P|383:153|367:129,1,59.9999981689454,0|2,3:0|0:0,0:0:0:0:
195,47,84472,6,0,P|136:58|69:69,1,119.999996337891,10|2,0:0|0:0,0:0:0:0:
207,168,84878,1,10,0:0:0:0:
124,205,85013,2,0,P|107:180|117:153,1,59.9999981689454,2|2,0:0|0:0,0:0:0:0:
275,95,85283,6,0,B|297:140|256:186|242:171|203:215|230:261,1,186.666660970052,6|2,1:2|0:0,0:0:0:0:
360,346,85689,5,2,3:2:0:0:
366,337,85756,1,0,3:0:0:0:
362,327,85824,2,0,P|331:321|287:313,1,59.9999981689454,0|2,3:0|0:0,0:0:0:0:
167,356,86094,6,0,P|195:363|219:347,2,59.9999981689454,10|2|2,0:0|0:0|0:0,0:0:0:0:
187,178,86499,2,0,P|158:171|134:187,2,59.9999981689454,10|2|2,0:0|0:0|0:0,0:0:0:0:
45,294,86905,6,0,P|136:275|228:259,1,186.666660970052,6|2,1:2|0:0,0:0:0:0:
418,280,87310,6,0,L|407:335,1,53.3333333333333,8|2,0:0|0:0,0:0:0:0:
248,377,87716,6,0,P|238:318|228:259,1,119.999996337891,8|2,0:0|0:0,0:0:0:0:
346,92,88121,6,0,P|307:94|284:63,1,79.9999975585938,8|2,0:0|0:0,0:0:0:0:
80,140,88526,6,0,P|172:154|263:171,1,186.666660970052,6|2,1:2|0:0,0:0:0:0:
430,263,88932,6,0,P|401:192|452:135,1,159.999995117188,8|2,0:0|0:0,0:0:0:0:
479,330,89337,5,10,0:0:0:0:
475,341,89405,1,8,0:0:0:0:
468,351,89472,1,8,0:0:0:0:
456,355,89540,1,8,0:0:0:0:
444,357,89607,1,8,0:0:0:0:
432,354,89675,1,8,0:0:0:0:
420,346,89743,6,0,P|315:332|223:380,1,213.333333333333,10|2,0:0|0:0,0:0:0:0:
64,224,90148,6,0,B|43:218|64:156|126:154|190:212|143:303|88:319,1,250.000009536744,6|2,1:2|0:0,0:0:0:0:
12,288,90959,6,0,P|117:264|224:245,1,216.666656748454,2|0,0:0|0:0,0:0:0:0:
280,306,91770,5,2,0:0:0:0:
407,207,92175,1,0,0:0:0:0:
310,78,92580,1,0,0:0:0:0:
181,176,92986,2,0,L|128:166,1,53.3333333333333,2|0,0:0|0:0,0:0:0:0:
51,150,93391,5,2,0:0:0:0:
173,45,93796,1,0,0:0:0:0:
277,169,94201,1,0,0:0:0:0:
153,273,94607,2,0,L|162:325,1,53.3333333333333,2|0,0:0|0:0,0:0:0:0:
225,380,95013,5,2,0:0:0:0:
238,360,95148,1,2,0:0:0:0:
260,351,95283,1,2,0:0:0:0:
283,356,95418,2,0,L|287:382,2,26.6666666666667,2|2|2,0:0|0:0|0:0,0:0:0:0:
350,305,95824,5,2,0:0:0:0:
364,285,95959,1,2,0:0:0:0:
365,262,96094,1,2,0:0:0:0:
352,242,96229,2,0,L|325:246,2,26.6666666666667,2|2|2,0:0|0:0|0:0,0:0:0:0:
409,178,96634,5,2,0:0:0:0:
394,158,96769,1,2,0:0:0:0:
393,135,96904,1,2,0:0:0:0:
406,115,97040,2,0,L|432:119,2,26.6666666666667,2|2|2,0:0|0:0|0:0,0:0:0:0:
365,45,97445,5,2,0:0:0:0:
291,78,97580,1,2,0:0:0:0:
295,159,97716,2,0,P|307:172|317:167,1,26.6666666666667,2|2,0:0|0:0,0:0:0:0:
119,92,98256,6,0,L|123:65,2,26.6666666666667,2|0|0,0:0|0:0|0:0,0:0:0:0:
57,154,98661,2,0,L|41:132,2,26.6666666666667,2|0|0,0:0|0:0|0:0,0:0:0:0:
57,241,99067,2,0,L|30:236,2,26.6666666666667,2|0|0,0:0|0:0|0:0,0:0:0:0:
119,303,99472,2,0,L|97:318,2,26.6666666666667,2|0|0,0:0|0:0|0:0,0:0:0:0:
206,303,99878,2,0,L|201:329,2,26.6666666666667,2|0|0,0:0|0:0|0:0,0:0:0:0:
268,241,100283,2,0,L|283:262,2,26.6666666666667,2|0|0,0:0|0:0|0:0,0:0:0:0:
268,154,100688,2,0,L|294:158,2,26.6666666666667,2|0|0,0:0|0:0|0:0,0:0:0:0:
206,92,101094,2,0,L|227:76,2,26.6666666666667,2|0|0,0:0|0:0|0:0,0:0:0:0:
156,185,101499,6,0,P|154:198|163:207,11,26.6666666666667,2|2|2|2|2|2|2|2|2|2|2|2,0:0|0:0|0:0|0:0|0:0|0:0|0:0|0:0|0:0|0:0|0:0|0:0,0:0:0:0:
177,297,103121,6,0,P|189:307|204:303,11,33.3333333333333,2|2|2|2|2|2|2|2|2|2|2|2,0:0|0:0|0:0|0:0|0:0|0:0|0:0|0:0|0:0|0:0|0:0|0:0,0:0:0:0:
302,355,104743,6,0,P|320:347|324:329,11,39.9999987792969,2|2|2|2|2|2|2|2|2|2|2|2,0:0|0:0|0:0|0:0|0:0|0:0|0:0|0:0|0:0|0:0|0:0|0:0,0:0:0:0:
424,246,106364,6,0,P|427:222|411:206,11,46.6666652425131,2|2|2|2|2|2|2|2|2|2|2|2,0:0|0:0|0:0|0:0|0:0|0:0|0:0|0:0|0:0|0:0|0:0|0:0,0:0:0:0:
304,101,107986,5,2,1:2:0:0:
336,110,108121,1,4,0:3:0:0:
309,133,108256,1,4,0:3:0:0:
160,205,108391,5,2,1:2:0:0:
128,194,108526,1,4,0:3:0:0:
153,171,108661,1,4,0:3:0:0:
218,84,108797,6,0,L|226:129,1,46.6666652425131,10|8,0:0|0:0,0:0:0:0:
229,140,108999,1,8,0:0:0:0:
231,149,109067,1,8,0:0:0:0:
115,272,109202,1,6,1:2:0:0:
384,352,109607,5,6,1:2:0:0:
464,297,109743,1,2,0:0:0:0:
377,255,109878,1,2,0:0:0:0:
508,108,110013,5,4,0:3:0:0:
464,186,110148,1,10,0:0:0:0:
460,193,110216,1,8,0:0:0:0:
457,200,110283,1,10,0:0:0:0:
282,116,110418,5,4,0:3:0:0:
290,213,110553,1,2,0:0:0:0:
202,172,110688,1,2,0:0:0:0:
337,38,110824,2,0,P|274:89|195:74,1,166.666666666667,4|8,0:3|0:0,0:0:0:0:
140,20,111161,5,8,0:0:0:0:
134,27,111229,1,2,1:2:0:0:
67,91,111364,1,2,0:0:0:0:
0,155,111499,1,2,0:0:0:0:
114,308,111634,5,4,0:3:0:0:
52,240,111770,1,10,0:0:0:0:
56,233,111837,1,8,0:0:0:0:
61,224,111905,1,10,0:0:0:0:
252,129,112040,5,4,0:3:0:0:
192,194,112175,5,8,0:3:0:0:
203,291,112310,5,8,0:3:0:0:
297,343,112445,6,0,P|358:331|420:321,1,125,8|0,0:3|0:0,0:0:0:0:
430,309,112716,2,0,P|434:285|436:267,1,41.6666666666667,8|0,0:0|0:0,0:0:0:0:
353,133,112851,6,0,B|367:127|335:78|282:86|237:162|299:227|341:238,1,220.000002098084,2|4,1:2|0:3,0:0:0:0:
160,357,113256,6,0,P|194:331|202:290,1,86.6666626993817,10|4,0:0|0:3,0:0:0:0:
115,243,113661,6,0,B|100:239|129:187|182:192|232:265|174:334|139:346,1,220.000002098084,2|4,1:2|0:3,0:0:0:0:
24,219,114067,6,0,P|32:177|65:151,1,86.6666626993817,10|8,0:0|0:0,0:0:0:0:
143,132,114405,5,8,0:0:0:0:
151,137,114472,1,2,1:2:0:0:
228,182,114607,1,2,0:0:0:0:
305,138,114742,1,2,0:0:0:0:
306,48,114877,1,2,0:0:0:0:
385,2,115012,1,2,0:0:0:0:
465,46,115148,1,2,0:0:0:0:
388,184,115283,5,8,0:0:0:0:
466,137,115418,1,8,0:0:0:0:
386,92,115553,1,8,0:0:0:0:
228,182,115688,5,8,0:0:0:0:
91,109,115824,1,8,0:0:0:0:
221,25,115959,1,8,0:0:0:0:
180,104,116094,6,0,B|151:149|189:193|204:179|244:225|220:272,1,186.666660970052,6|2,1:2|1:2,0:0:0:0:
66,380,116499,1,10,0:0:0:0:
37,284,116635,2,0,P|83:290|128:300,1,93.3333304850261,2|2,1:2|0:0,0:0:0:0:
322,233,116905,5,2,1:2:0:0:
478,342,117040,1,2,0:0:0:0:
399,287,117175,1,2,1:2:0:0:
489,124,117310,2,0,B|459:98|459:98|469:151|486:243,1,186.666660970052,10|0,0:0|0:0,0:0:0:0:
301,317,117716,5,2,1:2:0:0:
383,379,117851,2,0,P|391:333|399:287,1,93.3333304850261,2|2,0:0|1:2,0:0:0:0:
260,88,118121,5,10,0:0:0:0:
358,57,118256,2,0,P|350:103|342:149,1,93.3333304850261,2|2,1:2|0:0,0:0:0:0:
301,317,118526,5,2,1:2:0:0:
229,368,118661,5,0,1:0:0:0:
128,351,118797,5,0,1:0:0:0:
71,252,118932,6,0,B|69:227|118:162|192:191|207:236|169:272|161:260,1,186.666660970052,10|8,0:0|0:0,0:0:0:0:
157,270,119270,1,8,0:0:0:0:
149,271,119337,6,0,P|129:161|107:54,1,220.000002098084,6|0,1:2|1:0,0:0:0:0:
342,148,119743,6,0,P|383:141|401:105,1,86.6666626993817,10|0,0:0|0:0,0:0:0:0:
322,55,120148,6,0,P|298:162|279:270,1,220.000002098084,2|0,1:2|1:0,0:0:0:0:
76,320,120553,6,0,P|94:357|135:363,1,86.6666626993817,10|8,0:0|0:0,0:0:0:0:
201,325,120891,5,8,0:0:0:0:
207,333,120959,1,2,1:2:0:0:
289,369,121094,1,2,0:0:0:0:
364,316,121229,1,2,0:0:0:0:
512,200,121364,1,6,1:2:0:0:
420,170,121499,2,0,P|429:217|437:261,1,93.3333304850261,2|2,0:0|0:0,0:0:0:0:
491,107,121770,5,10,0:0:0:0:
413,71,121905,1,8,0:0:0:0:
336,38,122040,1,8,0:0:0:0:
482,22,122175,5,10,0:0:0:0:
344,123,122310,1,8,0:0:0:0:
207,223,122445,1,8,0:0:0:0:
280,264,122580,6,0,B|318:197|271:136|220:117|230:149|160:145|120:65|184:-14|266:28|246:68,1,329.9999899292,6|0,1:2|0:0,0:0:0:0:
251,55,123391,5,10,0:0:0:0:
207,223,123594,2,0,B|249:126|361:100|420:129|420:129|388:144|379:186,1,300.000011444092,0|2,1:0|1:2,0:0:0:0:
418,384,124202,6,0,P|434:289|450:206,1,179.999994506836,2|0,1:2|0:0,0:0:0:0:
282,295,124810,5,2,1:2:0:0:
284,287,124878,1,2,0:0:0:0:
286,279,124945,1,2,0:0:0:0:
288,271,125013,2,0,P|217:258|162:305,1,150.000005722046,10|0,0:0|1:0,0:0:0:0:
8,366,125418,6,0,L|0:321,1,44.999998626709,2|0,0:0|1:0,0:0:0:0:
96,143,125824,6,0,B|34:93|34:93|86:339,1,329.9999899292,6|0,1:2|0:0,0:0:0:0:
161,305,126635,6,0,B|207:293|229:340|229:340|204:318|166:321,1,150.000005722046,10|0,0:0|1:0,0:0:0:0:
96,143,127040,5,2,0:0:0:0:
164,209,127243,1,2,1:2:0:0:
275,40,127445,2,0,P|204:20|143:69,1,149.999995422363,2|0,1:2|0:0,0:0:0:0:
134,56,127851,6,0,P|144:36|170:25,1,44.999998626709,2|0,0:0|1:0,0:0:0:0:
347,94,128256,6,0,P|421:80|494:68,1,150.000005722046,10|0,0:0|1:0,0:0:0:0:
477,211,128661,6,0,L|484:166,1,44.999998626709,2|0,0:0|1:0,0:0:0:0:
347,94,129067,6,0,P|333:168|321:241,1,150.000005722046,6|0,1:2|0:0,0:0:0:0:
319,256,129472,6,0,P|277:248|244:277,1,89.9999972534181,2|10,0:0|0:0,0:0:0:0:
33,126,130148,6,0,B|21:114|-19:132|-21:181|33:232|99:191|124:147,1,200.000007629395,4|0,1:2|0:0,0:0:0:0:
181,217,130486,2,0,P|214:182|203:135,1,100.000003814697,4|0,1:2|0:0,0:0:0:0:
156,56,130688,2,0,P|211:103|282:89,1,150.000005722046,6|2,1:2|0:0,0:0:0:0:
361,52,130959,5,2,0:3:0:0:
359,41,131026,1,2,0:3:0:0:
357,30,131094,2,0,L|351:-4,2,29.9999990844727,2|2|0,0:0|1:3|0:0,0:0:0:0:
446,164,131499,6,0,P|374:149|319:197,1,150.000005722046,10|0,0:0|1:0,0:0:0:0:
409,286,131905,6,0,L|400:241,1,44.999998626709,2|0,0:0|1:0,0:0:0:0:
361,52,132310,6,0,B|281:2|202:67|226:94|144:162|63:120,1,329.9999899292,6|0,1:2|0:0,0:0:0:0:
33,50,133121,6,0,P|-22:99|8:169,1,150.000005722046,8|0,0:0|1:0,0:0:0:0:
123,334,133526,6,0,P|145:329|167:325,1,44.999998626709,2|0,0:0|1:0,0:0:0:0:
58,251,133932,6,0,B|202:226|202:226|239:240|239:240|381:216,1,329.9999899292,2|0,1:2|0:0,0:0:0:0:
444,170,134743,6,0,B|473:141|473:141|455:105|455:105|428:135|428:135|439:164,1,150.000005722046,8|0,0:0|1:0,0:0:0:0:
166,325,135148,6,0,P|136:189|98:58,1,275.000002622604,12|0,0:0|0:0,0:0:0:0:
161,5,135553,6,0,P|189:0|211:18,2,59.9999981689454,6|2|2,1:2|0:0|0:0,0:0:0:0:
330,53,135959,6,0,P|301:48|279:66,2,59.9999981689454,2|2|2,0:0|0:0|0:0,0:0:0:0:
161,101,136364,6,0,P|189:96|211:114,2,59.9999981689454,2|2|2,0:0|0:0|0:0,0:0:0:0:
359,191,136770,6,0,P|251:190|179:268,1,216.666656748454,12|0,0:0|0:0,0:0:0:0:
175,277,137175,6,0,P|181:309|186:342,2,66.6666666666667,6|2|2,1:2|0:0|0:0,0:0:0:0:
370,256,137580,6,0,P|363:223|358:190,2,66.6666666666667,4|2|2,0:3|0:0|0:0,0:0:0:0:
255,252,137986,6,0,P|274:234|256:254,2,66.6666666666667,2|2|2,0:0|0:0|0:0,0:0:0:0:
434,137,138391,2,0,P|370:148|321:106,1,133.333333333333,4|8,0:3|0:0,0:0:0:0:
387,57,138729,5,8,0:0:0:0:
393,65,138797,2,0,B|348:94|304:56|318:41|272:1|225:25,1,186.666660970052,2|8,1:2|0:3,0:0:0:0:
102,196,139202,6,0,L|92:143,1,53.3333333333333,4|8,0:3|0:3,0:0:0:0:
74,66,139607,6,0,B|119:42|165:82|151:97|195:135|240:106,1,186.666660970052,2|8,1:2|0:3,0:0:0:0:
384,272,140013,6,0,P|410:266|436:262,1,53.3333333333333,4|8,0:3|0:0,0:0:0:0:
486,196,140418,6,0,B|504:162|504:162|352:191,1,186.666660970052,2|8,1:2|0:3,0:0:0:0:
228,333,140824,6,0,P|202:327|176:323,1,53.3333333333333,4|8,0:3|0:3,0:0:0:0:
126,257,141229,6,0,B|107:223|107:223|259:252,1,186.666660970052,2|8,1:2|0:3,0:0:0:0:
415,88,141634,6,0,B|420:69|406:58|406:58|397:74|412:89,1,66.6666666666667,12|0,0:0|0:0,0:0:0:0:
151,149,142040,6,0,P|196:156|242:165,2,93.3333304850261,6|2|2,1:2|0:0|0:0,0:0:0:0:
314,100,142445,1,4,0:3:0:0:
262,19,142580,1,10,0:0:0:0:
254,16,142647,1,8,0:0:0:0:
248,23,142715,1,10,0:0:0:0:
86,222,142851,5,4,0:3:0:0:
151,149,142986,1,2,0:0:0:0:
78,84,143121,1,2,0:0:0:0:
23,315,143256,6,0,P|94:257|183:274,1,186.666660970052,4|8,0:3|0:0,0:0:0:0:
249,336,143594,5,8,0:0:0:0:
257,344,143661,2,0,P|266:298|275:252,2,93.3333304850261,2|2|2,1:2|0:0|0:0,0:0:0:0:
318,44,144067,2,0,P|308:89|299:135,2,93.3333304850261,4|2|2,0:3|0:0|0:0,0:0:0:0:
411,255,144472,5,4,0:3:0:0:
386,178,144607,5,8,0:3:0:0:
298,135,144743,5,8,0:3:0:0:
203,160,144878,6,0,B|157:188|111:152|125:137|77:99|33:123,1,186.666660970052,8|8,0:3|0:0,0:0:0:0:
7,216,145216,5,8,0:0:0:0:
15,225,145283,2,0,B|94:232|137:151|107:139|148:52|228:57,1,291.666669448217,6|0,1:2|0:0,0:0:0:0:
89,7,145688,6,0,P|114:150|139:294,1,291.666669448217,14|0,0:0|0:0,0:0:0:0:
26,347,146094,6,0,P|135:319|228:383,1,233.333335558573,6|0,1:2|1:0,0:0:0:0:
433,284,146499,6,0,B|450:261|512:287|508:356|433:421|336:362|313:300,1,291.666669448217,14|0,0:0|0:0,0:0:0:0:
365,229,146905,6,0,B|317:222|337:181|288:174|288:174|264:178|95:207,1,291.666669448217,6|0,1:2|0:0,0:0:0:0:
163,283,147310,6,0,B|202:233|202:233|162:8,1,291.666669448217,14|0,0:0|0:0,0:0:0:0:
83,110,147716,6,0,L|312:69,1,233.333335558573,6|0,1:2|1:0,0:0:0:0:
511,230,148121,6,0,B|514:216|532:203|532:203|472:173|396:203|375:280,1,233.333335558573,14|0,0:0|3:0,0:0:0:0:
416,348,148459,5,0,3:0:0:0:
408,355,148526,2,0,B|367:383|323:364|275:330|311:326|284:243|194:222|115:293|169:382|212:364,1,359.999989013672,6|0,1:2|0:0,0:0:0:0:
32,128,150148,6,0,B|68:97|61:32|61:32|78:95|125:111,1,208.333333333333,4|0,0:0|0:0,0:0:0:0:
90,187,150553,5,2,3:3:0:0:
90,187,150959,1,2,3:3:0:0:
90,187,151364,1,2,3:3:0:0:
90,187,151770,6,0,P|178:200|254:215,1,166.666666666667,6|0,1:2|0:0,0:0:0:0:
442,111,152175,5,8,0:3:0:0:
416,198,152310,1,8,0:3:0:0:
334,174,152445,1,8,0:3:0:0:
357,91,152580,2,0,B|324:140|362:193|379:178|419:233|391:280,1,208.333333333333,4|0,0:3|0:0,0:0:0:0:
478,316,152986,6,0,P|398:303|334:353,1,166.666666666667,4|0,1:3|0:0,0:0:0:0:
154,284,153391,6,0,P|162:329|170:375,2,93.3333304850261,6|2|2,1:2|0:0|0:0,0:0:0:0:
357,91,153797,6,0,P|348:45|340:0,2,93.3333304850261,2|2|2,0:0|0:0|0:0,0:0:0:0:
455,212,154202,5,10,0:0:0:0:
371,180,154337,1,8,0:0:0:0:
440,122,154472,1,8,0:0:0:0:
385,269,154607,5,10,0:0:0:0:
267,152,154743,1,8,0:0:0:0:
153,268,154878,1,8,0:0:0:0:
266,382,155013,6,0,B|299:376|358:280|303:224|243:224|219:275|241:291,1,233.333326212565,10|0,0:0|0:0,0:0:0:0:
177,351,155418,6,0,P|284:335|386:374,1,220.000002098084,4|0,0:3|3:0,0:0:0:0:
453,331,155756,5,0,3:0:0:0:
458,323,155824,1,2,3:2:0:0:
