osu file format v14

[General]
AudioFilename: audio.mp3
AudioLeadIn: 0
PreviewTime: 31079
Countdown: 0
SampleSet: Soft
StackLeniency: 0.7
Mode: 3
LetterboxInBreaks: 0
SpecialStyle: 0
WidescreenStoryboard: 1

[Editor]
Bookmarks: 81848
DistanceSpacing: 1
BeatDivisor: 12
GridSize: 32
TimelineZoom: 0.9999999

[Metadata]
Title:Bathtub Mermaid
TitleUnicode:Bathtub Mermaid
Artist:Mili
ArtistUnicode:Mili
Creator:anatharax
Version:Advanced
Source:DEEMO
Tags:project mili miracle milk rayark games collection volume 3 cassie wei momocashew yamato kasai 葛西大和 hamo piano video game english projectmili mappers' guild mg mpg ln long notes featured artist fa 2nd second album
BeatmapID:4281744
BeatmapSetID:2045102

[Difficulty]
HPDrainRate:7.2
CircleSize:4
OverallDifficulty:6.7
ApproachRate:5
SliderMultiplier:1.4
SliderTickRate:1

[Events]
//Background and Video events
0,0,"not a bath.jpg",0,0
//Break Periods
//Storyboard Layer 0 (Background)
//Storyboard Layer 1 (Fail)
//Storyboard Layer 2 (Pass)
//Storyboard Layer 3 (Foreground)
//Storyboard Layer 4 (Overlay)
//Storyboard Sound Samples

[TimingPoints]
310,769.230769230769,2,2,1,20,1,0
108002,764.331210191083,2,2,1,20,1,0
108002,-101.010101010101,2,2,1,20,0,0

[HitObjects]
320,192,310,128,0,1079:0:0:0:0:
192,192,1079,128,0,1335:0:0:0:0:
448,192,1335,1,0,0:0:0:0:
320,192,1592,128,0,1848:0:0:0:0:
64,192,1848,128,0,2361:0:0:0:0:
192,192,1848,1,0,0:0:0:0:
320,192,2104,1,0,0:0:0:0:
448,192,2361,128,0,2617:0:0:0:0:
192,192,2617,128,0,3130:0:0:0:0:
64,192,2874,1,0,0:0:0:0:
448,192,3130,1,0,0:0:0:0:
320,192,3386,128,0,3899:0:0:0:0:
64,192,3643,128,0,3899:0:0:0:0:
192,192,3899,128,0,4412:0:0:0:0:
448,192,4156,128,0,4668:0:0:0:0:
320,192,4668,1,0,0:0:0:0:
64,192,4797,1,0,0:0:0:0:
192,192,4925,128,0,5694:0:0:0:0:
320,192,5694,128,0,6463:0:0:0:0:
448,192,5694,1,0,0:0:0:0:
64,192,6463,128,0,6720:0:0:0:0:
448,192,6720,1,0,0:0:0:0:
320,192,6976,128,0,7233:0:0:0:0:
192,192,7233,1,0,0:0:0:0:
448,192,7233,128,0,7745:0:0:0:0:
64,192,7489,128,0,8002:0:0:0:0:
192,192,7745,128,0,8002:0:0:0:0:
320,192,8002,128,0,8258:0:0:0:0:
448,192,8258,1,0,0:0:0:0:
64,192,8515,1,0,0:0:0:0:
320,192,8771,1,0,0:0:0:0:
448,192,8771,128,0,9284:0:0:0:0:
64,192,9284,1,0,0:0:0:0:
448,192,9540,1,0,0:0:0:0:
192,192,9540,128,0,10053:0:0:0:0:
320,192,9797,1,0,0:0:0:0:
320,192,10309,128,0,10822:0:0:0:0:
192,192,10822,1,0,0:0:0:0:
64,192,10951,1,0,0:0:0:0:
448,192,11079,128,0,11592:0:0:0:0:
320,192,11079,1,0,0:0:0:0:
320,192,11848,128,0,12361:0:0:0:0:
192,192,12361,1,0,0:0:0:0:
448,192,12617,128,0,12874:0:0:0:0:
64,192,12617,1,0,0:0:0:0:
320,192,12874,1,0,0:0:0:0:
192,192,13002,128,0,13258:0:0:0:0:
448,192,13258,1,0,0:0:0:0:
320,192,13386,1,0,0:0:0:0:
64,192,13515,1,0,0:0:0:0:
192,192,13643,1,0,0:0:0:0:
448,192,13771,1,0,0:0:0:0:
192,192,13899,1,0,0:0:0:0:
320,192,14027,1,0,0:0:0:0:
64,192,14156,128,0,14412:0:0:0:0:
448,192,14156,1,0,0:0:0:0:
448,192,14412,1,0,0:0:0:0:
320,192,14540,1,0,0:0:0:0:
64,192,14668,1,0,0:0:0:0:
192,192,14797,1,0,0:0:0:0:
320,192,14925,128,0,15181:0:0:0:0:
192,192,15181,1,0,0:0:0:0:
448,192,15309,128,0,15566:0:0:0:0:
192,192,15566,1,0,0:0:0:0:
64,192,15694,128,0,15951:0:0:0:0:
320,192,15694,1,0,0:0:0:0:
448,192,15951,128,0,16207:0:0:0:0:
192,192,16207,128,0,16463:0:0:0:0:
320,192,16720,128,0,17233:0:0:0:0:
192,192,17233,1,0,0:0:0:0:
64,192,17489,128,0,18002:0:0:0:0:
320,192,18002,1,0,0:0:0:0:
192,192,18258,1,0,0:0:0:0:
320,192,18515,128,0,18771:0:0:0:0:
192,192,18771,128,0,19284:0:0:0:0:
448,192,18771,128,0,19540:0:0:0:0:
192,192,19540,128,0,20053:0:0:0:0:
448,192,19797,128,0,20309:0:0:0:0:
320,192,20053,128,0,20309:0:0:0:0:
64,192,20309,128,0,20822:0:0:0:0:
192,192,20309,1,0,0:0:0:0:
448,192,20566,128,0,20822:0:0:0:0:
320,192,20822,128,0,21079:0:0:0:0:
64,192,21079,1,0,0:0:0:0:
192,192,21079,128,0,21592:0:0:0:0:
448,192,21592,128,0,21848:0:0:0:0:
320,192,21848,128,0,22361:0:0:0:0:
64,192,21848,128,0,22104:0:0:0:0:
64,192,22361,1,0,0:0:0:0:
192,192,22489,1,0,0:0:0:0:
320,192,22617,1,0,0:0:0:0:
448,192,22617,128,0,22874:0:0:0:0:
64,192,22874,1,0,0:0:0:0:
192,192,23002,128,0,23258:0:0:0:0:
320,192,23258,1,0,0:0:0:0:
448,192,23386,128,0,23643:0:0:0:0:
192,192,23643,1,0,0:0:0:0:
64,192,23771,128,0,24027:0:0:0:0:
448,192,24027,1,0,0:0:0:0:
320,192,24156,128,0,24412:0:0:0:0:
192,192,24412,1,0,0:0:0:0:
448,192,24540,128,0,24797:0:0:0:0:
320,192,24797,1,0,0:0:0:0:
64,192,24925,128,0,25181:0:0:0:0:
192,192,24925,128,0,25438:0:0:0:0:
320,192,25438,128,0,25694:0:0:0:0:
192,192,25694,128,0,25951:0:0:0:0:
448,192,25951,1,0,0:0:0:0:
320,192,26207,128,0,26720:0:0:0:0:
64,192,26463,128,0,26720:0:0:0:0:
192,192,26720,128,0,26976:0:0:0:0:
320,192,26976,128,0,27233:0:0:0:0:
64,192,27233,128,0,27489:0:0:0:0:
448,192,27233,128,0,27745:0:0:0:0:
320,192,27489,128,0,27745:0:0:0:0:
192,192,27745,128,0,28002:0:0:0:0:
64,192,28002,128,0,28515:0:0:0:0:
448,192,28002,128,0,28771:0:0:0:0:
64,192,28771,128,0,29284:0:0:0:0:
320,192,29027,128,0,29284:0:0:0:0:
192,192,29284,128,0,29797:0:0:0:0:
448,192,29540,128,0,30053:0:0:0:0:
320,192,29797,1,0,0:0:0:0:
192,192,30053,128,0,30566:0:0:0:0:
448,192,30309,128,0,30566:0:0:0:0:
320,192,30566,128,0,30822:0:0:0:0:
192,192,30822,1,0,0:0:0:0:
64,192,30951,1,0,0:0:0:0:
448,192,31079,128,0,31335:0:0:0:0:
192,192,31335,1,0,0:0:0:0:
320,192,31592,1,0,0:0:0:0:
64,192,31848,128,0,32104:0:0:0:0:
448,192,32361,1,0,0:0:0:0:
192,192,32489,1,0,0:0:0:0:
320,192,32617,128,0,32874:0:0:0:0:
64,192,32874,1,0,0:0:0:0:
192,192,33130,1,0,0:0:0:0:
448,192,33386,128,0,33771:0:0:0:0:
64,192,33899,1,0,0:0:0:0:
320,192,34027,1,0,0:0:0:0:
192,192,34156,128,0,34668:0:0:0:0:
448,192,34412,1,0,0:0:0:0:
64,192,34668,1,0,0:0:0:0:
320,192,34925,128,0,35438:0:0:0:0:
64,192,35181,1,0,0:0:0:0:
448,192,35438,1,0,0:0:0:0:
64,192,35694,128,0,36207:0:0:0:0:
320,192,35951,1,0,0:0:0:0:
192,192,36207,1,0,0:0:0:0:
64,192,36463,1,0,0:0:0:0:
448,192,36463,128,0,36976:0:0:0:0:
192,192,36976,1,0,0:0:0:0:
320,192,37104,1,0,0:0:0:0:
448,192,37233,1,0,0:0:0:0:
64,192,37233,128,0,37745:0:0:0:0:
192,192,37489,1,0,0:0:0:0:
448,192,37745,1,0,0:0:0:0:
192,192,38002,128,0,38515:0:0:0:0:
320,192,38002,1,0,0:0:0:0:
64,192,38258,1,0,0:0:0:0:
448,192,38515,1,0,0:0:0:0:
320,192,38771,128,0,39284:0:0:0:0:
192,192,38771,1,0,0:0:0:0:
448,192,39027,128,0,39284:0:0:0:0:
64,192,39284,128,0,39540:0:0:0:0:
192,192,39540,128,0,39797:0:0:0:0:
448,192,39540,128,0,40053:0:0:0:0:
320,192,39797,128,0,40053:0:0:0:0:
64,192,40053,128,0,40309:0:0:0:0:
448,192,40309,128,0,40566:0:0:0:0:
192,192,40566,1,0,0:0:0:0:
320,192,40694,1,0,0:0:0:0:
64,192,40822,1,0,0:0:0:0:
64,192,41079,1,0,0:0:0:0:
320,192,41207,1,0,0:0:0:0:
192,192,41335,1,0,0:0:0:0:
320,192,41463,1,0,0:0:0:0:
448,192,41592,1,0,0:0:0:0:
448,192,41848,1,0,0:0:0:0:
192,192,41848,128,0,42104:0:0:0:0:
320,192,42104,1,0,0:0:0:0:
64,192,42361,1,0,0:0:0:0:
448,192,42489,1,0,0:0:0:0:
320,192,42617,128,0,42874:0:0:0:0:
192,192,43130,1,0,0:0:0:0:
320,192,43258,1,0,0:0:0:0:
448,192,43386,128,0,43899:0:0:0:0:
64,192,43643,128,0,44156:0:0:0:0:
320,192,43899,128,0,44156:0:0:0:0:
192,192,44156,128,0,44412:0:0:0:0:
64,192,44412,128,0,44925:0:0:0:0:
448,192,44668,128,0,45181:0:0:0:0:
192,192,44925,128,0,45181:0:0:0:0:
320,192,45181,128,0,45694:0:0:0:0:
448,192,45438,128,0,45694:0:0:0:0:
192,192,45694,128,0,46207:0:0:0:0:
64,192,45694,1,0,0:0:0:0:
448,192,45951,1,0,0:0:0:0:
448,192,46207,1,0,0:0:0:0:
320,192,46463,128,0,46720:0:0:0:0:
192,192,46463,128,0,46976:0:0:0:0:
320,192,46976,1,0,0:0:0:0:
64,192,47233,128,0,47745:0:0:0:0:
192,192,47233,128,0,47489:0:0:0:0:
448,192,47489,128,0,47745:0:0:0:0:
320,192,47745,128,0,48002:0:0:0:0:
64,192,48002,1,0,0:0:0:0:
192,192,48002,128,0,48515:0:0:0:0:
64,192,48771,1,0,0:0:0:0:
320,192,48771,128,0,49284:0:0:0:0:
448,192,49027,128,0,49284:0:0:0:0:
192,192,49284,128,0,49540:0:0:0:0:
320,192,49540,128,0,50053:0:0:0:0:
64,192,49797,128,0,50053:0:0:0:0:
448,192,50053,128,0,50566:0:0:0:0:
192,192,50309,128,0,50822:0:0:0:0:
64,192,50566,128,0,50822:0:0:0:0:
320,192,50822,128,0,51335:0:0:0:0:
448,192,51079,128,0,51335:0:0:0:0:
192,192,51335,128,0,51848:0:0:0:0:
320,192,51592,128,0,52104:0:0:0:0:
64,192,51848,1,0,0:0:0:0:
448,192,52104,1,0,0:0:0:0:
192,192,52233,1,0,0:0:0:0:
320,192,52361,1,0,0:0:0:0:
64,192,52617,128,0,53130:0:0:0:0:
448,192,52617,1,0,0:0:0:0:
64,192,53386,1,0,0:0:0:0:
448,192,53386,128,0,53643:0:0:0:0:
320,192,53643,128,0,53899:0:0:0:0:
64,192,53899,128,0,54156:0:0:0:0:
448,192,54156,1,0,0:0:0:0:
192,192,54156,128,0,54540:0:0:0:0:
320,192,54540,1,0,0:0:0:0:
320,192,54925,128,0,55438:0:0:0:0:
64,192,55181,128,0,55438:0:0:0:0:
448,192,55438,128,0,55951:0:0:0:0:
64,192,55694,128,0,55951:0:0:0:0:
192,192,55951,128,0,56463:0:0:0:0:
448,192,56207,128,0,56463:0:0:0:0:
320,192,56463,128,0,56976:0:0:0:0:
192,192,56720,128,0,56976:0:0:0:0:
64,192,56976,128,0,57617:0:0:0:0:
320,192,57233,128,0,57617:0:0:0:0:
192,192,57617,1,0,0:0:0:0:
448,192,57745,1,0,0:0:0:0:
64,192,58002,128,0,58258:0:0:0:0:
320,192,58258,128,0,58515:0:0:0:0:
448,192,58515,128,0,58771:0:0:0:0:
64,192,58771,128,0,59284:0:0:0:0:
192,192,59027,1,0,0:0:0:0:
448,192,59284,1,0,0:0:0:0:
320,192,59540,128,0,59797:0:0:0:0:
192,192,59797,128,0,60053:0:0:0:0:
448,192,60053,128,0,60309:0:0:0:0:
320,192,60309,128,0,60822:0:0:0:0:
64,192,60566,1,0,0:0:0:0:
448,192,60822,1,0,0:0:0:0:
192,192,61079,128,0,61592:0:0:0:0:
320,192,61335,128,0,61592:0:0:0:0:
64,192,61592,128,0,61848:0:0:0:0:
448,192,61848,128,0,62361:0:0:0:0:
320,192,62104,128,0,62361:0:0:0:0:
64,192,62361,128,0,62617:0:0:0:0:
192,192,62617,128,0,63130:0:0:0:0:
320,192,62874,1,0,0:0:0:0:
448,192,63130,128,0,63386:0:0:0:0:
64,192,63386,128,0,63643:0:0:0:0:
320,192,63643,128,0,63899:0:0:0:0:
192,192,63899,128,0,64668:0:0:0:0:
448,192,64156,1,0,0:0:0:0:
320,192,64412,1,0,0:0:0:0:
64,192,64668,1,0,0:0:0:0:
448,192,64925,128,0,65438:0:0:0:0:
320,192,64925,1,0,0:0:0:0:
64,192,65181,1,0,0:0:0:0:
192,192,65438,1,0,0:0:0:0:
320,192,65694,128,0,65951:0:0:0:0:
64,192,65951,128,0,66207:0:0:0:0:
448,192,66207,128,0,66463:0:0:0:0:
192,192,66463,128,0,66976:0:0:0:0:
320,192,66720,1,0,0:0:0:0:
64,192,66976,1,0,0:0:0:0:
448,192,67233,128,0,67489:0:0:0:0:
192,192,67489,128,0,67745:0:0:0:0:
320,192,67745,128,0,68002:0:0:0:0:
64,192,68002,128,0,68515:0:0:0:0:
448,192,68002,1,0,0:0:0:0:
192,192,68258,128,0,68515:0:0:0:0:
448,192,68515,128,0,68771:0:0:0:0:
192,192,68771,128,0,69027:0:0:0:0:
320,192,69027,128,0,69284:0:0:0:0:
64,192,69284,128,0,69540:0:0:0:0:
192,192,69540,128,0,70053:0:0:0:0:
448,192,69797,1,0,0:0:0:0:
320,192,70053,1,0,0:0:0:0:
64,192,70309,1,0,0:0:0:0:
320,192,70438,1,0,0:0:0:0:
192,192,70566,1,0,0:0:0:0:
448,192,70694,1,0,0:0:0:0:
320,192,70822,128,0,71079:0:0:0:0:
64,192,71079,128,0,71592:0:0:0:0:
320,192,71335,1,0,0:0:0:0:
448,192,71592,128,0,71848:0:0:0:0:
192,192,71848,128,0,72104:0:0:0:0:
64,192,71848,1,0,0:0:0:0:
320,192,72104,128,0,72361:0:0:0:0:
64,192,72361,128,0,72617:0:0:0:0:
320,192,72617,1,0,0:0:0:0:
448,192,72617,128,0,72874:0:0:0:0:
192,192,72874,128,0,73130:0:0:0:0:
320,192,73130,128,0,73386:0:0:0:0:
448,192,73386,128,0,73899:0:0:0:0:
64,192,73643,1,0,0:0:0:0:
192,192,73899,1,0,0:0:0:0:
320,192,74156,128,0,74668:0:0:0:0:
64,192,74412,128,0,74925:0:0:0:0:
192,192,74668,128,0,74925:0:0:0:0:
448,192,74925,128,0,75438:0:0:0:0:
192,192,75181,128,0,75694:0:0:0:0:
320,192,75438,128,0,75694:0:0:0:0:
64,192,75694,128,0,76207:0:0:0:0:
448,192,75951,128,0,76463:0:0:0:0:
320,192,76207,128,0,76463:0:0:0:0:
64,192,76463,128,0,76976:0:0:0:0:
320,192,76720,128,0,77233:0:0:0:0:
192,192,76976,128,0,77233:0:0:0:0:
64,192,77233,128,0,77745:0:0:0:0:
448,192,77233,1,0,0:0:0:0:
192,192,77489,128,0,77745:0:0:0:0:
448,192,77745,128,0,78002:0:0:0:0:
64,192,78002,128,0,78258:0:0:0:0:
320,192,78258,128,0,78515:0:0:0:0:
192,192,78515,128,0,78771:0:0:0:0:
448,192,78771,128,0,79284:0:0:0:0:
320,192,79027,128,0,79284:0:0:0:0:
64,192,79284,128,0,79797:0:0:0:0:
448,192,79540,128,0,79797:0:0:0:0:
320,192,79797,128,0,80053:0:0:0:0:
192,192,80053,128,0,80309:0:0:0:0:
320,192,80309,128,0,80566:0:0:0:0:
448,192,80309,128,0,80822:0:0:0:0:
192,192,80566,128,0,81079:0:0:0:0:
320,192,80822,128,0,81335:0:0:0:0:
64,192,81079,128,0,81592:0:0:0:0:
192,192,81335,128,0,81592:0:0:0:0:
448,192,81592,128,0,81848:0:0:0:0:
192,192,81848,128,0,82104:0:0:0:0:
64,192,81848,128,0,82361:0:0:0:0:
448,192,82104,128,0,82617:0:0:0:0:
320,192,82361,128,0,82617:0:0:0:0:
192,192,82617,1,0,0:0:0:0:
320,192,82874,128,0,83130:0:0:0:0:
64,192,83130,128,0,83386:0:0:0:0:
192,192,83386,128,0,83643:0:0:0:0:
448,192,83386,128,0,84156:0:0:0:0:
320,192,83643,128,0,83899:0:0:0:0:
64,192,83899,128,0,84156:0:0:0:0:
320,192,84156,1,0,0:0:0:0:
192,192,84412,1,0,0:0:0:0:
448,192,84668,128,0,84925:0:0:0:0:
64,192,84925,128,0,85694:0:0:0:0:
320,192,84925,128,0,85181:0:0:0:0:
192,192,85181,128,0,85438:0:0:0:0:
448,192,85438,128,0,85694:0:0:0:0:
320,192,85694,128,0,86463:0:0:0:0:
192,192,86207,128,0,86463:0:0:0:0:
448,192,86463,128,0,86720:0:0:0:0:
64,192,86463,128,0,87745:0:0:0:0:
192,192,86720,128,0,86976:0:0:0:0:
448,192,86976,128,0,87233:0:0:0:0:
320,192,87233,128,0,87489:0:0:0:0:
192,192,87489,128,0,87745:0:0:0:0:
320,192,87745,128,0,88002:0:0:0:0:
64,192,88002,128,0,88386:0:0:0:0:
448,192,88002,128,0,88515:0:0:0:0:
192,192,88386,1,0,0:0:0:0:
320,192,88515,128,0,88771:0:0:0:0:
448,192,88771,1,0,0:0:0:0:
64,192,88771,128,0,89156:0:0:0:0:
320,192,89156,1,0,0:0:0:0:
192,192,89284,1,0,0:0:0:0:
448,192,89412,1,0,0:0:0:0:
320,192,89540,1,0,0:0:0:0:
64,192,89540,128,0,89797:0:0:0:0:
320,192,90053,128,0,90309:0:0:0:0:
192,192,90309,128,0,90566:0:0:0:0:
448,192,90309,1,0,0:0:0:0:
448,192,90822,128,0,91079:0:0:0:0:
64,192,91079,1,0,0:0:0:0:
192,192,91079,128,0,91335:0:0:0:0:
320,192,91335,128,0,91592:0:0:0:0:
448,192,91592,128,0,91848:0:0:0:0:
64,192,91848,128,0,92361:0:0:0:0:
320,192,91848,128,0,92104:0:0:0:0:
192,192,92361,1,0,0:0:0:0:
320,192,92489,1,0,0:0:0:0:
448,192,92617,128,0,93130:0:0:0:0:
192,192,92874,128,0,93130:0:0:0:0:
320,192,93130,128,0,93386:0:0:0:0:
448,192,93386,128,0,93643:0:0:0:0:
64,192,93386,128,0,93899:0:0:0:0:
448,192,93899,128,0,94412:0:0:0:0:
320,192,94156,128,0,94412:0:0:0:0:
64,192,94412,128,0,94925:0:0:0:0:
192,192,94668,128,0,94925:0:0:0:0:
448,192,94925,128,0,95438:0:0:0:0:
320,192,94925,1,0,0:0:0:0:
64,192,95181,1,0,0:0:0:0:
320,192,95438,1,0,0:0:0:0:
192,192,95566,1,0,0:0:0:0:
448,192,95694,128,0,95951:0:0:0:0:
64,192,95694,128,0,95951:0:0:0:0:
320,192,95951,1,0,0:0:0:0:
64,192,96207,1,0,0:0:0:0:
192,192,96463,128,0,96720:0:0:0:0:
320,192,96463,128,0,96720:0:0:0:0:
64,192,96720,1,0,0:0:0:0:
320,192,96976,1,0,0:0:0:0:
192,192,97233,128,0,97489:0:0:0:0:
448,192,97233,128,0,97489:0:0:0:0:
320,192,97489,128,0,97745:0:0:0:0:
192,192,97745,128,0,98002:0:0:0:0:
320,192,98002,128,0,98515:0:0:0:0:
64,192,98002,128,0,98258:0:0:0:0:
192,192,98515,1,0,0:0:0:0:
448,192,98643,1,0,0:0:0:0:
64,192,98771,128,0,99027:0:0:0:0:
320,192,99027,128,0,99540:0:0:0:0:
192,192,99284,128,0,99540:0:0:0:0:
64,192,99540,128,0,99797:0:0:0:0:
448,192,99540,128,0,100053:0:0:0:0:
320,192,99797,1,0,0:0:0:0:
192,192,100053,128,0,100566:0:0:0:0:
320,192,100309,128,0,100822:0:0:0:0:
448,192,100566,128,0,101079:0:0:0:0:
192,192,100822,1,0,0:0:0:0:
64,192,101079,128,0,101592:0:0:0:0:
320,192,101079,128,0,101335:0:0:0:0:
192,192,101335,128,0,101848:0:0:0:0:
448,192,101592,128,0,101848:0:0:0:0:
320,192,101848,128,0,102104:0:0:0:0:
64,192,102104,128,0,102361:0:0:0:0:
448,192,102361,128,0,102617:0:0:0:0:
192,192,102617,128,0,102874:0:0:0:0:
320,192,102874,128,0,103130:0:0:0:0:
64,192,103130,128,0,103386:0:0:0:0:
192,192,103386,128,0,103643:0:0:0:0:
448,192,103643,128,0,103899:0:0:0:0:
320,192,103899,128,0,104156:0:0:0:0:
64,192,104156,128,0,104412:0:0:0:0:
320,192,104412,128,0,104668:0:0:0:0:
192,192,104668,128,0,104925:0:0:0:0:
448,192,104925,128,0,105181:0:0:0:0:
192,192,105181,128,0,105438:0:0:0:0:
64,192,105438,128,0,105694:0:0:0:0:
320,192,105694,128,0,105951:0:0:0:0:
192,192,105951,128,0,106207:0:0:0:0:
448,192,106207,128,0,106463:0:0:0:0:
192,192,106463,128,0,106720:0:0:0:0:
320,192,106720,128,0,106976:0:0:0:0:
64,192,106976,128,0,107233:0:0:0:0:
448,192,107233,128,0,107489:0:0:0:0:
192,192,107489,128,0,107745:0:0:0:0:
320,192,107745,128,0,108002:0:0:0:0:
64,192,108002,1,0,0:0:0:0:
448,192,108256,1,0,0:0:0:0:
192,192,108511,1,0,0:0:0:0:
320,192,108766,1,0,0:0:0:0:
192,192,109021,1,0,0:0:0:0:
64,192,109275,1,0,0:0:0:0:
320,192,109530,1,0,0:0:0:0:
192,192,109785,1,0,0:0:0:0:
320,192,110040,1,0,0:0:0:0:
448,192,110294,1,0,0:0:0:0:
64,192,110549,1,0,0:0:0:0:
320,192,110804,1,0,0:0:0:0:
64,192,111059,128,0,111568:0:0:0:0:
192,192,111059,1,0,0:0:0:0:
448,192,111314,128,0,111823:0:0:0:0:
320,192,111568,1,0,0:0:0:0:
192,192,111823,128,0,112333:0:0:0:0:
64,192,111823,1,0,0:0:0:0:
320,192,112078,128,0,112587:0:0:0:0:
448,192,112333,1,0,0:0:0:0:
64,192,112587,128,0,113097:0:0:0:0:
448,192,112842,128,0,113352:0:0:0:0:
192,192,113097,1,0,0:0:0:0:
320,192,113352,128,0,113861:0:0:0:0:
192,192,113607,128,0,114116:0:0:0:0:
64,192,113861,1,0,0:0:0:0:
320,192,114116,1,0,0:0:0:0:
448,192,114116,128,0,120231:0:0:0:0:
