osu file format v14

[General]
AudioFilename: audio.mp3
AudioLeadIn: 0
PreviewTime: 7179
Countdown: 0
SampleSet: Soft
StackLeniency: 0.7
Mode: 2
LetterboxInBreaks: 0
WidescreenStoryboard: 0

[Editor]
Bookmarks: 148,6007,7179,7648,22648,37648,52648,60148,65773,67648,78663,83663
DistanceSpacing: 1.3
BeatDivisor: 4
GridSize: 32
TimelineZoom: 0.9

[Metadata]
Title:Ame to Taieki to Nioi (TV Size)
TitleUnicode:雨と体液と匂い (TV Size)
Artist:Mili
ArtistUnicode:Mili
Creator:Mniam
Version:Scent
Source:グレイプニル
Tags:gleipnir Yamato Kasai ending ed japanese anime momocashew Juansy- j-pop jpop pop
BeatmapID:3380135
BeatmapSetID:1655963

[Difficulty]
HPDrainRate:5.8
CircleSize:5.8
OverallDifficulty:8.7
ApproachRate:8.7
SliderMultiplier:2.33
SliderTickRate:1

[Events]
//Background and Video events
0,0,"gleipnir-outro-1.jpg",0,0
Video,-512,"GleipnirEnding.mp4"
//Break Periods
//Storyboard Layer 0 (Background)
//Storyboard Layer 1 (Fail)
//Storyboard Layer 2 (Pass)
//Storyboard Layer 3 (Foreground)
//Storyboard Layer 4 (Overlay)
//Storyboard Sound Samples

[TimingPoints]
148,468.75,4,2,1,30,1,0
148,-38.8592394929953,4,2,1,30,0,0
7179,-38.8592394929953,4,2,1,20,0,0
7648,-38.8592394929953,4,2,1,40,0,0
22648,-38.8592394929953,4,2,1,40,0,1
26398,-38.8592394929953,4,2,1,40,0,0
37648,-38.8592394929953,4,2,1,30,0,0
67648,-38.8592394929953,4,2,1,40,0,0
78898,-38.8592394929953,4,2,1,30,0,0
80773,-38.8592394929953,4,2,1,29,0,0
81085,-38.8592394929953,4,2,1,28,0,0
81398,-38.8592394929953,4,2,1,27,0,0
81710,-38.8592394929953,4,2,1,26,0,0
82023,-38.8592394929953,4,2,1,25,0,0
82335,-38.8592394929953,4,2,1,24,0,0
82648,-38.8592394929953,4,2,1,23,0,0
83585,-38.8592394929953,4,2,1,20,0,0

[Colours]
Combo1 : 227,214,183
Combo2 : 220,163,192
Combo3 : 129,181,201

[HitObjects]
165,306,148,6,0,L|170:383|170:383|158:261|158:261,1,199.866666666667,10|2,0:0|0:0,0:0:0:0:
236,125,460,1,0,0:0:0:0:
81,70,616,2,0,B|109:154|109:154|132:239|132:239|154:325|154:325|214:205|214:205,1,399.733333333333,10|2,0:0|0:0,0:0:0:0:
371,300,1085,6,0,L|364:377|364:377|378:255|378:255,1,199.866666666667,8|2,0:0|0:0,0:0:0:0:
300,119,1397,1,0,0:0:0:0:
456,107,1554,1,10,0:0:0:0:
178,44,1866,1,2,0:0:0:0:
334,311,2023,6,0,L|336:234|336:234|341:111|341:111,1,199.866666666667,10|2,0:0|0:0,0:0:0:0:
263,130,2335,1,0,0:0:0:0:
418,75,2491,2,0,B|396:161|396:161|376:247|376:247|340:328|340:328|285:205|285:205,1,399.733333333333,10|2,0:0|0:0,0:0:0:0:
128,305,2960,6,0,L|131:382|131:382|121:259|121:259,1,199.866666666667,8|2,0:0|0:0,0:0:0:0:
199,124,3272,1,0,0:0:0:0:
43,112,3429,1,10,0:0:0:0:
321,49,3741,1,10,0:3:0:0:
87,293,3898,6,0,L|91:370|91:370|94:247|94:247,1,199.866666666667,10|2,0:3|0:0,0:0:0:0:
172,178,4210,1,0,0:0:0:0:
327,304,4366,2,0,B|285:382|285:382|257:298|257:298|234:213|234:213|193:85|193:85,1,399.733333333333,10|2,0:0|0:0,0:0:0:0:
349,285,4835,6,0,L|344:362|344:362|342:239|342:239,1,199.866666666667,8|2,0:0|0:0,0:0:0:0:
264,170,5147,1,0,0:0:0:0:
108,195,5304,1,10,0:0:0:0:
387,152,5616,1,10,0:0:0:0:
231,203,5773,6,0,L|243:279|243:279|238:156|238:156,1,199.866666666667,10|2,0:0|0:0,0:0:0:0:
316,88,6085,1,0,0:0:0:0:
161,161,6241,2,0,L|168:238|168:238|168:361|168:361,1,199.866666666667,10|0,0:0|0:0,0:0:0:0:
246,46,6553,1,2,0:0:0:0:
402,94,6710,1,8,0:0:0:0:
206,119,7179,6,0,L|240:227|240:227|285:331|285:331|331:227|331:227|400:83|400:83,1,499.666666666668,2|0,0:0|0:0,0:0:0:0:
203,319,7648,6,0,B|193:193|193:193|204:20|204:20,1,299.8,10|0,0:0|0:0,0:0:0:0:
437,262,8116,2,0,L|396:382|396:382|320:226|320:226,1,299.8,10|0,1:2|0:0,0:0:0:0:
258,221,8507,1,2,0:1:0:0:
355,196,8585,2,0,B|362:323|362:323|354:150|354:150,1,299.8,8|0,0:0|0:0,0:0:0:0:
120,227,9054,2,0,L|157:308|157:308|187:225|187:225|231:148|231:148|275:21|275:21,1,399.733333333333,10|10,0:0|0:0,0:0:0:0:
41,186,9523,6,0,B|29:312|29:312|42:140|42:140,1,299.8,10|0,0:0|0:0,0:0:0:0:
275,128,9991,2,0,L|226:245|226:245|158:86|158:86,1,299.8,8|0,1:2|0:0,0:0:0:0:
221,234,10382,1,2,0:1:0:0:
124,209,10460,2,0,B|103:334|103:334|125:163|125:163,1,299.8,10|0,0:0|0:0,0:0:0:0:
359,210,10929,2,0,B|380:335|380:335|358:164|358:164,1,299.8,10|2,0:0|0:0,0:0:0:0:
42,275,11398,6,0,L|101:163|101:163|158:326|158:326,1,299.8,10|0,0:0|0:0,0:0:0:0:
391,229,11866,2,0,L|350:349|350:349|274:193|274:193,1,299.8,10|0,1:2|0:0,0:0:0:0:
352,168,12257,1,2,0:1:0:0:
449,166,12335,2,0,B|456:293|456:293|448:120|448:120,1,299.8,10|0,0:0|0:0,0:0:0:0:
237,58,12804,1,10,0:0:0:0:
447,54,13038,1,2,0:0:0:0:
132,171,13273,6,0,L|73:284|73:284|16:121|16:121,1,299.8,10|0,0:0|0:0,0:0:0:0:
248,230,13741,2,0,L|297:347|297:347|364:188|364:188,1,299.8,10|0,1:2|0:0,0:0:0:0:
287,195,14132,1,2,0:1:0:0:
190,193,14210,2,0,B|180:319|180:319|191:146|191:146,1,299.8,8|0,0:0|0:0,0:0:0:0:
413,144,14679,2,0,L|379:225|379:225|334:301|334:301|313:215|313:215|258:92|258:92,1,399.733333333333,10|8,0:0|0:0,0:0:0:0:
492,203,15148,6,0,B|503:329|503:329|491:157|491:157,1,299.8,10|0,0:0|0:0,0:0:0:0:
257,143,15616,2,0,L|299:263|299:263|374:107|374:107,1,299.8,10|0,1:2|0:0,0:0:0:0:
311,238,16007,1,2,0:1:0:0:
408,213,16085,2,0,B|412:340|412:340|407:167|407:167,1,299.8,8|0,0:0|0:0,0:0:0:0:
173,188,16554,2,0,L|129:265|129:265|96:347|96:347|61:266|61:266|18:139|18:139,1,399.733333333333,10|2,0:0|0:0,0:0:0:0:
252,138,17023,6,0,L|296:257|296:257|368:100|368:100,1,299.8,10|0,0:0|0:0,0:0:0:0:
136,228,17491,2,0,L|194:341|194:341|252:178|252:178,1,299.8,8|0,1:2|0:0,0:0:0:0:
315,173,17882,1,2,0:1:0:0:
218,171,17960,2,0,B|201:297|201:297|219:125|219:125,1,299.8,10|0,0:0|0:0,0:0:0:0:
453,235,18429,2,0,B|473:360|473:360|452:188|452:188,1,299.8,10|0,0:0|0:0,0:0:0:0:
136,179,18898,6,0,L|94:299|94:299|20:143|20:143,1,299.8,10|0,0:0|0:0,0:0:0:0:
252,107,19366,2,0,L|193:219|193:219|136:382|136:382,1,299.8,8|0,1:2|0:0,0:0:0:0:
198,247,19757,1,2,0:1:0:0:
101,245,19835,2,0,B|91:371|91:371|102:198|102:198,1,299.8,10|0,0:0|0:0,0:0:0:0:
335,188,20304,2,0,L|292:265|292:265|265:349|265:349|237:265|237:265|180:143|180:143,1,399.733333333333,8|8,0:0|0:0,0:0:0:0:
414,256,20773,6,0,B|427:382|427:382|413:210|413:210,1,299.8,10|0,0:0|0:0,0:0:0:0:
180,200,21241,2,0,L|234:315|234:315|296:154|296:154,1,299.8,8|0,1:2|0:0,0:0:0:0:
234,170,21632,1,2,0:1:0:0:
331,168,21710,2,0,B|345:294|345:294|330:122|330:122,1,299.8,8|0,0:0|0:0,0:0:0:0:
108,54,22179,1,10,0:0:0:0:
329,56,22413,1,2,0:0:0:0:
43,240,22648,6,0,B|47:328|47:328|58:240|58:240|71:153|71:153|127:31|127:31,1,399.733333333333,10|2,0:0|0:0,0:0:0:0:
282,212,23116,2,0,L|259:285|259:285|205:175|205:175,1,199.866666666667,8|2,1:2|0:0,0:0:0:0:
308,144,23507,1,2,0:1:0:0:
404,123,23585,2,0,L|376:219|376:219|327:306|327:306|359:376|359:376|404:262|404:262,2,199.866666666667,10|2|2,0:0|0:0|0:0,0:0:0:0:
249,105,24054,1,10,0:0:0:0:
404,218,24210,2,0,L|411:295|411:295|407:172|407:172,1,199.866666666667,0|10,0:0|0:0,0:0:0:0:
173,220,24523,6,0,L|198:293|198:293|250:182|250:182,1,199.866666666667,10|0,0:0|0:0,0:0:0:0:
406,265,24835,2,0,L|377:336|377:336|329:223|329:223,1,199.866666666667,2|8,0:0|1:2,0:0:0:0:
173,220,25148,2,0,L|193:294|193:294|250:185|250:185,1,199.866666666667,2|0,0:0|0:0,0:0:0:0:
258,165,25382,1,2,0:1:0:0:
93,140,25460,2,0,L|72:214|72:214|16:323|16:323,1,199.866666666667,10|0,0:0|0:0,0:0:0:0:
218,145,25773,2,0,L|215:222|215:222|218:345|218:345,1,199.866666666667,2|8,0:0|0:0,0:0:0:0:
419,140,26085,2,0,L|438:214|438:214|496:322|496:322,1,199.866666666667,2|0,0:0|0:0,0:0:0:0:
262,284,26398,6,0,B|243:159|243:159|263:331|263:331,1,299.8,10|0,0:0|0:0,0:0:0:0:
495,229,26866,2,0,L|440:343|440:343|378:181|378:181,1,299.8,8|0,1:2|0:0,0:0:0:0:
317,184,27257,1,2,0:1:0:0:
414,182,27335,2,0,B|426:308|426:308|413:136|413:136,1,299.8,10|0,0:0|0:0,0:0:0:0:
179,67,27804,2,0,L|126:182|126:182|62:343|62:343,1,299.8,8|0,0:0|0:0,0:0:0:0:
378,290,28273,6,0,B|383:163|383:163|377:336|377:336,1,299.8,10|0,0:0|0:0,0:0:0:0:
144,239,28741,2,0,L|201:352|201:352|260:190|260:190,1,299.8,8|0,1:2|0:0,0:0:0:0:
198,187,29132,1,2,0:1:0:0:
295,185,29210,2,0,B|310:311|310:311|294:139|294:139,1,299.8,10|0,0:0|0:0,0:0:0:0:
60,97,29679,2,0,L|104:187|104:187|138:281|138:281|105:350|105:350|60:236|60:236,2,199.866666666667,8|8|8,0:0|0:0|0:0,0:0:0:0:
294,235,30148,6,0,L|338:354|338:354|410:197|410:197,1,299.8,10|0,0:0|0:0,0:0:0:0:
178,154,30616,2,0,L|225:272|225:272|294:114|294:114,1,299.8,8|0,1:2|0:0,0:0:0:0:
217,209,31007,1,2,0:1:0:0:
120,207,31085,2,0,B|111:334|111:334|121:161|121:161,1,299.8,8|0,0:0|0:0,0:0:0:0:
355,70,31554,2,0,L|409:185|409:185|472:346|472:346,1,299.8,8|0,0:0|0:0,0:0:0:0:
156,240,32023,6,0,L|103:355|103:355|40:194|40:194,1,299.8,8|0,0:0|0:0,0:0:0:0:
272,161,32491,2,0,L|215:274|215:274|156:112|156:112,1,299.8,8|0,1:2|0:0,0:0:0:0:
234,216,32882,1,2,0:1:0:0:
331,214,32960,2,0,L|376:332|376:332|448:175|448:175,1,299.8,8|0,0:0|0:0,0:0:0:0:
214,92,33429,2,0,L|158:206|158:206|98:368|98:368,1,299.8,8|0,0:0|0:0,0:0:0:0:
413,290,33898,6,0,B|426:164|426:164|412:336|412:336,1,299.8,10|0,0:0|0:0,0:0:0:0:
179,116,34366,2,0,L|238:228|238:228|296:65|296:65,1,299.8,8|0,1:2|0:0,0:0:0:0:
217,209,34757,1,2,0:1:0:0:
120,207,34835,2,0,B|115:334|115:334|121:161|121:161,1,299.8,8|0,0:0|0:0,0:0:0:0:
353,79,35304,2,0,B|385:161|385:161|416:244|416:244|453:324|453:324|480:192|480:192,1,399.733333333333,8|8,0:0|0:0,0:0:0:0:
246,282,35773,6,0,B|231:156|231:156|247:328|247:328,1,299.8,8|0,0:0|0:0,0:0:0:0:
480,224,36241,2,0,L|431:341|431:341|364:182|364:182,1,299.8,8|0,1:2|0:0,0:0:0:0:
280,196,36632,1,2,0:1:0:0:
377,198,36710,2,0,L|401:323|401:323|457:159|457:159,1,299.8,8|0,0:0|0:0,0:0:0:0:
130,110,37179,2,0,L|89:230|89:230|14:386|14:386,1,299.8,8|0,0:0|0:0,0:0:0:0:
364,143,37648,5,8,0:0:0:0:
368,152,38116,2,0,B|372:279|372:279|371:106|371:106,1,299.8,2|2,0:0|0:0,0:0:0:0:
139,191,38819,1,8,0:2:0:0:
256,254,39054,1,2,0:0:0:0:
489,253,39288,1,10,0:2:0:0:
139,191,39523,5,8,0:2:0:0:
309,251,39991,2,0,B|329:376|329:376|312:204|312:204,1,299.8,2|2,0:0|0:0,0:0:0:0:
80,191,40694,1,8,0:2:0:0:
196,191,40929,2,0,L|143:306|143:306|80:145|80:145,1,299.8,2|2,0:0|0:0,0:0:0:0:
419,293,41398,6,0,B|439:359|439:359|473:299|473:299|489:232|489:232|493:163|493:163|486:94|486:94|483:25|483:25|450:86|450:86|411:194|411:194,1,599.6,10|0,0:2|0:0,0:0:0:0:
294,183,42101,1,2,0:0:0:0:
61,190,42335,2,0,L|104:309|104:309|178:152|178:152,1,299.8,2|8,0:0|0:0,0:0:0:0:
294,183,42804,1,2,0:0:0:0:
61,104,43038,1,10,0:0:0:0:
416,192,43273,5,8,0:0:0:0:
416,192,43507,1,2,0:0:0:0:
96,192,44444,1,8,0:0:0:0:
416,192,45148,5,8,0:0:0:0:
184,192,45616,1,2,0:0:0:0:
416,192,45851,1,10,0:0:0:0:
126,191,46554,2,0,L|81:309|81:309|10:152|10:152,1,299.8,2|2,0:0|0:0,0:0:0:0:
360,296,47023,6,0,B|384:361|384:361|403:295|403:295|429:231|429:231|433:162|433:162|437:93|437:93|415:27|415:27|385:89|385:89|352:199|352:199,1,599.6,10|2,0:0|0:0,0:0:0:0:
118,198,47726,2,0,L|146:261|146:261|172:325|172:325|208:384|208:384|233:319|233:319|252:253|252:253|270:186|270:186|300:123|300:123|351:20|351:20,1,599.6,10|2,0:0|0:0,0:0:0:0:
118,198,48429,1,2,0:0:0:0:
490,280,48898,6,0,L|457:341|457:341|437:275|437:275|400:217|400:217|387:149|387:149|347:92|347:92|335:24|335:24|307:87|307:87|257:191|257:191,1,599.6,10|2,0:0|0:0,0:0:0:0:
491,202,49601,1,10,0:0:0:0:
286,120,50304,2,0,L|333:238|333:238|402:80|402:80,1,299.8,2|2,0:0|0:0,0:0:0:0:
87,296,50773,6,0,B|67:362|67:362|28:305|28:305|27:236|27:236|13:168|13:168|23:100|23:100|33:32|33:32|55:97|55:97|95:205|95:205,1,599.6,10|2,0:0|0:0,0:0:0:0:
329,196,51476,2,0,B|309:262|309:262|280:325|280:325|254:261|254:261|223:199|223:199|214:130|214:130|216:61|216:61|219:130|219:130|236:244|236:244,1,599.6,10|0,0:0|0:0,0:0:0:0:
470,96,52179,1,8,0:0:0:0:
121,303,52648,6,0,B|152:371|152:371|172:299|172:299|197:228|197:228|237:165|237:165|256:93|256:93|277:21|277:21|311:88|311:88|333:160|333:160|357:231|357:231|374:304|374:304|386:378|386:378|374:304|374:304|378:229|378:229|368:155|368:155|377:81|377:81|353:10|353:10|314:131|314:131|256:294|256:294,1,1499,2|2,0:0|0:0,0:0:0:0:
149,29,54054,1,2,0:0:0:0:
256,29,54288,1,2,0:0:0:0:
149,29,54523,6,0,B|166:102|166:102|205:166|205:166|234:235|234:235|265:303|265:303|283:376|283:376|320:311|320:311|337:238|337:238|366:169|366:169|395:100|395:100|413:27|413:27|421:102|421:102|434:176|434:176|443:250|443:250|452:324|452:324|447:249|447:249|445:174|445:174|440:105|440:105|413:41|413:41|410:110|410:110|389:176|389:176|360:239|360:239|353:308|353:308|310:362|310:362|275:252|275:252,1,1798.8,2|2,0:0|0:0,0:0:0:0:
159,349,56163,1,2,0:0:0:0:
390,304,56398,6,0,B|408:377|408:377|427:305|427:305|433:230|433:230|445:156|445:156|439:81|439:81|452:7|452:7|448:82|448:82|428:154|428:154|423:229|423:229|396:299|396:299|369:369|369:369|347:297|347:297|321:227|321:227|283:162|283:162|264:90|264:90|234:21|234:21|194:141|194:141|134:303|134:303,1,1499,2|2,0:0|0:0,0:0:0:0:
251,66,57804,1,2,0:0:0:0:
367,77,58038,1,2,0:0:0:0:
250,302,58273,6,0,B|227:373|227:373|213:299|213:299|190:228|190:228|176:154|176:154|178:79|178:79|187:5|187:5|181:80|181:80|194:154|194:154|209:222|209:222|237:285|237:285|259:351|259:351|279:285|279:285|294:217|294:217|329:157|329:157|344:89|344:89|395:192|395:192,1,1199.2,2|2,0:0|0:0,0:0:0:0:
22,55,59679,1,2,0:0:0:0:
447,76,60148,6,0,B|460:144|460:144|484:209|484:209|495:277|495:277|489:346|489:346|458:284|458:284|445:216|445:216|418:152|418:152|376:45|376:45,1,599.6,10|2,0:3|0:0,0:0:0:0:
259,162,60851,1,2,0:0:0:0:
481,257,61319,2,0,L|453:327|453:327|429:256|429:256|394:190|394:190|365:121|365:121|408:2|408:2|481:159|481:159,2,299.8,2|2|2,0:0|0:0|0:0,0:0:0:0:
246,192,62023,6,0,L|206:312|206:312|130:157|130:157,1,299.8,10|2,0:3|0:0,0:0:0:0:
246,192,62491,2,0,B|271:263|271:263|306:329|306:329|320:255|320:255|364:194|364:194|369:119|369:119|391:47|391:47|407:120|407:120|409:195|409:195|397:263|397:263|390:332|390:332|371:265|371:265|355:198|355:198|321:138|321:138|302:71|302:71|274:8|274:8|236:117|236:117,1,1199.2,2|2,0:0|0:0,0:0:0:0:
353,122,63663,1,2,0:0:0:0:
118,153,63898,5,10,0:3:0:0:
118,153,64132,2,0,B|139:225|139:225|147:300|147:300|175:370|175:370|211:304|211:304|237:234|237:234|254:161|254:161|281:91|281:91|298:18|298:18|317:143|317:143|288:313|288:313,1,899.4,2|2,0:0|0:0,0:0:0:0:
59,54,65304,1,2,0:0:0:0:
479,240,65773,6,0,B|497:366|497:366|481:194|481:194,1,299.8,10|0,0:3|0:0,0:0:0:0:
256,237,66241,2,0,L|259:364|259:364|256:191|256:191,1,299.8,8|0,0:3|0:0,0:0:0:0:
33,240,66710,2,0,B|25:367|25:367|34:194|34:194,1,299.8,10|0,0:3|0:0,0:0:0:0:
256,237,67179,2,0,L|305:354|305:354|372:195|372:195,1,299.8,8|0,0:3|0:0,0:0:0:0:
57,232,67648,6,0,B|42:319|42:319|24:232|24:232|19:144|19:144|53:14|53:14,1,399.733333333333,10|2,0:0|0:0,0:0:0:0:
131,83,68116,2,0,L|186:197|186:197|247:359|247:359,1,299.8,8|2,0:0|0:0,0:0:0:0:
234,113,68429,1,8,0:3:0:0:
83,167,68585,2,0,B|108:252|108:252|123:339|123:339|175:267|175:267|217:139|217:139,1,399.733333333333,8|2,1:2|0:0,0:0:0:0:
233,166,69054,1,8,0:0:0:0:
78,132,69210,2,0,L|68:208|68:208|73:331|73:331,1,199.866666666667,2|8,0:0|0:0,0:0:0:0:
307,206,69523,6,0,B|323:273|323:273|364:329|364:329|379:261|379:261|371:192|371:192|368:123|368:123|355:55|355:55|347:124|347:124|301:230|301:230,1,599.6,10|8,0:0|0:0,0:0:0:0:
146,71,70148,1,2,0:0:0:0:
296,96,70304,1,2,0:0:0:0:
141,207,70460,2,0,B|122:274|122:274|94:337|94:337|70:272|70:272|70:203|70:203|73:134|73:134|88:67|88:67|96:136|96:136|147:239|147:239,1,599.6,10|10,1:2|0:0,0:0:0:0:
225,57,71085,1,2,0:0:0:0:
147,58,71241,1,2,0:0:0:0:
380,239,71398,6,0,B|401:305|401:305|432:367|432:367|435:298|435:298|459:233|459:233|448:165|448:165|445:96|445:96|422:31|422:31|374:136|374:136,1,599.6,10|8,0:0|0:0,0:0:0:0:
257,94,72101,1,2,0:0:0:0:
297,124,72179,1,8,0:3:0:0:
257,94,72257,1,0,0:0:0:0:
164,180,72335,2,0,L|167:268|167:268|162:356|162:356|154:268|154:268|151:134|151:134,1,399.733333333333,10|2,1:2|0:0,0:0:0:0:
246,211,72804,2,0,B|230:298|230:298|187:375|187:375|159:291|159:291|112:165|112:165,1,399.733333333333,8|8,0:0|0:0,0:0:0:0:
346,282,73273,6,0,B|377:344|377:344|386:275|386:275|414:212|414:212|422:143|422:143|421:74|421:74|407:6|407:6|381:70|381:70|340:178|340:178,1,599.6,10|10,0:0|0:0,0:0:0:0:
251,118,73898,1,2,0:0:0:0:
400,88,74054,1,2,0:0:0:0:
244,266,74210,2,0,B|222:332|222:332|186:273|186:273|177:204|177:204|165:136|165:136|173:67|173:67|196:2|196:2|216:68|216:68|250:178|250:178,1,599.6,10|8,1:2|0:0,0:0:0:0:
367,216,74913,2,0,L|369:366|369:366,1,149.9,2|2,0:0|0:0,0:0:0:0:
180,308,75148,6,0,L|144:376|144:376|104:260|104:260,1,199.866666666667,10|0,0:0|0:0,0:0:0:0:
259,265,75460,2,0,L|253:342|253:342|253:219|253:219,1,199.866666666667,2|8,0:0|0:0,0:0:0:0:
409,286,75773,2,0,L|389:360|389:360|333:250|333:250,1,199.866666666667,2|0,0:0|0:0,0:0:0:0:
178,174,76085,2,0,L|173:251|173:251|170:374|170:374,1,199.866666666667,10|0,1:2|0:0,0:0:0:0:
328,174,76398,2,0,L|330:251|330:251|336:374|336:374,1,199.866666666667,2|8,0:0|0:0,0:0:0:0:
178,174,76710,2,0,L|144:243|144:243|101:358|101:358,1,199.866666666667,2|8,0:0|0:0,0:0:0:0:
335,283,77023,6,0,B|369:343|369:343|385:276|385:276|399:208|399:208|402:139|402:139|409:70|409:70|387:4|387:4|372:72|372:72|329:179|329:179,1,599.6,10|8,0:0|0:0,0:0:0:0:
251,136,77648,1,0,0:0:0:0:
173,138,77804,1,0,0:0:0:0:
335,283,77960,2,0,B|361:347|361:347|391:285|391:285|411:219|411:219|419:150|419:150|426:81|426:81|442:14|442:14|431:82|431:82|387:188|387:188,1,599.6,8|8,1:2|0:0,0:0:0:0:
270,100,78663,1,2,0:0:0:0:
311,86,78741,1,2,0:0:0:0:
323,56,78819,1,2,0:0:0:0:
171,157,78898,6,0,L|126:246|126:246|89:339|89:339|65:242|65:242|16:155|16:155|50:73|50:73|92:151|92:151|129:231|129:231|171:359|171:359,2,399.733333333333,10|2|8,0:0|0:0|0:0,0:0:0:0:
452,221,79835,2,0,L|411:312|411:312|373:219|373:219|326:131|326:131|297:35|297:35|325:119|325:119|364:198|364:198|395:281|395:281|452:159|452:159,2,399.733333333333,10|10|0,1:2|0:0|0:0,0:0:0:0:
171,363,80773,5,8,0:0:0:0:
50,270,81085,1,0,0:0:0:0:
34,121,81398,1,0,0:0:0:0:
134,8,81710,1,2,0:0:0:0:
278,19,82023,1,2,0:0:0:0:
391,108,82335,1,2,0:0:0:0:
386,259,82648,1,2,0:0:0:0:
208,201,83585,5,2,0:0:0:0:
297,193,83663,1,2,0:1:0:0:
