osu file format v14

[General]
AudioFilename: audio.mp3
AudioLeadIn: 0
PreviewTime: 7179
Countdown: 0
SampleSet: Soft
StackLeniency: 0.7
Mode: 2
LetterboxInBreaks: 0
WidescreenStoryboard: 1

[Editor]
Bookmarks: 148,6007,7179,7648,22648,23507,37648,52648,60148,65773,67648,78663,83663
DistanceSpacing: 1.3
BeatDivisor: 3
GridSize: 32
TimelineZoom: 1

[Metadata]
Title:Ame to Taieki to Nioi (TV Size)
TitleUnicode:雨と体液と匂い (TV Size)
Artist:Mili
ArtistUnicode:Mili
Creator:Mniam
Version:Platter
Source:グレイプニル
Tags:gleipnir Yamato Kasai ending ed japanese anime momocashew Juansy- j-pop jpop pop
BeatmapID:3380133
BeatmapSetID:1655963

[Difficulty]
HPDrainRate:4.3
CircleSize:4.3
OverallDifficulty:7.8
ApproachRate:7.8
SliderMultiplier:2.11
SliderTickRate:1

[Events]
//Background and Video events
0,0,"gleipnir-outro-1.jpg",0,0
Video,-512,"GleipnirEnding.mp4"
//Break Periods
//Storyboard Layer 0 (Background)
//Storyboard Layer 1 (Fail)
//Storyboard Layer 2 (Pass)
//Storyboard Layer 3 (Foreground)
//Storyboard Layer 4 (Overlay)
//Storyboard Sound Samples

[TimingPoints]
148,468.75,4,2,1,30,1,0
148,-36.8108862526169,4,2,1,30,0,0
7179,-36.8108862526169,4,2,1,20,0,0
7648,-36.8108862526169,4,2,1,40,0,0
22648,-36.8108862526169,4,2,1,40,0,1
26398,-36.8108862526169,4,2,1,40,0,0
37648,-36.8108862526169,4,2,1,30,0,0
67648,-36.8108862526169,4,2,1,40,0,0
71866,-36.8108862526169,4,2,3,40,0,0
72101,-36.8108862526169,4,2,1,40,0,0
74679,-36.8108862526169,4,2,3,40,0,0
74913,-36.8108862526169,4,2,1,40,0,0
77491,-36.8108862526169,4,2,3,40,0,0
77804,-36.8108862526169,4,2,1,40,0,0
78429,-36.8108862526169,4,2,3,40,0,0
78663,-36.8108862526169,4,2,1,40,0,0
78898,-36.8108862526169,4,2,1,30,0,0
80773,-36.8108862526169,4,2,1,29,0,0
81085,-36.8108862526169,4,2,1,28,0,0
81398,-36.8108862526169,4,2,1,27,0,0
81710,-36.8108862526169,4,2,1,26,0,0
82023,-36.8108862526169,4,2,1,25,0,0
82335,-36.8108862526169,4,2,1,24,0,0
82648,-36.8108862526169,4,2,1,23,0,0
83585,-36.8108862526169,4,2,1,20,0,0

[Colours]
Combo1 : 227,214,183
Combo2 : 220,163,192
Combo3 : 129,181,201

[HitObjects]
325,192,148,6,0,L|302:273|302:273|268:351|268:351|233:274|233:274|184:155|184:155,1,382.133333333334,10|0,0:0|0:0,0:0:0:0:
256,192,616,2,0,B|277:274|277:274|293:357|293:357|297:273|297:273|258:150|258:150,1,382.133333333334,10|2,0:0|0:0,0:0:0:0:
114,191,1085,6,0,L|79:280|79:280|44:369|44:369|78:304|78:304|114:192|114:192,2,191.066666666667,8|2|0,0:0|0:0|0:0,0:0:0:0:
185,192,1554,2,0,L|158:272|158:272|129:351|129:351|93:274|93:274|44:155|44:155,1,382.133333333334,10|2,0:0|0:0,0:0:0:0:
185,192,2023,6,0,L|208:273|208:273|245:349|245:349|283:273|283:273|326:152|326:152,1,382.133333333334,10|0,0:0|0:0,0:0:0:0:
255,192,2491,2,0,B|223:270|223:270|218:354|218:354|217:269|217:269|253:146|253:146,1,382.133333333334,10|2,0:0|0:0,0:0:0:0:
326,192,2960,6,0,L|351:284|351:284|396:368|396:368|360:304|360:304|326:191|326:191,2,191.066666666667,8|2|0,0:0|0:0|0:0,0:0:0:0:
256,192,3429,2,0,L|280:273|280:273|322:346|322:346|358:270|358:270|397:147|397:147,1,382.133333333334,10|10,0:0|0:3,0:0:0:0:
177,186,3898,6,0,B|167:270|167:270|188:352|188:352|208:270|208:270|257:151|257:151,1,382.133333333334,10|0,0:3|0:0,0:0:0:0:
329,176,4366,2,0,B|366:252|366:252|377:336|377:336|371:252|371:252|331:130|331:130,1,382.133333333334,10|2,0:0|0:0,0:0:0:0:
190,189,4835,6,0,L|181:262|181:262|186:379|186:379,1,191.066666666667,8|2,0:0|0:0,0:0:0:0:
256,76,5147,1,0,0:0:0:0:
326,169,5304,2,0,L|303:250|303:250|274:329|274:329|241:251|241:251|185:135|185:135,1,382.133333333334,10|10,0:0|0:0,0:0:0:0:
326,169,5773,6,0,B|321:253|321:253|306:336|306:336|291:253|291:253|245:133|245:133,1,382.133333333334,10|0,0:0|0:0,0:0:0:0:
174,237,6241,2,0,B|148:317|148:317|127:235|127:235|122:151|122:151|172:32|172:32,1,382.133333333334,10|2,0:0|0:0,0:0:0:0:
317,158,6710,1,8,0:0:0:0:
317,158,7179,6,0,B|349:236|349:236|361:320|361:320|353:236|353:236|320:112|320:112,1,382.133333333334,2|0,0:0|0:0,0:0:0:0:
100,198,7648,6,0,L|88:319|88:319|93:154|93:154,1,286.6,10|0,0:0|0:0,0:0:0:0:
303,187,8116,2,0,L|249:296|249:296|198:139|198:139,1,286.6,10|0,1:2|0:0,0:0:0:0:
268,186,8507,1,2,0:1:0:0:
303,187,8585,2,0,B|329:305|329:305|306:141|306:141,1,286.6,8|0,0:0|0:0,0:0:0:0:
95,268,9054,2,0,L|117:350|117:350|152:273|152:273|197:202|197:202|236:79|236:79,1,382.133333333334,10|10,0:0|0:0,0:0:0:0:
456,198,9523,6,0,L|456:319|456:319|463:154|463:154,1,286.6,10|0,0:0|0:0,0:0:0:0:
253,187,9991,2,0,L|304:297|304:297|358:141|358:141,1,286.6,8|0,1:2|0:0,0:0:0:0:
288,186,10382,1,2,0:1:0:0:
253,187,10460,2,0,B|226:305|226:305|250:141|250:141,1,286.6,10|0,0:0|0:0,0:0:0:0:
461,134,10929,2,0,B|486:253|486:253|464:89|464:89,1,286.6,10|2,0:0|0:0,0:0:0:0:
168,191,11398,6,0,L|127:305|127:305|63:153|63:153,1,286.6,10|0,0:0|0:0,0:0:0:0:
273,109,11866,2,0,L|220:218|220:218|168:375|168:375,1,286.6,10|0,1:2|0:0,0:0:0:0:
97,169,12257,1,2,0:1:0:0:
62,167,12335,2,0,B|26:283|26:283|59:121|59:121,1,286.6,10|0,0:0|0:0,0:0:0:0:
271,171,12804,1,10,0:0:0:0:
166,173,13038,1,2,0:0:0:0:
462,183,13273,6,0,B|501:298|501:298|465:137|465:137,1,286.6,10|0,0:0|0:0,0:0:0:0:
254,183,13741,2,0,L|298:296|298:296|360:143|360:143,1,286.6,10|0,1:2|0:0,0:0:0:0:
430,186,14132,1,2,0:1:0:0:
462,183,14210,2,0,B|501:298|501:298|465:137|465:137,1,286.6,8|0,0:0|0:0,0:0:0:0:
254,183,14679,2,0,L|285:262|285:262|326:336|326:336|356:257|356:257|395:134|395:134,1,382.133333333334,10|8,0:0|0:0,0:0:0:0:
175,255,15148,6,0,L|168:376|168:376|168:211|168:211,1,286.6,10|0,0:0|0:0,0:0:0:0:
378,247,15616,2,0,L|340:362|340:362|272:211|272:211,1,286.6,10|0,1:2|0:0,0:0:0:0:
343,249,16007,1,2,0:1:0:0:
378,247,16085,2,0,B|423:360|423:360|381:200|381:200,1,286.6,8|0,0:0|0:0,0:0:0:0:
170,149,16554,2,0,L|141:228|141:228|113:308|113:308|72:382|72:382|29:261|29:261,1,382.133333333334,10|2,0:0|0:0,0:0:0:0:
249,257,17023,6,0,L|253:378|253:378|256:213|256:213,1,286.6,10|0,0:0|0:0,0:0:0:0:
46,210,17491,2,0,L|81:326|81:326|152:176|152:176,1,286.6,8|0,1:2|0:0,0:0:0:0:
81,212,17882,1,2,0:1:0:0:
46,210,17960,2,0,B|18:328|18:328|43:165|43:165,1,286.6,10|0,0:0|0:0,0:0:0:0:
255,176,18429,2,0,L|297:290|297:290|360:137|360:137,1,286.6,10|0,0:0|0:0,0:0:0:0:
64,290,18898,6,0,L|78:355|78:355|107:296|107:296|132:235|132:235|159:175|159:175|182:113|182:113|201:50|201:50|242:102|242:102|275:207|275:207,1,573.2,10|8,0:0|1:2,0:0:0:0:
381,290,19601,1,0,0:0:0:0:
233,285,19757,1,2,0:1:0:0:
187,290,19835,2,0,B|168:353|168:353|160:287|160:287|150:222|150:222|157:156|157:156|177:93|177:93|207:34|207:34|231:96|231:96|255:204|255:204,1,573.2,10|8,0:0|0:0,0:0:0:0:
396,260,20616,1,8,0:0:0:0:
176,128,20773,6,0,B|167:194|167:194|165:260|165:260|178:325|178:325|191:260|191:260|217:199|217:199|251:142|251:142|274:80|274:80|302:186|302:186,1,573.2,10|8,0:0|1:2,0:0:0:0:
196,131,21476,1,0,0:0:0:0:
126,234,21632,1,2,0:1:0:0:
91,234,21710,2,0,B|55:350|55:350|88:188|88:188,1,286.6,8|0,0:0|0:0,0:0:0:0:
299,235,22179,1,10,0:0:0:0:
194,237,22413,1,2,0:0:0:0:
490,255,22648,6,0,B|479:339|479:339|469:255|469:255|437:177|437:177|392:56|392:56,1,382.133333333334,10|2,0:0|0:0,0:0:0:0:
252,262,23116,1,8,1:2:0:0:
182,197,23273,1,2,0:0:0:0:
388,233,23507,1,2,0:1:0:0:
423,223,23585,2,0,L|396:292|396:292|353:183|353:183,1,191.066666666667,10|2,0:0|0:0,0:0:0:0:
212,161,23898,1,2,0:0:0:0:
142,156,24054,2,0,L|130:229|130:229|135:346|135:346,1,191.066666666667,10|0,0:0|0:0,0:0:0:0:
205,57,24366,1,10,0:0:0:0:
425,229,24523,6,0,L|469:314|469:314|495:222|495:222|462:156|462:156|425:44|425:44,2,191.066666666667,10|0|2,0:0|0:0|0:0,0:0:0:0:
284,187,24991,2,0,L|259:279|259:279|214:363|214:363|237:293|237:293|284:185|284:185,2,191.066666666667,8|2|0,1:2|0:0|0:0,0:0:0:0:
327,187,25382,1,2,0:1:0:0:
369,187,25460,2,0,L|366:260|366:260|376:377|376:377,1,191.066666666667,10|0,0:0|0:0,0:0:0:0:
289,103,25773,2,0,L|291:177|291:177|282:294|282:294,1,191.066666666667,2|8,0:0|0:0,0:0:0:0:
128,21,26085,2,0,L|104:91|104:91|58:199|58:199,1,191.066666666667,2|0,0:0|0:0,0:0:0:0:
278,277,26398,6,0,L|302:339|302:339|323:276|323:276|359:220|359:220|371:155|371:155|394:93|394:93|428:36|428:36|446:100|446:100|489:201|489:201,1,573.2,10|8,0:0|1:2,0:0:0:0:
383,278,27101,1,0,0:0:0:0:
240,275,27257,1,2,0:1:0:0:
205,275,27335,2,0,B|176:335|176:335|161:271|161:271|139:209|139:209|137:143|137:143|131:77|131:77|137:11|137:11|171:68|171:68|207:172|207:172,1,573.2,10|8,0:0|0:0,0:0:0:0:
313,244,28038,1,0,0:0:0:0:
17,159,28273,6,0,L|41:221|41:221|75:278|75:278|97:340|97:340|114:276|114:276|129:212|129:212|156:152|156:152|181:91|181:91|228:191|228:191,1,573.2,10|8,0:0|1:2,0:0:0:0:
334,155,28976,1,0,0:0:0:0:
185,208,29132,1,2,0:1:0:0:
143,210,29210,2,0,B|122:273|122:273|88:330|88:330|82:264|82:264|60:202|60:202|78:138|78:138|91:73|91:73|105:8|105:8|145:111|145:111,1,573.2,10|8,0:0|0:0,0:0:0:0:
216,158,29835,2,0,L|249:224|249:224|286:335|286:335,1,191.066666666667,8|8,0:0|0:0,0:0:0:0:
66,196,30148,6,0,L|54:317|54:317|59:152|59:152,1,286.6,10|0,0:0|0:0,0:0:0:0:
269,185,30616,2,0,L|230:300|230:300|164:149|164:149,1,286.6,8|0,1:2|0:0,0:0:0:0:
234,183,31007,1,2,0:1:0:0:
269,185,31085,2,0,B|303:301|303:301|272:139|272:139,1,286.6,8|0,0:0|0:0,0:0:0:0:
61,250,31554,2,0,L|112:360|112:360|166:204|166:204,1,286.6,8|0,0:0|0:0,0:0:0:0:
463,196,32023,6,0,L|469:317|469:317|470:152|470:152,1,286.6,8|0,0:0|0:0,0:0:0:0:
260,185,32491,2,0,L|308:296|308:296|366:141|366:141,1,286.6,8|0,1:2|0:0,0:0:0:0:
295,183,32882,1,2,0:1:0:0:
260,185,32960,2,0,B|230:303|230:303|257:140|257:140,1,286.6,8|0,0:0|0:0,0:0:0:0:
468,247,33429,2,0,L|426:361|426:361|362:208|362:208,1,286.6,8|0,0:0|0:0,0:0:0:0:
66,196,33898,6,0,L|65:317|65:317|59:152|59:152,1,286.6,10|0,0:0|0:0,0:0:0:0:
269,185,34366,2,0,L|217:294|217:294|164:138|164:138,1,286.6,8|0,1:2|0:0,0:0:0:0:
234,184,34757,1,2,0:1:0:0:
269,185,34835,2,0,L|312:298|312:298|374:145|374:145,1,286.6,8|0,0:0|0:0,0:0:0:0:
163,185,35304,2,0,B|139:266|139:266|120:348|120:348|128:264|128:264|163:140|163:140,1,382.133333333334,8|8,0:0|0:0,0:0:0:0:
383,229,35773,6,0,L|388:350|388:350|390:185|390:185,1,286.6,8|0,0:0|0:0,0:0:0:0:
180,218,36241,2,0,L|223:331|223:331|286:178|286:178,1,286.6,8|0,1:2|0:0,0:0:0:0:
215,216,36632,1,2,0:1:0:0:
180,218,36710,2,0,L|145:334|145:334|75:184|75:184,1,286.6,8|0,0:0|0:0,0:0:0:0:
286,144,37179,2,0,L|331:257|331:257|392:103|392:103,1,286.6,8|0,0:0|0:0,0:0:0:0:
95,120,37648,5,8,0:0:0:0:
95,120,38116,2,0,L|87:241|87:241|94:76|94:76,1,286.6,2|2,0:0|0:0,0:0:0:0:
306,221,38819,1,8,0:2:0:0:
200,116,39054,2,0,L|201:237|201:237|199:72|199:72,1,286.6,2|10,0:0|0:2,0:0:0:0:
411,221,39523,5,8,0:2:0:0:
200,116,39991,2,0,L|191:237|191:237|199:72|199:72,1,286.6,2|2,0:0|0:0,0:0:0:0:
412,222,40694,1,8,0:2:0:0:
306,222,40929,2,0,L|355:333|355:333|412:178|412:178,1,286.6,2|2,0:0|0:0,0:0:0:0:
199,221,41398,6,0,B|182:291|182:291|158:358|158:358|115:301|115:301|98:231|98:231|79:162|79:162|93:92|93:92|92:20|92:20|104:91|104:91|136:208|136:208|199:361|199:361,1,859.8,10|2,0:2|0:0,0:0:0:0:
305,170,42335,1,2,0:0:0:0:
94,227,42569,2,0,L|101:348|101:348|94:183|94:183,1,286.6,8|2,0:0|0:0,0:0:0:0:
200,112,43038,1,10,0:0:0:0:
411,222,43273,6,0,L|374:337|374:337|306:187|306:187,1,286.6,8|2,0:0|0:0,0:0:0:0:
94,227,44444,1,8,0:0:0:0:
411,222,45148,5,8,0:0:0:0:
200,222,45616,1,2,0:0:0:0:
411,222,45851,1,10,0:0:0:0:
94,227,46554,2,0,L|104:348|104:348|94:183|94:183,1,286.6,2|2,0:0|0:0,0:0:0:0:
305,222,47023,6,0,B|327:284|327:284|359:342|359:342|367:276|367:276|372:210|372:210|383:145|383:145|369:80|369:80|340:20|340:20|306:125|306:125,1,573.2,10|2,0:0|0:0,0:0:0:0:
94,227,47726,2,0,L|113:290|113:290|139:351|139:351|168:291|168:291|188:228|188:228|218:169|218:169|243:108|243:108|254:43|254:43|305:141|305:141,1,573.2,10|2,0:0|0:0,0:0:0:0:
199,229,48429,1,2,0:0:0:0:
410,224,48898,6,0,B|436:285|436:285|457:348|457:348|467:283|467:283|493:222|493:222|474:159|474:159|469:93|469:93|452:29|452:29|411:131|411:131,1,573.2,10|2,0:0|0:0,0:0:0:0:
199,229,49601,2,0,B|171:289|171:289|152:352|152:352|125:291|125:291|130:225|130:225|134:159|134:159|141:93|141:93|168:32|168:32|198:138|198:138,1,573.2,10|0,0:0|0:0,0:0:0:0:
304,224,50304,2,0,L|350:336|350:336|410:182|410:182,1,286.6,2|2,0:0|0:0,0:0:0:0:
199,229,50773,6,0,B|221:292|221:292|247:353|247:353|273:292|273:292|288:227|288:227|322:170|322:170|337:106|337:106|376:53|376:53|410:158|410:158,1,573.2,10|2,0:0|0:0,0:0:0:0:
199,229,51476,1,10,0:0:0:0:
40,225,52179,1,8,0:0:0:0:
396,352,52648,6,0,B|419:284|419:284|445:217|445:217|454:146|454:146|464:75|464:75|481:5|481:5|495:75|495:75|483:146|483:146|482:218|482:218|474:289|474:289|472:361|472:361|457:291|457:291|433:223|433:223|401:159|401:159|386:89|386:89|348:28|348:28|331:98|331:98|290:212|290:212|232:367|232:367,1,1433,2|2,0:0|0:0,0:0:0:0:
285,168,54054,1,2,0:0:0:0:
390,171,54288,1,2,0:0:0:0:
284,344,54523,6,0,B|268:274|268:274|241:207|241:207|199:149|199:149|182:79|182:79|160:11|160:11|147:81|147:81|141:152|141:152|128:223|128:223|123:289|123:289|143:352|143:352|145:286|145:286|166:223|166:223|169:157|169:157|206:102|206:102|210:36|210:36|260:134|260:134,1,1146.4,2|0,0:0|0:0,0:0:0:0:
470,213,55929,1,2,0:0:0:0:
470,213,56163,1,2,0:0:0:0:
364,214,56398,6,0,B|342:282|342:282|327:352|327:352|304:284|304:284|273:220|273:220|252:151|252:151|226:84|226:84|208:15|208:15|177:80|177:80|162:150|162:150|141:218|141:218|132:289|132:289|111:358|111:358|109:286|109:286|116:215|116:215|118:143|118:143|119:71|119:71|144:190|144:190|194:348|194:348,1,1433,2|2,0:0|0:0,0:0:0:0:
299,27,57804,1,2,0:0:0:0:
352,95,58038,1,2,0:0:0:0:
246,177,58273,6,0,B|224:245|224:245|202:313|202:313|174:379|174:379|149:312|149:312|132:242|132:242|112:173|112:173|112:101|112:101|104:30|104:30|102:96|102:96|127:157|127:157|141:222|141:222|150:288|150:288|192:339|192:339|198:273|198:273|220:211|220:211|265:110|265:110,1,1146.4,2|2,0:0|0:0,0:0:0:0:
476,251,59679,1,2,0:0:0:0:
96,235,60148,6,0,B|91:301|91:301|82:367|82:367|66:303|66:303|72:237|72:237|82:172|82:172|112:113|112:113|136:51|136:51|169:156|169:156,1,573.2,10|2,0:3|0:0,0:0:0:0:
275,126,60851,1,2,0:0:0:0:
64,216,61319,1,2,0:0:0:0:
64,216,61553,1,2,0:0:0:0:
170,164,61788,1,2,0:0:0:0:
382,173,62023,5,10,0:3:0:0:
329,80,62257,1,2,0:0:0:0:
224,62,62491,1,2,0:0:0:0:
437,219,63429,1,2,0:0:0:0:
437,219,63663,1,2,0:0:0:0:
225,218,63898,5,10,0:3:0:0:
120,165,64132,2,0,B|104:235|104:235|83:304|83:304|85:376|85:376|87:304|87:304|99:233|99:233|102:161|102:161|127:94|127:94|156:28|156:28|191:144|191:144|253:297|253:297,1,859.8,2|2,0:0|0:0,0:0:0:0:
464,148,65304,1,2,0:0:0:0:
84,233,65773,5,10,0:3:0:0:
84,233,66241,1,8,0:3:0:0:
464,148,66710,1,10,0:3:0:0:
464,148,67179,1,8,0:3:0:0:
84,233,67648,6,0,L|123:308|123:308|146:227|146:227|186:153|186:153|225:30|225:30,1,382.133333333334,10|2,0:0|0:0,0:0:0:0:
48,164,68351,2,0,B|40:235|40:235|34:306|34:306|35:378|35:378|42:307|42:307|68:240|68:240|77:169|77:169|108:104|108:104|138:39|138:39|164:131|164:131,1,668.733333333334,2|2,0:0|0:0,0:0:0:0:
23,241,69210,1,2,0:0:0:0:
396,241,69523,6,0,B|411:305|411:305|447:360|447:360|468:297|468:297|479:232|479:232|477:166|477:166|460:102|460:102|445:38|445:38|402:139|402:139,1,573.2,10|8,0:0|0:0,0:0:0:0:
331,162,70148,1,2,0:0:0:0:
261,141,70304,1,2,0:0:0:0:
401,149,70460,2,0,B|415:214|415:214|444:273|444:273|457:338|457:338|470:273|470:273|477:207|477:207|464:142|464:142|427:87|427:87|395:192|395:192,1,573.2,10|10,1:2|0:0,0:0:0:0:
391,236,71085,1,2,0:0:0:0:
461,193,71241,1,2,0:0:0:0:
241,237,71398,6,0,B|216:304|216:304|204:375|204:375|166:314|166:314|145:245|145:245|125:176|125:176|130:105|130:105|127:33|127:33|138:104|138:104|171:221|171:221|232:375|232:375,1,859.8,10|2,0:0|0:0,0:0:0:0:
443,331,72335,2,0,L|418:250|418:250|377:176|377:176|350:96|350:96|302:215|302:215,1,382.133333333334,10|2,1:2|0:0,0:0:0:0:
478,264,73038,1,0,0:0:0:0:
182,246,73273,6,0,B|159:308|159:308|138:371|138:371|116:308|116:308|97:245|97:245|96:179|96:179|125:120|125:120|146:57|146:57|176:163|176:163,1,573.2,10|10,0:0|0:0,0:0:0:0:
247,172,73898,1,2,0:0:0:0:
318,187,74054,1,2,0:0:0:0:
177,270,74210,2,0,B|154:338|154:338|136:269|136:269|125:198|125:198|88:137|88:137|71:67|71:67|52:136|52:136|25:202|25:202|19:273|19:273|14:152|14:152|63:310|63:310,1,859.8,10|2,1:2|0:0,0:0:0:0:
359,238,75148,6,0,L|318:324|318:324|288:233|288:233|249:146|249:146|218:56|218:56|253:133|253:133|280:213|280:213|320:287|320:287|359:165|359:165,2,382.133333333334,10|2|2,0:0|0:0|0:0,0:0:0:0:
78,150,76085,2,0,L|123:234|123:234|159:323|159:323|182:230|182:230|219:142|219:142|188:64|188:64|151:140|151:140|135:223|135:223|78:338|78:338,2,382.133333333334,10|2|2,1:2|0:0|0:0,0:0:0:0:
450,255,77023,6,0,B|474:323|474:323|493:254|493:254|501:183|501:183|504:111|504:111|498:40|498:40|495:112|495:112|482:182|482:182|453:248|453:248|422:327|422:327|394:247|394:247|368:167|368:167|335:43|335:43,1,955.333333333334,10|0,0:0|0:0,0:0:0:0:
194,231,77960,2,0,B|203:302|203:302|234:367|234:367|242:296|242:296|284:238|284:238|304:169|304:169|322:100|322:100|351:35|351:35|376:102|376:102|400:221|400:221|416:385|416:385,1,859.8,8|2,1:2|0:0,0:0:0:0:
121,100,78898,6,0,L|155:189|155:189|201:273|201:273|225:366|225:366|261:278|261:278|228:200|228:200|190:124|190:124|172:42|172:42|121:160|121:160,2,382.133333333334,10|2|8,0:0|0:0|0:0,0:0:0:0:
403,192,79835,2,0,L|373:283|373:283|329:368|329:368|307:275|307:275|263:190|263:190|300:114|300:114|320:32|320:32|351:110|351:110|403:228|403:228,2,382.133333333334,10|10|0,1:2|0:0|0:0,0:0:0:0:
121,350,80773,5,8,0:0:0:0:
49,252,81085,1,0,0:0:0:0:
49,131,81398,1,0,0:0:0:0:
121,33,81710,1,2,0:0:0:0:
236,0,82023,1,2,0:0:0:0:
351,37,82335,1,2,0:0:0:0:
420,136,82648,1,2,0:0:0:0:
152,239,83585,6,0,L|146:334|146:334,1,95.5333333333334,2|2,0:0|0:1,0:0:0:0:
