osu file format v14

[General]
AudioFilename: audio.mp3
AudioLeadIn: 0
PreviewTime: 7179
Countdown: 0
SampleSet: Soft
StackLeniency: 0.7
Mode: 2
LetterboxInBreaks: 0
WidescreenStoryboard: 1

[Editor]
Bookmarks: 148,6007,7179,7648,22648,37648,52648,60148,65773,67648,78663,83663
DistanceSpacing: 1.3
BeatDivisor: 4
GridSize: 32
TimelineZoom: 0.4999999

[Metadata]
Title:Ame to Taieki to Nioi (TV Size)
TitleUnicode:雨と体液と匂い (TV Size)
Artist:Mili
ArtistUnicode:Mili
Creator:Mniam
Version:Cup
Source:グレイプニル
Tags:gleipnir Yamato Kasai ending ed japanese anime momocashew Juansy- j-pop jpop pop
BeatmapID:3380130
BeatmapSetID:1655963

[Difficulty]
HPDrainRate:3.3
CircleSize:3.3
OverallDifficulty:5.8
ApproachRate:5.8
SliderMultiplier:1.88
SliderTickRate:1

[Events]
//Background and Video events
0,0,"gleipnir-outro-1.jpg",0,0
Video,-512,"GleipnirEnding.mp4"
//Break Periods
//Storyboard Layer 0 (Background)
//Storyboard Layer 1 (Fail)
//Storyboard Layer 2 (Pass)
//Storyboard Layer 3 (Foreground)
//Storyboard Layer 4 (Overlay)
//Storyboard Sound Samples

[TimingPoints]
148,468.75,4,2,1,30,1,0
148,-34.4574780058651,4,2,1,30,0,0
6710,-34.4574780058651,4,2,3,30,0,0
7179,-34.4574780058651,4,2,1,20,0,0
7648,-34.4574780058651,4,2,1,40,0,0
19366,-34.4574780058651,4,2,2,40,0,0
19835,-34.4574780058651,4,2,1,40,0,0
20304,-34.4574780058651,4,2,3,40,0,0
20773,-34.4574780058651,4,2,1,40,0,0
22648,-34.4574780058651,4,2,1,40,0,1
26398,-34.4574780058651,4,2,1,40,0,0
26866,-34.4574780058651,4,2,2,40,0,0
27335,-34.4574780058651,4,2,1,40,0,0
27804,-34.4574780058651,4,2,3,40,0,0
28273,-34.4574780058651,4,2,1,40,0,0
28741,-34.4574780058651,4,2,2,40,0,0
29210,-34.4574780058651,4,2,1,40,0,0
37648,-34.4574780058651,4,2,1,30,0,0
67648,-34.4574780058651,4,2,1,40,0,0
68116,-34.4574780058651,4,2,3,40,0,0
68351,-34.4574780058651,4,2,1,40,0,0
69991,-34.4574780058651,4,2,3,40,0,0
70226,-34.4574780058651,4,2,1,40,0,0
71866,-34.4574780058651,4,2,3,40,0,0
72101,-34.4574780058651,4,2,1,40,0,0
73741,-34.4574780058651,4,2,3,40,0,0
74210,-34.4574780058651,4,2,1,40,0,0
77491,-34.4574780058651,4,2,3,40,0,0
77960,-34.4574780058651,4,2,1,40,0,0
78898,-34.4574780058651,4,2,1,30,0,0
80773,-34.4574780058651,4,2,1,29,0,0
81085,-34.4574780058651,4,2,1,28,0,0
81398,-34.4574780058651,4,2,1,27,0,0
81710,-34.4574780058651,4,2,1,26,0,0
82023,-34.4574780058651,4,2,1,25,0,0
82335,-34.4574780058651,4,2,1,24,0,0
82648,-34.4574780058651,4,2,1,23,0,0
83585,-34.4574780058651,4,2,1,20,0,0

[Colours]
Combo1 : 227,214,183
Combo2 : 220,163,192
Combo3 : 129,181,201

[HitObjects]
146,317,148,6,0,L|152:380|152:380|149:317|149:317|143:254|143:254|132:192|132:192|130:129|130:129|137:66|137:66|137:3|137:3|135:108|135:108,1,545.6,10|10,0:0|0:0,0:0:0:0:
285,139,1085,2,0,B|298:201|298:201|294:264|294:264|290:327|290:327|274:266|274:266|249:208|249:208|235:147|235:147|220:86|220:86|180:183|180:183,1,545.6,8|10,0:0|0:0,0:0:0:0:
366,317,2023,6,0,L|365:380|365:380|379:319|379:319|374:256|374:256|361:194|361:194|363:131|363:131|367:68|367:68|379:6|379:6|377:111|377:111,1,545.6,10|10,0:0|0:0,0:0:0:0:
227,139,2960,2,0,B|230:202|230:202|215:263|215:263|230:324|230:324|237:261|237:261|263:204|263:204|277:143|277:143|297:83|297:83|332:182|332:182,1,545.6,8|10,0:0|0:0,0:0:0:0:
227,139,3741,1,10,0:3:0:0:
213,159,3898,6,0,L|227:220|227:220|264:271|264:271|288:329|288:329|308:269|308:269|314:206|314:206|334:146|334:146|365:91|365:91|401:190|401:190,1,545.6,10|10,0:3|0:0,0:0:0:0:
251,362,4835,2,0,B|234:302|234:302|209:244|209:244|178:189|178:189|176:126|176:126|160:65|160:65|152:3|152:3|154:66|154:66|184:166|184:166,1,545.6,8|10,0:0|0:0,0:0:0:0:
291,160,5616,1,10,0:0:0:0:
305,140,5773,5,10,0:0:0:0:
153,76,6241,2,0,B|120:136|120:136|99:201|99:201|77:266|77:266|63:333|63:333|62:265|62:265|40:201|40:201|42:133|42:133|34:65|34:65|26:2|26:2|47:62|47:62|44:125|44:125|64:185|64:185|87:244|87:244|100:306|100:306|126:363|126:363|157:263|157:263,1,1091.2,10|2,0:0|0:0,0:0:0:0:
345,200,7648,6,0,L|323:259|323:259|311:321|311:321|288:380|288:380|254:327|254:327|243:265|243:265|225:205|225:205|195:149|195:149|157:51|157:51,1,545.6,10|10,0:0|1:2,0:0:0:0:
345,200,8585,2,0,B|372:257|372:257|383:319|383:319|404:378|404:378|403:315|403:315|421:255|421:255|401:195|401:195|377:137|377:137|353:35|353:35,1,545.6,8|10,0:0|0:0,0:0:0:0:
227,187,9366,1,10,0:0:0:0:
164,215,9523,6,0,L|180:276|180:276|202:335|202:335|227:277|227:277|247:217|247:217|264:156|264:156|302:106|302:106|317:45|317:45|352:144|352:144,1,545.6,10|8,0:0|1:2,0:0:0:0:
164,215,10460,2,0,B|148:276|148:276|119:332|119:332|101:272|101:272|95:209|95:209|102:146|102:146|110:84|110:84|118:21|118:21|156:119|156:119,1,545.6,10|10,0:0|0:0,0:0:0:0:
251,123,11163,1,2,0:0:0:0:
345,171,11398,6,0,L|314:232|314:232|294:297|294:297|268:360|268:360|250:294|250:294|237:227|237:227|213:163|213:163|179:104|179:104|157:39|157:39|174:100|174:100|204:155|204:155|221:216|221:216|244:274|244:274|256:336|256:336|296:385|296:385|303:322|303:322|345:226|345:226,2,545.6,10|10|10,0:0|1:2|0:0,0:0:0:0:
158,164,12804,2,0,L|165:279|165:279|152:122|152:122,1,272.8,10|2,0:0|0:0,0:0:0:0:
246,338,13273,6,0,B|263:278|263:278|282:218|282:218|309:161|309:161|317:98|317:98|313:35|313:35|301:97|301:97|296:160|296:160|254:256|254:256,1,545.6,10|10,0:0|1:2,0:0:0:0:
65,246,14210,2,0,L|82:307|82:307|102:367|102:367|134:313|134:313|150:252|150:252|167:191|167:191|197:136|197:136|216:76|216:76|253:174|253:174,1,545.6,8|10,0:0|0:0,0:0:0:0:
440,246,15148,6,0,L|425:307|425:307|395:362|395:362|365:307|365:307|354:245|354:245|332:186|332:186|319:124|319:124|295:66|295:66|252:162|252:162,1,545.6,10|10,0:0|1:2,0:0:0:0:
440,246,16085,2,0,B|461:305|461:305|473:367|473:367|492:307|492:307|505:245|505:245|508:182|508:182|491:121|491:121|487:58|487:58|448:155|448:155,1,545.6,8|10,0:0|0:0,0:0:0:0:
322,150,16866,1,2,0:0:0:0:
259,198,17023,6,0,L|272:260|272:260|309:311|309:311|330:371|330:371|344:310|344:310|373:254|373:254|380:191|380:191|417:140|417:140|447:39|447:39,1,545.6,10|8,0:0|1:2,0:0:0:0:
259,198,17960,2,0,L|237:257|237:257|222:318|222:318|197:376|197:376|176:317|176:317|155:258|155:258|131:200|131:200|109:141|109:141|71:43|71:43,1,545.6,10|10,0:0|0:0,0:0:0:0:
267,328,18898,6,0,B|282:262|282:262|310:200|310:200|338:138|338:138|355:72|355:72|370:5|370:5|374:73|374:73|376:141|376:141|378:209|378:209|375:277|375:277|360:344|360:344|356:276|356:276|331:213|331:213|326:145|326:145|306:80|306:80|285:15|285:15|254:76|254:76|268:143|268:143|295:206|295:206|311:272|311:272|349:329|349:329|358:261|358:261|364:193|364:193|368:125|368:125|378:58|378:58|385:121|385:121|383:184|383:184|363:244|363:244|360:307|360:307|335:365|335:365|314:306|314:306|307:243|307:243|267:146|267:146,2,1091.2,10|10|10,0:0|0:0|0:0,0:0:0:0:
78,286,21241,1,8,1:2:0:0:
259,198,21710,1,8,0:0:0:0:
448,290,22179,2,0,L|450:175|450:175|446:18|446:18,1,272.8,10|2,0:0|0:0,0:0:0:0:
352,149,22648,6,0,L|315:232|315:232|284:318|284:318|254:232|254:232|227:145|227:145|255:70|255:70|279:147|279:147|313:220|313:220|352:336|352:336,2,363.733333333332,10|2|2,0:0|0:0|0:0,0:0:0:0:
477,152,23585,1,10,0:0:0:0:
467,162,23898,1,2,0:0:0:0:
354,207,24210,1,0,0:0:0:0:
228,193,24523,6,0,L|200:280|200:280|155:359|155:359|136:270|136:270|103:185|103:185|130:109|130:109|150:31|150:31|194:98|194:98|228:216|228:216,2,363.733333333332,10|2|2,0:0|0:0|0:0,0:0:0:0:
353,192,25460,1,10,0:0:0:0:
228,193,25773,1,2,0:0:0:0:
103,197,26085,1,2,0:0:0:0:
229,212,26398,6,0,B|241:279|241:279|272:340|272:340|298:277|298:277|316:211|316:211|343:149|343:149|358:82|358:82|394:24|394:24|408:91|408:91|430:156|430:156|453:220|453:220|459:288|459:288|466:356|466:356|477:289|477:289|484:221|484:221|478:153|478:153|487:85|487:85|488:17|488:17|476:84|476:84|484:152|484:152|469:219|469:219|463:287|463:287|442:352|442:352|421:287|421:287|408:220|408:220|398:153|398:153|364:94|364:94|341:30|341:30|320:95|320:95|306:162|306:162|283:226|283:226|256:289|256:289|229:352|229:352|246:286|246:286|277:225|277:225|288:158|288:158|312:94|312:94|347:35|347:35|376:97|376:97|397:162|397:162|408:229|408:229|425:290|425:290|439:351|439:351|455:290|455:290|472:229|472:229|475:166|475:166|476:103|476:103|495:43|495:43|487:148|487:148,3,1091.2,10|10|10|10,0:0|0:0|0:0|0:0,0:0:0:0:
299,85,29679,1,8,0:0:0:0:
488,190,30148,6,0,L|468:250|468:250|453:311|453:311|417:363|417:363|411:300|411:300|370:252|370:252|353:191|353:191|336:130|336:130|300:31|300:31,1,545.6,10|8,0:0|1:2,0:0:0:0:
113,190,31085,2,0,L|135:249|135:249|150:310|150:310|177:367|177:367|199:308|199:308|228:252|228:252|241:190|241:190|271:135|271:135|301:34|301:34,1,545.6,8|8,0:0|0:0,0:0:0:0:
113,190,32023,6,0,B|95:250|95:250|81:311|81:311|54:368|54:368|48:305|48:305|55:242|55:242|62:179|62:179|67:116|67:116|105:18|105:18,1,545.6,8|8,0:0|1:2,0:0:0:0:
293,286,32960,2,0,L|315:345|315:345|339:287|339:287|365:229|365:229|384:169|384:169|404:109|404:109|429:51|429:51|445:112|445:112|481:211|481:211,1,545.6,8|8,0:0|0:0,0:0:0:0:
293,286,33898,6,0,L|278:347|278:347|249:291|249:291|220:235|220:235|212:173|212:173|187:115|187:115|154:62|154:62|151:125|151:125|105:219|105:219,1,545.6,10|8,0:0|1:2,0:0:0:0:
293,286,34835,2,0,B|306:348|306:348|325:288|325:288|360:236|360:236|369:174|369:174|354:113|354:113|345:51|345:51|327:111|327:111|301:213|301:213,1,545.6,8|8,0:0|0:0,0:0:0:0:
113,181,35773,6,0,L|139:239|139:239|164:297|164:297|180:358|180:358|193:296|193:296|221:240|221:240|243:181|243:181|268:123|268:123|301:23|301:23,1,545.6,8|8,0:0|1:2,0:0:0:0:
489,181,36710,2,0,L|459:236|459:236|441:296|441:296|427:357|427:357|393:304|393:304|389:241|389:241|359:186|359:186|346:124|346:124|301:29|301:29,1,545.6,8|8,0:0|0:0,0:0:0:0:
104,190,37648,5,8,0:0:0:0:
104,190,38116,5,2,0:0:0:0:
104,190,38351,1,2,0:0:0:0:
198,191,39054,5,2,0:0:0:0:
104,190,39288,1,10,0:2:0:0:
292,192,39991,5,2,0:0:0:0:
198,191,40225,1,2,0:0:0:0:
452,160,40929,5,2,0:0:0:0:
358,159,41163,1,2,0:0:0:0:
264,164,41398,6,0,B|247:230|247:230|224:294|224:294|201:358|201:358|180:293|180:293|177:225|177:225|159:159|159:159|167:91|167:91|184:25|184:25|207:138|207:138|268:283|268:283,1,818.4,10|2,0:2|0:0,0:0:0:0:
362,260,42335,2,0,L|345:321|345:321|324:380|324:380|304:320|304:320|280:262|280:262|252:205|252:205|236:144|236:144|200:92|200:92|174:194|174:194,1,545.6,2|2,0:0|0:0,0:0:0:0:
166,236,43038,1,10,0:0:0:0:
352,186,43507,1,2,0:0:0:0:
166,236,44444,5,8,0:0:0:0:
352,186,45148,1,8,0:0:0:0:
166,236,45616,5,2,0:0:0:0:
166,236,45851,1,10,0:0:0:0:
352,186,46554,5,2,0:0:0:0:
259,183,46788,1,2,0:0:0:0:
352,186,47023,6,0,B|370:246|370:246|384:307|384:307|404:367|404:367|421:306|421:306|421:243|421:243|397:185|397:185|384:123|384:123|354:23|354:23,1,545.6,10|2,0:0|0:0,0:0:0:0:
259,68,47726,2,0,L|247:130|247:130|213:183|213:183|193:243|193:243|168:301|168:301|158:363|158:363|130:306|130:306|107:247|107:247|71:149|71:149,1,545.6,10|2,0:0|0:0,0:0:0:0:
165,103,48429,1,2,0:0:0:0:
353,227,48898,6,0,L|327:285|327:285|316:347|316:347|284:293|284:293|267:232|267:232|245:173|245:173|226:113|226:113|202:55|202:55|165:153|165:153,1,545.6,10|2,0:0|0:0,0:0:0:0:
259,196,49601,2,0,B|274:263|274:263|296:328|296:328|334:385|334:385|351:319|351:319|345:251|345:251|350:183|350:183|360:116|360:116|339:51|339:51|315:164|315:164|254:309|254:309,1,818.4,10|2,0:0|0:0,0:0:0:0:
166,136,50538,1,2,0:0:0:0:
259,196,50773,6,0,L|291:250|291:250|300:312|300:312|323:371|323:371|336:309|336:309|361:251|361:251|388:194|388:194|406:134|406:134|447:37|447:37,1,545.6,10|2,0:0|0:0,0:0:0:0:
354,136,51476,1,10,0:0:0:0:
171,136,52179,1,8,0:0:0:0:
358,285,52648,6,0,B|340:351|340:351|314:288|314:288|299:222|299:222|278:157|278:157|257:92|257:92|226:31|226:31|212:98|212:98|201:165|201:165|203:233|203:233|193:301|193:301|199:369|199:369|203:301|203:301|208:233|208:233|228:168|228:168|256:106|256:106|276:41|276:41|311:151|311:151|365:299|365:299,1,1364,2|2,0:0|0:0,0:0:0:0:
460,192,54054,1,2,0:0:0:0:
272,208,54523,6,0,B|247:272|247:272|227:337|227:337|205:272|205:272|173:212|173:212|162:145|162:145|126:87|126:87|124:19|124:19|100:83|100:83|78:147|78:147|70:215|70:215|67:283|67:283|51:349|51:349|46:281|46:281|52:213|52:213|34:147|34:147|31:79|31:79|20:17|20:17|33:79|33:79|37:142|37:142|32:205|32:205|52:265|52:265|57:328|57:328|55:265|55:265|78:163|78:163,1,1636.8,2|2,0:0|0:0,0:0:0:0:
265,300,56398,6,0,B|282:366|282:366|304:301|304:301|332:239|332:239|365:179|365:179|369:111|369:111|394:48|394:48|411:114|411:114|422:181|422:181|420:249|420:249|424:317|424:317|423:385|423:385|412:318|412:318|414:250|414:250|386:188|386:188|363:124|363:124|347:58|347:58|298:162|298:162|258:314|258:314,1,1364,2|2,0:0|0:0,0:0:0:0:
164,219,57804,1,2,0:0:0:0:
351,208,58273,6,0,B|326:271|326:271|313:338|313:338|279:279|279:279|268:212|268:212|237:151|237:151|222:84|222:84|208:17|208:17|182:80|182:80|188:143|188:143|150:193|150:193|149:256|149:256|108:304|108:304|108:367|108:367|78:311|78:311|61:250|61:250|25:152|25:152,1,1091.2,2|2,0:0|0:0,0:0:0:0:
204,52,59679,1,2,0:0:0:0:
392,108,60148,6,0,B|421:170|421:170|439:236|439:236|436:304|436:304|460:368|460:368|441:302|441:302|448:234|448:234|429:169|429:169|411:103|411:103|363:208|363:208|323:360|323:360,1,818.4,10|2,0:3|0:0,0:0:0:0:
133,119,61554,1,2,0:0:0:0:
321,221,62023,6,0,L|297:279|297:279|279:339|279:339|261:279|261:279|229:225|229:225|214:164|214:164|197:103|197:103|175:44|175:44|133:140|133:140,1,545.6,10|2,0:3|0:0,0:0:0:0:
379,119,63429,1,2,0:0:0:0:
191,276,63898,6,0,B|162:338|162:338|144:272|144:272|120:208|120:208|95:145|95:145|88:77|88:77|64:13|64:13|66:81|66:81|61:149|61:149|61:212|61:212|77:273|77:273|81:336|81:336|114:283|114:283|127:221|127:221|139:159|139:159|171:105|171:105|202:5|202:5,1,1091.2,10|2,0:3|0:0,0:0:0:0:
390,217,65304,1,2,0:0:0:0:
191,276,65773,6,0,L|188:339|188:339|200:277|200:277|194:214|194:214|187:151|187:151|201:90|201:90|199:27|199:27|189:89|189:89|191:194|191:194,1,545.6,10|8,0:3|0:3,0:0:0:0:
383,280,66710,2,0,L|376:343|376:343|378:280|378:280|380:217|380:217|385:154|385:154|387:91|387:91|375:29|375:29|381:92|381:92|383:197|383:197,1,545.6,10|8,0:3|0:3,0:0:0:0:
195,216,67648,6,0,B|163:276|163:276|147:342|147:342|131:276|131:276|100:215|100:215|95:147|95:147|97:79|97:79|85:12|85:12|104:78|104:78|141:187|141:187|188:337|188:337,1,818.4,10|2,0:0|0:0,0:0:0:0:
408,213,68898,2,0,L|374:286|374:286|360:365|360:365|316:298|316:298|283:180|283:180,1,363.733333333332,2|2,0:0|0:0,0:0:0:0:
157,209,69523,6,0,B|169:276|169:276|204:335|204:335|215:268|215:268|236:203|236:203|255:138|255:138|278:74|278:74|298:9|298:9|306:77|306:77|305:192|305:192|280:347|280:347,1,818.4,10|2,0:0|0:0,0:0:0:0:
186,47,70460,1,10,1:2:0:0:
374,124,70929,1,10,0:0:0:0:
186,252,71398,6,0,B|165:317|165:317|147:383|147:383|124:319|124:319|102:254|102:254|92:187|92:187|105:120|105:120|103:52|103:52|128:115|128:115|171:222|171:222|214:373|214:373,1,818.4,10|2,0:0|0:0,0:0:0:0:
307,273,72335,2,0,L|267:355|267:355|239:268|239:268|212:181|212:181|182:95|182:95|204:18|204:18|238:91|238:91|273:164|273:164|307:282|307:282,2,363.733333333332,10|2|2,1:2|0:0|0:0,0:0:0:0:
432,270,73273,6,0,B|462:331|462:331|476:264|476:264|488:197|488:197|493:129|493:129|495:61|495:61|497:129|497:129|476:194|476:194|475:262|475:262|462:324|462:324|435:381|435:381|421:320|421:320|394:263|394:263|373:204|373:204|363:142|363:142|340:83|340:83|311:184|311:184,1,1091.2,10|10,0:0|1:2,0:0:0:0:
128,252,74679,1,8,0:0:0:0:
172,197,74913,1,2,0:0:0:0:
266,158,75148,6,0,L|290:246|290:246|336:324|336:324|367:238|367:238|391:150|391:150|365:74|365:74|335:149|335:149|309:225|309:225|266:340|266:340,2,363.733333333332,10|2|2,0:0|0:0|0:0,0:0:0:0:
141,117,76085,2,0,L|112:203|112:203|77:287|77:287|42:371|42:371|16:284|16:284|42:208|42:208|77:135|77:135|93:56|93:56|141:169|141:169,2,363.733333333332,10|2|2,1:2|0:0|0:0,0:0:0:0:
266,268,77023,6,0,B|275:336|275:336|301:273|301:273|318:207|318:207|359:153|359:153|377:87|377:87|389:20|389:20|419:81|419:81|431:148|431:148|437:211|437:211|441:274|441:274|443:337|443:337|459:276|459:276|452:213|452:213|436:152|436:152|423:90|423:90|388:189|388:189,1,1091.2,10|8,0:0|1:2,0:0:0:0:
200,106,78429,1,8,0:0:0:0:
181,207,78663,1,2,0:0:0:0:
275,237,78898,5,10,0:0:0:0:
487,322,79523,1,8,0:0:0:0:
393,186,79836,1,10,1:2:0:0:
268,174,80148,1,10,0:0:0:0:
54,184,80773,5,8,0:0:0:0:
29,154,81085,1,0,0:0:0:0:
41,116,81398,1,0,0:0:0:0:
78,76,81710,1,2,0:0:0:0:
141,45,82023,1,2,0:0:0:0:
229,79,82335,1,2,0:0:0:0:
343,170,82648,1,2,0:0:0:0:
192,192,83585,5,2,0:0:0:0:
192,192,83663,1,2,0:1:0:0:
