osu file format v14

[General]
AudioFilename: 01. A Turtle's Heart.mp3
AudioLeadIn: 0
PreviewTime: 45790
Countdown: 0
SampleSet: Soft
StackLeniency: 0.2
Mode: 2
LetterboxInBreaks: 1
WidescreenStoryboard: 0

[Editor]
Bookmarks: 65570,67192,68813,70435,120790,144709,149980,159709,172682
DistanceSpacing: 1.2
BeatDivisor: 6
GridSize: 4
TimelineZoom: 1.8

[Metadata]
Title:A Turtle's Heart
TitleUnicode:A Turtle's Heart
Artist:Mili
ArtistUnicode:Mili
Creator:Krah
Version:Salad
Source:Deemo
Tags:mag mell collection 19 the last recital
BeatmapID:676972
BeatmapSetID:300937

[Difficulty]
HPDrainRate:4
CircleSize:2.8
OverallDifficulty:6.6
ApproachRate:6.6
SliderMultiplier:1.8
SliderTickRate:1

[Events]
//Background and Video events
0,0,"mili.jpg",0,0
//Break Periods
2,109689,116593
//Storyboard Layer 0 (Background)
//Storyboard Layer 1 (Fail)
//Storyboard Layer 2 (Pass)
//Storyboard Layer 3 (Foreground)
//Storyboard Sound Samples

[TimingPoints]
841,405.405405405405,4,2,1,50,1,0
7327,-100,4,2,1,70,0,0
7597,-100,4,2,1,30,0,0
10570,-100,4,2,1,70,0,0
10840,-100,4,2,1,30,0,0
12597,-100,4,2,1,100,0,0
12868,-100,4,2,1,80,0,0
13138,-100,4,2,1,40,0,0
13273,-100,4,2,1,80,0,0
13408,-100,4,2,1,40,0,0
13543,-100,4,2,1,80,0,0
13678,-100,4,2,1,40,0,0
13813,-100,4,2,0,90,0,0
14219,-100,4,2,1,90,0,0
19489,-100,4,2,0,90,0,0
20705,-100,4,2,1,90,0,0
26786,-100,4,2,1,60,0,0
38543,-100,4,2,0,85,0,0
39354,-100,4,2,1,90,0,0
39759,-200,4,2,1,40,0,0
44624,-100,4,2,1,50,0,0
45030,-100,4,2,1,60,0,0
45435,-100,4,2,1,70,0,0
46246,-100,4,2,1,100,0,1
59219,-100,4,2,1,80,0,0
63138,-100,4,2,1,30,0,0
64084,-100,4,2,1,50,0,0
64895,-100,4,2,1,60,0,0
65705,-100,4,2,1,90,0,0
65773,-100,4,2,1,50,0,0
71786,-100,4,2,1,70,0,0
72192,-100,4,2,1,65,0,0
76651,-100,4,2,1,25,0,0
77057,-100,4,2,1,65,0,0
77868,-100,4,2,1,25,0,0
78138,-100,4,2,1,35,0,0
78408,-100,4,2,1,45,0,0
78678,-100,4,2,0,90,0,0
79084,-100,4,2,1,70,0,0
84354,-100,4,2,0,80,0,0
85570,-100,4,2,1,70,0,0
91651,-100,4,2,1,50,0,0
94286,-100,4,2,1,70,0,0
94489,-100,4,2,1,50,0,0
97530,-100,4,2,1,70,0,0
97732,-100,4,2,1,50,0,0
100773,-100,4,2,1,70,0,0
100976,-100,4,2,1,50,0,0
104016,-100,4,2,1,70,0,0
104219,-100,4,2,1,60,0,0
104624,-100,4,2,1,40,0,0
107868,-100,4,2,1,30,0,0
109489,-100,4,2,1,20,0,0
117597,-100,4,2,1,40,0,0
118408,-100,4,2,1,50,0,0
119624,-100,4,2,1,80,0,0
120840,-100,4,2,1,100,0,1
146786,-100,4,2,1,80,0,0
173138,-100,4,2,1,35,0,0
179219,-100,4,2,1,70,0,0

[Colours]
Combo1 : 38,47,89
Combo2 : 198,99,0
Combo3 : 55,92,115
Combo4 : 96,82,32

[HitObjects]
320,216,841,6,0,P|378:103|348:24,1,180,6|8,0:0|0:0,0:0:0:0:
208,56,1516,1,0,0:0:0:0:
156,80,1651,1,2,0:0:0:0:
280,96,1922,1,0,0:0:0:0:
232,128,2057,1,2,0:0:0:0:
84,136,2327,1,0,0:0:0:0:
152,136,2462,6,0,P|240:152|260:248,1,180,0|8,0:0|0:0,0:0:0:0:
404,324,3273,1,2,0:0:0:0:
288,360,3678,1,8,0:0:0:0:
140,332,4084,6,0,P|64:252|104:200,1,180,6|8,0:0|0:0,0:0:0:0:
240,264,4759,1,0,0:0:0:0:
188,224,4895,1,2,0:0:0:0:
312,200,5165,1,0,0:0:0:0:
264,156,5300,1,2,0:0:0:0:
148,156,5570,1,0,0:0:0:0:
72,156,5705,6,0,P|94:73|176:40,1,180,0|8,0:0|0:0,0:0:0:0:
332,40,6516,1,2,0:0:0:0:
104,36,6922,1,8,0:0:0:0:
264,40,7327,5,6,0:0:0:0:
356,40,7597,1,0,0:0:0:0:
464,40,7732,2,0,L|397:221,1,180,2|2,0:0|0:0,0:0:0:0:
348,204,8408,1,0,0:0:0:0:
240,204,8543,2,0,L|172:20,1,180,2|2,0:0|0:0,0:0:0:0:
224,72,9219,5,0,0:0:0:0:
116,68,9354,2,0,L|52:256,1,180,2|2,0:0|0:0,0:0:0:0:
136,216,10030,1,0,0:0:0:0:
244,216,10165,2,0,L|324:48,1,180,2|6,0:0|0:0,0:0:0:0:
476,76,10840,5,0,0:0:0:0:
368,72,10975,2,0,L|464:232,1,180,2|2,0:0|0:0,0:0:0:0:
412,204,11651,5,0,0:0:0:0:
304,204,11786,2,0,L|184:48,1,180,2|2,0:0|0:0,0:0:0:0:
296,64,12462,1,0,0:0:0:0:
168,64,12597,1,2,0:0:0:0:
48,80,13003,5,8,0:0:0:0:
44,132,13138,1,12,0:0:0:0:
144,132,13273,1,8,0:0:0:0:
140,176,13408,1,12,0:0:0:0:
232,208,13543,1,8,0:0:0:0:
248,268,13678,1,12,0:0:0:0:
128,268,13813,1,4,0:0:0:0:
316,272,14219,6,0,L|360:140,1,120,8|0,0:0|0:0,0:0:0:0:
280,160,14624,1,0,0:0:0:0:
160,160,15030,1,8,0:0:0:0:
56,80,15300,2,0,L|0:136,1,60,0|2,0:0|0:0,0:0:0:0:
144,144,15705,1,0,0:0:0:0:
100,192,15840,1,8,0:0:0:0:
320,188,16246,6,0,P|404:208|412:316,1,180,4|10,0:0|0:0,0:0:0:0:
228,296,17057,2,0,L|268:172,1,120,2|0,0:0|0:0,0:0:0:0:
188,180,17462,5,8,0:0:0:0:
308,140,17868,1,2,0:0:0:0:
124,76,18273,1,8,0:0:0:0:
316,76,18543,2,0,L|388:48,1,60,8|2,0:0|0:0,0:0:0:0:
248,44,18949,2,0,L|168:36,1,60,0|8,0:0|0:0,0:0:0:0:
488,48,19489,5,4,0:0:0:0:
240,112,19895,1,4,0:0:0:0:
464,160,20300,1,4,0:0:0:0:
224,176,20705,5,8,0:0:0:0:
148,216,21111,1,0,0:0:0:0:
336,220,21516,1,8,0:0:0:0:
456,216,21787,2,0,L|484:156,1,60,0|2,0:0|0:0,0:0:0:0:
284,152,22327,6,0,L|356:12,1,120,8|0,0:0|0:0,0:0:0:0:
252,48,22732,1,4,0:0:0:0:
136,48,23003,1,0,0:0:0:0:
48,52,23138,2,0,L|120:192,1,120,8|0,0:0|0:0,0:0:0:0:
12,160,23543,1,0,0:0:0:0:
196,276,23949,6,0,L|268:136,1,120,8|0,0:0|0:0,0:0:0:0:
348,172,24354,1,2,0:0:0:0:
468,180,24625,1,0,0:0:0:0:
436,228,24760,1,8,0:0:0:0:
304,228,25030,2,0,L|364:304,1,60,8|2,0:0|0:0,0:0:0:0:
60,276,25571,1,8,0:0:0:0:
200,276,25840,5,4,0:0:0:0:
264,204,25976,1,4,0:0:0:0:
144,196,26246,1,0,0:0:0:0:
96,152,26381,1,4,0:0:0:0:
244,156,26786,6,0,L|388:244,1,120,4|0,0:0|0:0,0:0:0:0:
448,224,27192,1,8,0:0:0:0:
260,228,27597,2,0,L|120:132,1,120
60,72,28003,5,8,0:0:0:0:
236,80,28408,2,0,L|368:124,1,120
436,152,28813,2,0,L|280:204,1,120,8|0,0:0|0:0,0:0:0:0:
400,216,29219,1,0,0:0:0:0:
152,236,29489,2,0,L|264:224,1,60,8|0,0:0|0:0,0:0:0:0:
376,232,30030,6,0,L|316:364,1,120
420,344,30435,1,8,0:0:0:0:
112,320,30840,2,0,L|196:180,1,120,2|0,0:0|0:0,0:0:0:0:
84,208,31246,1,8,0:0:0:0:
268,212,31651,6,0,L|404:268,1,120,6|0,0:0|0:0,0:0:0:0:
272,276,32057,1,8,0:0:0:0:
168,100,32462,2,0,L|316:184,1,120,2|0,0:0|0:0,0:0:0:0:
364,204,32868,1,8,0:0:0:0:
156,196,33138,1,0,0:0:0:0:
92,88,33273,5,6,0:0:0:0:
292,88,33678,2,0,L|340:208,1,120,8|0,0:0|0:0,0:0:0:0:
440,208,34084,2,0,L|388:344,1,120,2|0,0:0|0:0,0:0:0:0:
288,320,34489,5,8,0:0:0:0:
128,320,34895,2,0,L|32:248,1,120,2|0,0:0|0:0,0:0:0:0:
120,224,35300,1,8,0:0:0:0:
332,228,35705,1,2,0:0:0:0:
96,168,35976,1,8,0:0:0:0:
72,128,36111,1,0,0:0:0:0:
208,168,36381,5,2,0:0:0:0:
296,24,36516,2,0,L|388:152,1,120,4|0,0:0|0:0,0:0:0:0:
276,128,36922,1,8,0:0:0:0:
96,228,37327,1,0,0:0:0:0:
324,232,37597,1,8,0:0:0:0:
244,232,37732,5,8,0:0:0:0:
384,232,38003,1,0,0:0:0:0:
304,232,38138,1,8,0:0:0:0:
140,232,38543,5,4,0:0:0:0:
240,284,38813,1,4,0:0:0:0:
272,336,38949,1,4,0:0:0:0:
404,336,39219,1,0,0:0:0:0:
432,280,39354,1,8,0:0:0:0:
340,280,39759,6,0,P|188:224|216:152,1,270,4|2,0:0|0:0,0:0:0:0:
72,180,41381,6,0,P|52:120|136:56,1,180,6|0,0:0|0:0,0:0:0:0:
212,96,42597,1,2,0:0:0:0:
332,68,43003,6,0,P|373:209|272:248,1,270,6|2,0:0|0:0,0:0:0:0:
192,248,44624,5,2,0:0:0:0:
428,244,45030,2,0,L|472:184,1,60,8|0,0:0|0:0,0:0:0:0:
272,192,45435,1,8,0:0:0:0:
152,204,45570,2,0,L|104:140,1,60,10|0,0:0|0:0,0:0:0:0:
192,76,45840,1,0,0:0:0:0:
432,156,46246,5,4,0:0:0:0:
144,136,46651,1,8,0:0:0:0:
344,100,47057,1,0,0:0:0:0:
48,68,47462,1,8,0:0:0:0:
196,188,47868,5,2,0:0:0:0:
140,304,48138,1,0,0:0:0:0:
160,352,48273,1,8,0:0:0:0:
304,296,48543,2,0,L|332:360,1,60
244,192,49084,1,8,0:0:0:0:
188,188,49354,1,2,0:0:0:0:
116,180,49489,6,0,L|104:32,1,120,6|0,0:0|0:0,0:0:0:0:
232,60,49894,2,0,L|248:188,1,120,8|0,0:0|0:0,0:0:0:0:
368,180,50300,2,0,L|392:52,1,120
288,68,50705,5,8,0:0:0:0:
156,324,51111,1,2,0:0:0:0:
292,276,51516,1,8,0:0:0:0:
48,272,51786,5,0,0:0:0:0:
20,240,51922,1,2,0:0:0:0:
204,208,52192,1,0,0:0:0:0:
240,168,52327,1,10,0:0:0:0:
472,160,52732,5,4,0:0:0:0:
152,120,53137,1,8,0:0:0:0:
332,104,53543,1,0,0:0:0:0:
48,88,53948,1,8,0:0:0:0:
232,80,54354,5,2,0:0:0:0:
292,200,54624,1,0,0:0:0:0:
168,240,54759,1,8,0:0:0:0:
300,252,55029,2,0,L|372:324,1,60
112,320,55570,1,8,0:0:0:0:
240,320,55840,1,2,0:0:0:0:
352,316,55975,6,0,L|492:216,1,120,6|0,0:0|0:0,0:0:0:0:
340,216,56380,2,0,L|216:148,1,120,8|0,0:0|0:0,0:0:0:0:
336,128,56786,2,0,L|468:48,1,120
328,56,57191,5,8,0:0:0:0:
128,80,57597,1,2,0:0:0:0:
264,92,58002,1,8,0:0:0:0:
136,164,58272,5,0,0:0:0:0:
112,164,58408,1,2,0:0:0:0:
296,160,58678,1,0,0:0:0:0:
260,160,58813,1,10,0:0:0:0:
224,160,58949,1,0,0:0:0:0:
460,168,59219,5,8,0:0:0:0:
236,188,60435,5,8,0:0:0:0:
224,200,60840,1,8,0:0:0:0:
444,204,61111,2,8,L|504:176,1,60,0|8,0:0|0:0,0:0:0:0:
296,180,61922,5,0,0:0:0:0:
260,144,62057,1,8,0:0:0:0:
68,148,62327,1,0,0:0:0:0:
108,120,62462,1,2,0:0:0:0:
368,76,63138,5,0,0:0:0:0:
336,120,63273,1,6,0:0:0:0:
176,104,63543,1,0,0:0:0:0:
108,100,63678,1,12,0:0:0:0:
176,72,63813,1,0,0:0:0:0:
416,80,64084,5,4,0:0:0:0:
280,288,64354,1,0,0:0:0:0:
240,312,64489,1,12,0:0:0:0:
56,308,64895,5,4,0:0:0:0:
244,172,65165,1,2,0:0:0:0:
284,160,65300,1,12,0:0:0:0:
456,160,65570,1,0,0:0:0:0:
348,96,65705,5,10,0:0:0:0:
320,188,66111,1,2,0:0:0:0:
292,280,66516,1,0,0:0:0:0:
264,376,66922,1,2,0:0:0:0:
108,372,67192,1,0,0:0:0:0:
32,368,67327,5,4,0:0:0:0:
60,268,67733,1,2,0:0:0:0:
88,172,68138,1,0,0:0:0:0:
116,76,68543,1,2,0:0:0:0:
304,84,68814,1,0,0:0:0:0:
396,96,68949,5,4,0:0:0:0:
424,168,69355,1,2,0:0:0:0:
452,236,69760,1,0,0:0:0:0:
480,300,70165,1,2,0:0:0:0:
304,292,70436,1,0,0:0:0:0:
216,292,70570,5,4,0:0:0:0:
188,204,70976,1,2,0:0:0:0:
216,108,71381,1,0,0:0:0:0:
244,44,71786,1,2,0:0:0:0:
368,44,72057,1,8,0:0:0:0:
244,76,72192,6,0,L|216:152,1,60,4|0,0:0|0:0,0:0:0:0:
280,192,72597,1,2,0:0:0:0:
364,232,73003,1,2,0:0:0:0:
464,288,73408,2,0,L|448:364,1,60,2|0,0:0|0:0,0:0:0:0:
220,340,73813,5,12,0:0:0:0:
120,216,74219,1,2,0:0:0:0:
20,136,74624,1,2,0:0:0:0:
192,144,75030,2,0,L|244:216,1,60,2|0,0:0|0:0,0:0:0:0:
424,200,75435,5,12,0:0:0:0:
316,288,75840,1,2,0:0:0:0:
216,324,76246,1,2,0:0:0:0:
116,360,76516,1,0,0:0:0:0:
64,316,76651,1,8,0:0:0:0:
40,256,76786,1,8,0:0:0:0:
32,192,76922,1,8,0:0:0:0:
168,196,77057,5,0,0:0:0:0:
272,192,77462,1,0,0:0:0:0:
456,184,77868,5,8,0:0:0:0:
440,224,78003,1,8,0:0:0:0:
420,272,78138,1,8,0:0:0:0:
308,272,78273,1,8,0:0:0:0:
284,232,78408,1,8,0:0:0:0:
264,184,78543,1,8,0:0:0:0:
99,175,78678,1,4,0:0:0:0:
200,184,79084,5,8,0:0:0:0:
292,136,79489,1,0,0:0:0:0:
112,128,79895,1,8,0:0:0:0:
268,64,80165,1,0,0:0:0:0:
208,96,80300,1,2,0:0:0:0:
432,108,80705,2,0,L|484:164,1,60,8|0,0:0|0:0,0:0:0:0:
352,156,81111,6,0,L|232:228,1,120,4|0,0:0|0:0,0:0:0:0:
364,220,81516,1,10,0:0:0:0:
200,236,81922,1,2,0:0:0:0:
88,240,82327,5,8,0:0:0:0:
228,320,82597,1,0,0:0:0:0:
168,272,82733,1,2,0:0:0:0:
324,276,83003,1,0,0:0:0:0:
264,228,83138,1,8,0:0:0:0:
84,128,83543,2,0,P|78:198|120:216,1,120,2|0,0:0|0:0,0:0:0:0:
216,216,83949,1,8,0:0:0:0:
459,209,84354,5,4,0:0:0:0:
192,128,84759,1,4,0:0:0:0:
441,97,85165,1,4,0:0:0:0:
280,197,85570,6,0,L|324:261,1,60,8|0,0:0|0:0,0:0:0:0:
220,248,85975,1,0,0:0:0:0:
400,256,86381,1,8,0:0:0:0:
244,320,86651,1,0,0:0:0:0:
304,288,86786,1,2,0:0:0:0:
80,276,87191,2,0,L|28:220,1,60,8|0,0:0|0:0,0:0:0:0:
160,228,87597,6,0,L|280:156,1,120,4|0,0:0|0:0,0:0:0:0:
148,164,88002,1,10,0:0:0:0:
312,148,88408,1,2,0:0:0:0:
424,144,88813,5,8,0:0:0:0:
284,64,89083,1,0,0:0:0:0:
344,112,89219,1,2,0:0:0:0:
188,108,89489,1,0,0:0:0:0:
248,156,89624,1,8,0:0:0:0:
428,256,90030,6,0,P|434:186|392:168,1,120,2|0,0:0|0:0,0:0:0:0:
296,176,90435,1,8,0:0:0:0:
116,216,90705,1,4,0:0:0:0:
88,264,90841,2,0,L|220:264,1,120,4|0,0:0|0:0,0:0:0:0:
172,320,91246,1,4,0:0:0:0:
348,328,91651,6,0,P|405:231|372:160,1,180
272,176,92327,1,0,0:0:0:0:
332,172,92462,1,2,0:0:0:0:
148,160,92868,5,0,0:0:0:0:
36,140,93273,2,0,P|56:86|108:36,1,120
188,40,93678,1,8,0:0:0:0:
260,44,94084,1,2,0:0:0:0:
424,156,94354,1,8,0:0:0:0:
364,152,94489,6,0,L|312:288,1,120
380,268,94895,2,0,L|288:176,1,120
200,176,95300,1,8,0:0:0:0:
116,180,95570,1,0,0:0:0:0:
152,192,95705,1,2,0:0:0:0:
295,183,96111,5,0,0:0:0:0:
424,192,96517,2,0,L|496:300,1,120
424,296,96922,1,8,0:0:0:0:
336,292,97327,1,2,0:0:0:0:
168,288,97597,1,8,0:0:0:0:
236,288,97732,6,0,L|280:168,1,120
172,168,98138,1,8,0:0:0:0:
316,64,98408,1,0,0:0:0:0:
264,80,98543,1,0,0:0:0:0:
408,128,98814,1,0,0:0:0:0:
356,148,98949,1,2,0:0:0:0:
240,160,99354,5,0,0:0:0:0:
100,160,99760,2,0,L|196:48,1,120
276,64,100165,1,8,0:0:0:0:
368,64,100570,1,2,0:0:0:0:
204,56,100840,1,8,0:0:0:0:
140,68,100976,6,0,L|216:168,1,120
268,168,101381,1,0,0:0:0:0:
404,160,101651,1,0,0:0:0:0:
356,200,101786,1,0,0:0:0:0:
228,248,102057,1,0,0:0:0:0:
280,280,102192,1,2,0:0:0:0:
48,281,102597,5,8,0:0:0:0:
128,276,103003,2,0,L|184:168,1,120
224,172,103408,1,0,0:0:0:0:
332,168,103813,1,2,0:0:0:0:
168,164,104084,1,8,0:0:0:0:
124,120,104219,1,0,0:0:0:0:
256,192,104624,12,2,109489,0:0:0:0:
304,184,117597,5,2,0:0:0:0:
336,140,118003,1,2,0:0:0:0:
248,140,118408,1,2,0:0:0:0:
296,84,118813,1,2,0:0:0:0:
196,88,119219,1,2,0:0:0:0:
44,88,119489,5,0,0:0:0:0:
88,120,119624,1,8,0:0:0:0:
260,232,119895,1,0,0:0:0:0:
212,200,120030,1,8,0:0:0:0:
36,264,120300,1,0,0:0:0:0:
80,220,120435,1,4,0:0:0:0:
172,208,120840,5,4,0:0:0:0:
440,200,121245,1,8,0:0:0:0:
232,248,121651,1,0,0:0:0:0:
472,264,122056,1,8,0:0:0:0:
324,272,122462,5,2,0:0:0:0:
364,224,122597,1,0,0:0:0:0:
384,164,122732,1,0,0:0:0:0:
372,104,122867,1,8,0:0:0:0:
224,112,123137,2,0,L|296:184,1,60
44,156,123678,1,8,0:0:0:0:
112,160,123948,1,2,0:0:0:0:
208,164,124083,6,0,L|180:296,1,120,6|0,0:0|0:0,0:0:0:0:
288,272,124488,2,0,L|260:128,1,120,8|0,0:0|0:0,0:0:0:0:
368,160,124894,2,0,L|408:296,1,120
288,272,125299,5,8,0:0:0:0:
144,264,125705,1,2,0:0:0:0:
264,252,126110,1,8,0:0:0:0:
80,184,126380,5,0,0:0:0:0:
56,184,126516,1,2,0:0:0:0:
260,176,126786,1,0,0:0:0:0:
224,176,126921,1,10,0:0:0:0:
412,128,127326,5,4,0:0:0:0:
176,88,127731,1,8,0:0:0:0:
448,80,128137,1,0,0:0:0:0:
200,44,128542,1,8,0:0:0:0:
60,56,128948,5,2,0:0:0:0:
80,112,129083,1,0,0:0:0:0:
128,168,129218,1,0,0:0:0:0:
192,192,129353,1,8,0:0:0:0:
192,152,129623,2,0,L|264:224,1,60
364,160,130164,1,8,0:0:0:0:
304,160,130434,1,2,0:0:0:0:
192,160,130569,6,0,L|332:60,1,120,6|0,0:0|0:0,0:0:0:0:
396,88,130976,2,0,L|464:244,1,120,8|0,0:0|0:0,0:0:0:0:
328,208,131380,2,0,L|196:128,1,120
112,148,131785,5,8,0:0:0:0:
248,184,132191,1,2,0:0:0:0:
312,236,132596,1,8,0:0:0:0:
212,240,132868,5,0,0:0:0:0:
160,272,133002,1,2,0:0:0:0:
304,288,133272,1,0,0:0:0:0:
356,260,133407,1,10,0:0:0:0:
412,224,133543,1,0,0:0:0:0:
340,176,133813,5,4,0:0:0:0:
72,184,134218,1,8,0:0:0:0:
264,136,134624,1,0,0:0:0:0:
40,120,135029,1,8,0:0:0:0:
188,112,135435,5,2,0:0:0:0:
148,160,135570,1,0,0:0:0:0:
128,220,135705,1,0,0:0:0:0:
140,280,135840,1,8,0:0:0:0:
288,272,136110,2,0,L|216:200,1,60
468,228,136651,1,8,0:0:0:0:
400,224,136921,1,2,0:0:0:0:
304,220,137056,6,0,L|332:88,1,120,6|0,0:0|0:0,0:0:0:0:
224,112,137461,2,0,L|252:256,1,120,8|0,0:0|0:0,0:0:0:0:
144,224,137867,2,0,L|104:88,1,120
224,112,138272,5,8,0:0:0:0:
368,120,138678,1,2,0:0:0:0:
248,132,139083,1,8,0:0:0:0:
432,200,139353,5,0,0:0:0:0:
456,200,139489,1,2,0:0:0:0:
252,208,139759,1,0,0:0:0:0:
288,200,139894,1,10,0:0:0:0:
100,128,140300,5,4,0:0:0:0:
336,88,140705,1,8,0:0:0:0:
64,80,141111,1,0,0:0:0:0:
312,44,141516,1,8,0:0:0:0:
452,328,141921,5,2,0:0:0:0:
432,272,142056,1,0,0:0:0:0:
384,216,142191,1,0,0:0:0:0:
320,192,142326,1,8,0:0:0:0:
320,232,142596,2,0,L|248:160,1,60
148,224,143137,1,8,0:0:0:0:
208,224,143407,1,2,0:0:0:0:
320,224,143542,6,0,L|180:324,1,120,6|0,0:0|0:0,0:0:0:0:
116,296,143949,2,0,L|48:140,1,120,8|0,0:0|0:0,0:0:0:0:
184,176,144353,2,0,L|316:256,1,120
372,224,144759,5,8,0:0:0:0:
236,104,145030,1,0,0:0:0:0:
288,148,145164,1,2,0:0:0:0:
440,152,145435,1,0,0:0:0:0:
400,112,145570,1,8,0:0:0:0:
240,40,145840,5,0,0:0:0:0:
184,56,145975,1,8,0:0:0:0:
140,112,146111,1,0,0:0:0:0:
116,188,146246,1,0,0:0:0:0:
108,272,146381,1,8,0:0:0:0:
136,352,146516,1,0,0:0:0:0:
184,384,146651,1,0,0:0:0:0:
52,372,146786,5,6,0:0:0:0:
180,256,147192,2,0,L|304:256,1,120,8|0,0:0|0:0,0:0:0:0:
224,196,147597,1,0,0:0:0:0:
428,168,148003,1,8,0:0:0:0:
248,156,148273,1,8,0:0:0:0:
132,104,148408,5,2,0:0:0:0:
192,72,148813,1,2,0:0:0:0:
252,40,149219,1,2,0:0:0:0:
388,8,149624,1,8,0:0:0:0:
176,124,150030,6,0,L|204:40,1,60,2|0,0:0|0:0,0:0:0:0:
396,196,150435,2,0,L|408:124,1,60,2|0,0:0|0:0,0:0:0:0:
208,196,150840,2,0,L|228:264,1,60,2|0,0:0|0:0,0:0:0:0:
344,236,151246,5,10,0:0:0:0:
224,253,151516,1,8,0:0:0:0:
112,256,151651,1,2,0:0:0:0:
292,300,152057,1,0,0:0:0:0:
440,288,152462,6,0,P|453:208|424:164,1,120,2|0,0:0|0:0,0:0:0:0:
348,176,152868,1,8,0:0:0:0:
376,204,153003,1,0,0:0:0:0:
284,256,153273,5,2,0:0:0:0:
204,292,153678,1,2,0:0:0:0:
124,316,154084,1,2,0:0:0:0:
44,316,154489,1,8,0:0:0:0:
112,252,154760,1,8,0:0:0:0:
220,200,154895,5,0,0:0:0:0:
280,140,155301,1,0,0:0:0:0:
340,76,155705,1,2,0:0:0:0:
400,8,156111,1,8,0:0:0:0:
312,20,156246,1,0,0:0:0:0:
216,60,156516,6,0,L|320:148,1,120,2|0,0:0|0:0,0:0:0:0:
240,132,156922,2,0,L|336:224,1,120,2|0,0:0|0:0,0:0:0:0:
220,220,157327,1,0,0:0:0:0:
108,220,157733,5,10,0:0:0:0:
252,224,158003,1,8,0:0:0:0:
364,216,158138,1,2,0:0:0:0:
224,192,158544,1,0,0:0:0:0:
368,184,158949,6,0,L|412:60,1,120,2|0,0:0|0:0,0:0:0:0:
336,72,159355,1,8,0:0:0:0:
460,12,159759,5,6,0:0:0:0:
332,128,160165,2,0,L|208:128,1,120,8|0,0:0|0:0,0:0:0:0:
288,188,160570,1,0,0:0:0:0:
84,216,160976,1,8,0:0:0:0:
264,228,161246,1,8,0:0:0:0:
380,280,161381,5,2,0:0:0:0:
304,316,161786,1,2,0:0:0:0:
228,352,162192,1,2,0:0:0:0:
152,376,162597,1,8,0:0:0:0:
336,260,163003,6,0,L|308:344,1,60,2|0,0:0|0:0,0:0:0:0:
116,188,163408,2,0,L|104:260,1,60,2|0,0:0|0:0,0:0:0:0:
304,188,163813,2,0,L|284:120,1,60,2|0,0:0|0:0,0:0:0:0:
168,148,164219,5,10,0:0:0:0:
288,131,164489,1,8,0:0:0:0:
400,128,164624,1,2,0:0:0:0:
220,84,165030,1,0,0:0:0:0:
72,96,165435,6,0,P|59:176|88:220,1,120,2|0,0:0|0:0,0:0:0:0:
164,208,165841,1,8,0:0:0:0:
136,180,165976,1,0,0:0:0:0:
228,128,166246,5,2,0:0:0:0:
308,92,166651,1,2,0:0:0:0:
388,68,167057,1,2,0:0:0:0:
468,68,167462,1,8,0:0:0:0:
400,132,167733,1,8,0:0:0:0:
292,184,167868,5,0,0:0:0:0:
232,244,168274,1,0,0:0:0:0:
172,308,168678,1,2,0:0:0:0:
112,376,169084,1,8,0:0:0:0:
200,364,169219,1,0,0:0:0:0:
296,324,169489,6,0,L|192:236,1,120,2|0,0:0|0:0,0:0:0:0:
272,252,169895,2,0,L|176:160,1,120,2|0,0:0|0:0,0:0:0:0:
292,164,170300,1,0,0:0:0:0:
404,164,170706,5,10,0:0:0:0:
260,160,170976,1,8,0:0:0:0:
148,168,171111,1,2,0:0:0:0:
288,192,171517,1,0,0:0:0:0:
144,200,171922,6,0,L|100:324,1,120,2|0,0:0|0:0,0:0:0:0:
176,312,172328,1,8,0:0:0:0:
264,284,172732,5,10,0:0:0:0:
320,224,173138,1,2,0:0:0:0:
376,164,173543,1,0,0:0:0:0:
432,104,173949,1,2,0:0:0:0:
392,60,174219,1,0,0:0:0:0:
296,48,174354,5,4,0:0:0:0:
240,100,174760,1,2,0:0:0:0:
176,152,175165,1,0,0:0:0:0:
112,200,175570,1,2,0:0:0:0:
320,224,175841,1,0,0:0:0:0:
280,272,175976,5,4,0:0:0:0:
320,224,176382,1,2,0:0:0:0:
360,176,176787,1,0,0:0:0:0:
400,128,177192,1,2,0:0:0:0:
332,92,177463,1,0,0:0:0:0:
240,76,177597,5,4,0:0:0:0:
184,104,178003,1,2,0:0:0:0:
128,144,178408,1,0,0:0:0:0:
72,176,178813,1,2,0:0:0:0:
316,196,179084,1,0,0:0:0:0:
276,220,179219,1,2,0:0:0:0:
