osu file format v14

[General]
AudioFilename: audio.mp3
AudioLeadIn: 0
PreviewTime: 58
Countdown: 0
SampleSet: Normal
StackLeniency: 0.7
Mode: 1
LetterboxInBreaks: 0
WidescreenStoryboard: 0

[Editor]
DistanceSpacing: 1.2
BeatDivisor: 4
GridSize: 32
TimelineZoom: 2.4

[Metadata]
Title:SORRIZO RONALDO
TitleUnicode:SORRIZO RONALDO
Artist:Milharal
ArtistUnicode:Milharal
Creator:Skull Kid
Version:NORMAL
Source:
Tags:MEGA SE PISCAR JÁ JA ERA DO Marcelo Souza Júnior funk electronic português portuguese cut version
BeatmapID:2426934
BeatmapSetID:807972

[Difficulty]
HPDrainRate:8.5
CircleSize:4
OverallDifficulty:3.5
ApproachRate:9
SliderMultiplier:1.4
SliderTickRate:1

[Events]
//Background and Video events
0,0,"BG.jpg",0,80
//Break Periods
//Storyboard Layer 0 (Background)
//Storyboard Layer 1 (Fail)
//Storyboard Layer 2 (Pass)
//Storyboard Layer 3 (Foreground)
//Storyboard Layer 4 (Overlay)
//Storyboard Sound Samples

[TimingPoints]
148,461.538461538462,4,1,0,60,1,0
148,-100,4,1,0,60,0,0
609,-95.2380952380952,4,1,0,60,0,0
1071,-90.9090909090909,4,1,0,60,0,0
1532,-86.9565217391304,4,1,0,60,0,0
1878,-83.3333333333333,4,1,0,80,0,0
1994,-83.3333333333333,4,1,0,80,0,1
16763,-83.3333333333333,4,1,0,80,0,0
16994,-100,4,1,0,80,0,0
29455,-125,4,1,0,80,0,0
30609,-111.111111111111,4,1,0,80,0,0
31071,-100,4,1,0,80,0,0
40648,-105.263157894737,4,1,0,80,0,0
41109,-111.111111111111,4,1,0,60,0,0
41571,-117.647058823529,4,1,0,40,0,0
42032,-125,4,1,0,20,0,0

[HitObjects]
256,192,148,5,4,0:0:0:0:
256,192,609,1,12,0:0:0:0:
256,192,1071,1,4,0:0:0:0:
256,192,1532,1,12,0:0:0:0:
256,192,1994,1,4,0:0:0:0:
256,192,2686,1,8,0:0:0:0:
256,192,2917,1,0,0:0:0:0:
256,192,3148,1,0,0:0:0:0:
256,192,3378,1,8,0:0:0:0:
256,192,3840,1,0,0:0:0:0:
256,192,4301,1,8,0:0:0:0:
256,192,4763,1,0,0:0:0:0:
256,192,5686,1,4,0:0:0:0:
256,192,6378,1,8,0:0:0:0:
256,192,6609,1,0,0:0:0:0:
256,192,6840,1,0,0:0:0:0:
256,192,7071,1,8,0:0:0:0:
256,192,7301,1,8,0:0:0:0:
256,192,7532,1,0,0:0:0:0:
256,192,7994,1,8,0:0:0:0:
256,192,8455,1,0,0:0:0:0:
256,192,8686,1,0,0:0:0:0:
256,192,8917,1,8,0:0:0:0:
256,192,9378,1,4,0:0:0:0:
256,192,10071,1,8,0:0:0:0:
256,192,10301,1,0,0:0:0:0:
256,192,10532,1,0,0:0:0:0:
256,192,10763,1,8,0:0:0:0:
256,192,11224,1,0,0:0:0:0:
256,192,11686,1,8,0:0:0:0:
256,192,12148,1,0,0:0:0:0:
256,192,13071,1,4,0:0:0:0:
256,192,13763,1,8,0:0:0:0:
256,192,13994,1,0,0:0:0:0:
256,192,14224,1,0,0:0:0:0:
256,192,14455,1,8,0:0:0:0:
256,192,14686,1,8,0:0:0:0:
256,192,14917,1,0,0:0:0:0:
256,192,15378,1,8,0:0:0:0:
256,192,15840,1,0,0:0:0:0:
256,192,16071,1,0,0:0:0:0:
256,192,16301,1,8,0:0:0:0:
256,192,16763,1,4,0:0:0:0:
256,192,17686,2,0,L|192:192,28,34.9999976158143
256,192,21378,1,8,0:0:0:0:
256,192,22301,1,0,0:0:0:0:
256,192,23224,1,8,0:0:0:0:
256,192,23455,1,8,0:0:0:0:
256,192,23686,1,8,0:0:0:0:
256,192,24148,1,4,0:0:0:0:
256,192,25071,1,8,0:0:0:0:
256,192,25532,1,0,0:0:0:0:
256,192,25763,1,0,0:0:0:0:
256,192,25994,1,8,0:0:0:0:
256,192,26686,1,0,0:0:0:0:
256,192,26917,1,8,0:0:0:0:
256,192,27378,1,8,0:0:0:0:
256,192,27840,1,4,0:0:0:0:
256,192,29686,1,0,0:0:0:0:
256,192,30609,1,8,0:0:0:0:
256,192,31071,1,8,0:0:0:0:
256,192,31532,1,4,0:0:0:0:
256,192,31994,1,8,0:0:0:0:
256,192,32455,1,8,0:0:0:0:
256,192,32917,1,8,0:0:0:0:
256,192,33378,1,0,0:0:0:0:
256,192,33609,1,0,0:0:0:0:
256,192,33840,1,8,0:0:0:0:
256,192,34301,1,8,0:0:0:0:
256,192,34763,1,8,0:0:0:0:
256,192,35224,1,0,0:0:0:0:
256,192,35686,1,8,0:0:0:0:
256,192,36148,1,8,0:0:0:0:
256,192,36609,1,8,0:0:0:0:
256,192,37071,1,0,0:0:0:0:
256,192,37532,1,8,0:0:0:0:
256,192,37994,1,8,0:0:0:0:
256,192,38455,1,8,0:0:0:0:
256,192,38917,1,0,0:0:0:0:
256,192,40071,1,0,0:0:0:0:
256,192,40301,1,8,0:0:0:0:
256,192,40763,1,0,0:0:0:0:
256,192,41224,1,0,0:0:0:0:
256,192,41686,1,0,0:0:0:0:
256,192,42148,1,0,0:0:0:0:
