osu file format v14

[General]
AudioFilename: audio.mp3
AudioLeadIn: 0
PreviewTime: 58
Countdown: 0
SampleSet: Normal
StackLeniency: 0.7
Mode: 1
LetterboxInBreaks: 0
WidescreenStoryboard: 0

[Editor]
DistanceSpacing: 1.2
BeatDivisor: 4
GridSize: 32
TimelineZoom: 2.4

[Metadata]
Title:SORRIZO RONALDO
TitleUnicode:SORRIZO RONALDO
Artist:Milharal
ArtistUnicode:Milharal
Creator:Skull Kid
Version:EXTREMO
Source:
Tags:MEGA SE PISCAR JÁ JA ERA DO Marcelo Souza Júnior funk electronic português portuguese cut version
BeatmapID:1695591
BeatmapSetID:807972

[Difficulty]
HPDrainRate:6
CircleSize:4
OverallDifficulty:6
ApproachRate:9
SliderMultiplier:1.4
SliderTickRate:1

[Events]
//Background and Video events
0,0,"BG.jpg",0,80
//Break Periods
//Storyboard Layer 0 (Background)
//Storyboard Layer 1 (Fail)
//Storyboard Layer 2 (Pass)
//Storyboard Layer 3 (Foreground)
//Storyboard Layer 4 (Overlay)
//Storyboard Sound Samples

[TimingPoints]
148,461.538461538462,4,1,0,60,1,0
148,-90.9090909090909,4,1,0,60,0,0
609,-83.3333333333333,4,1,0,60,0,0
1071,-76.9230769230769,4,1,0,60,0,0
1532,-71.4285714285714,4,1,0,60,0,0
1878,-66.6666666666667,4,1,0,80,0,0
1994,-66.6666666666667,4,1,0,80,0,1
4994,-62.5,4,1,0,80,0,1
5224,-58.8235294117647,4,1,0,80,0,1
5455,-55.5555555555556,4,1,0,80,0,1
5686,-66.6666666666667,4,1,0,80,0,1
8686,-62.5,4,1,0,80,0,1
8917,-58.8235294117647,4,1,0,80,0,1
9148,-55.5555555555556,4,1,0,80,0,1
9378,-66.6666666666667,4,1,0,80,0,1
12378,-62.5,4,1,0,80,0,1
12609,-58.8235294117647,4,1,0,80,0,1
12840,-55.5555555555556,4,1,0,80,0,1
13071,-66.6666666666667,4,1,0,80,0,1
16071,-62.5,4,1,0,80,0,1
16301,-58.8235294117647,4,1,0,80,0,1
16532,-55.5555555555556,4,1,0,80,0,1
16763,-66.6666666666667,4,1,0,80,0,0
17744,-65.7894736842105,4,1,0,80,0,0
17801,-64.9350649350649,4,1,0,80,0,0
17859,-64.1025641025641,4,1,0,80,0,0
17917,-63.2911392405063,4,1,0,80,0,0
17974,-62.5,4,1,0,80,0,0
18032,-61.7283950617284,4,1,0,80,0,0
18090,-60.9756097560976,4,1,0,80,0,0
18148,-60.2409638554217,4,1,0,80,0,0
18205,-59.5238095238095,4,1,0,80,0,0
18263,-58.8235294117647,4,1,0,80,0,0
18321,-58.1395348837209,4,1,0,80,0,0
18378,-57.4712643678161,4,1,0,80,0,0
18436,-56.8181818181818,4,1,0,80,0,0
18494,-56.1797752808989,4,1,0,80,0,0
18551,-55.5555555555556,4,1,0,80,0,0
18609,-54.9450549450549,4,1,0,80,0,0
18667,-54.3478260869565,4,1,0,80,0,0
18724,-53.763440860215,4,1,0,80,0,0
18782,-53.1914893617021,4,1,0,80,0,0
18840,-52.6315789473684,4,1,0,80,0,0
18898,-52.0833333333333,4,1,0,80,0,0
18955,-51.5463917525773,4,1,0,80,0,0
19013,-51.0204081632653,4,1,0,80,0,0
19071,-50.5050505050505,4,1,0,80,0,0
19128,-50,4,1,0,80,0,0
19186,-49.5049504950495,4,1,0,80,0,0
19244,-49.0196078431373,4,1,0,80,0,0
19301,-48.5436893203883,4,1,0,80,0,0
19359,-48.0769230769231,4,1,0,80,0,0
19417,-47.6190476190476,4,1,0,80,0,0
19474,-47.1698113207547,4,1,0,80,0,0
19532,-46.7289719626168,4,1,0,80,0,0
19590,-46.2962962962963,4,1,0,80,0,0
19648,-45.8715596330275,4,1,0,80,0,0
19705,-45.4545454545455,4,1,0,80,0,0
19763,-45.045045045045,4,1,0,80,0,0
19821,-44.6428571428571,4,1,0,80,0,0
19878,-44.2477876106195,4,1,0,80,0,0
19936,-43.859649122807,4,1,0,80,0,0
19994,-43.4782608695652,4,1,0,80,0,0
20051,-43.1034482758621,4,1,0,80,0,0
20109,-42.7350427350427,4,1,0,80,0,0
20167,-42.3728813559322,4,1,0,80,0,0
20224,-42.0168067226891,4,1,0,80,0,0
20282,-41.6666666666667,4,1,0,80,0,0
20340,-41.3223140495868,4,1,0,80,0,0
20398,-40.983606557377,4,1,0,80,0,0
20455,-40.650406504065,4,1,0,80,0,0
20513,-40.3225806451613,4,1,0,80,0,0
20571,-40,4,1,0,80,0,0
20628,-39.6825396825397,4,1,0,80,0,0
20686,-39.3700787401575,4,1,0,80,0,0
20744,-39.0625,4,1,0,80,0,0
20801,-38.7596899224806,4,1,0,80,0,0
20859,-38.4615384615385,4,1,0,80,0,0
20917,-38.1679389312977,4,1,0,80,0,0
21032,-40,4,1,0,80,0,0
21148,-41.6666666666667,4,1,0,80,0,0
21263,-43.4782608695652,4,1,0,80,0,0
21378,-45.4545454545455,4,1,0,80,0,0
21609,-47.6190476190476,4,1,0,80,0,0
21724,-50,4,1,0,80,0,0
21840,-52.6315789473684,4,1,0,80,0,0
22071,-58.8235294117647,4,1,0,80,0,0
22301,-66.6666666666667,4,1,0,80,0,0
22417,-68.0272108843537,4,1,0,80,0,0
22532,-69.4444444444444,4,1,0,80,0,0
22648,-70.9219858156028,4,1,0,80,0,0
22763,-72.463768115942,4,1,0,80,0,0
22994,-74.0740740740741,4,1,0,80,0,0
23224,-75.7575757575758,4,1,0,80,0,0
23455,-77.5193798449612,4,1,0,80,0,0
23686,-79.3650793650794,4,1,0,80,0,0
23917,-81.3008130081301,4,1,0,80,0,0
24148,-40,4,1,0,80,0,0
24378,-71.4285714285714,4,1,0,80,0,0
27840,-40,4,1,0,80,0,0
29455,-125,4,1,0,80,0,0
30609,-111.111111111111,4,1,0,80,0,0
31071,-100,4,1,0,80,0,0
31186,-95.2380952380952,4,1,0,80,0,0
31301,-90.9090909090909,4,1,0,80,0,0
31417,-86.9565217391304,4,1,0,80,0,0
31532,-40,4,1,0,80,0,0
31763,-71.4285714285714,4,1,0,80,0,0
39148,-74.0740740740741,4,1,0,80,0,0
39263,-75.4716981132076,4,1,0,80,0,0
39378,-76.9230769230769,4,1,0,80,0,0
39609,-78.4313725490196,4,1,0,80,0,0
39840,-83.3333333333333,4,1,0,80,0,0
39955,-85.1063829787234,4,1,0,80,0,0
40071,-86.9565217391304,4,1,0,80,0,0
40301,-90.9090909090909,4,1,0,80,0,0
40532,-95.2380952380952,4,1,0,80,0,0
40763,-100,4,1,0,80,0,0
41109,-111.111111111111,4,1,0,60,0,0
41571,-125,4,1,0,40,0,0
42032,-142.857142857143,4,1,0,20,0,0

[HitObjects]
256,192,148,5,4,0:0:0:0:
256,192,609,1,12,0:0:0:0:
256,192,1071,1,4,0:0:0:0:
256,192,1532,1,12,0:0:0:0:
256,192,1994,1,0,0:0:0:0:
256,192,2109,1,0,0:0:0:0:
256,192,2224,1,0,0:0:0:0:
256,192,2340,1,8,0:0:0:0:
256,192,2455,1,0,0:0:0:0:
256,192,2571,1,0,0:0:0:0:
256,192,2686,1,8,0:0:0:0:
256,192,2801,1,8,0:0:0:0:
256,192,2917,1,0,0:0:0:0:
256,192,3032,1,0,0:0:0:0:
256,192,3148,1,8,0:0:0:0:
256,192,3263,1,0,0:0:0:0:
256,192,3378,1,8,0:0:0:0:
256,192,3494,1,8,0:0:0:0:
256,192,3609,1,0,0:0:0:0:
256,192,3724,1,8,0:0:0:0:
256,192,3840,1,0,0:0:0:0:
256,192,3955,1,0,0:0:0:0:
256,192,4071,1,0,0:0:0:0:
256,192,4186,1,8,0:0:0:0:
256,192,4301,1,0,0:0:0:0:
256,192,4417,1,0,0:0:0:0:
256,192,4532,1,8,0:0:0:0:
256,192,4648,1,8,0:0:0:0:
256,192,4763,1,4,0:0:0:0:
256,192,4994,1,4,0:0:0:0:
256,192,5224,1,12,0:0:0:0:
256,192,5455,1,12,0:0:0:0:
256,192,5686,1,0,0:0:0:0:
256,192,5801,1,0,0:0:0:0:
256,192,5917,1,0,0:0:0:0:
256,192,6032,1,8,0:0:0:0:
256,192,6148,1,0,0:0:0:0:
256,192,6263,1,0,0:0:0:0:
256,192,6378,1,8,0:0:0:0:
256,192,6494,1,8,0:0:0:0:
256,192,6609,1,0,0:0:0:0:
256,192,6724,1,0,0:0:0:0:
256,192,6840,1,8,0:0:0:0:
256,192,6955,1,0,0:0:0:0:
256,192,7071,1,8,0:0:0:0:
256,192,7186,1,8,0:0:0:0:
256,192,7301,1,0,0:0:0:0:
256,192,7417,1,8,0:0:0:0:
256,192,7532,1,0,0:0:0:0:
256,192,7648,1,8,0:0:0:0:
256,192,7763,1,8,0:0:0:0:
256,192,7878,1,8,0:0:0:0:
256,192,7994,1,0,0:0:0:0:
256,192,8109,1,0,0:0:0:0:
256,192,8224,1,8,0:0:0:0:
256,192,8340,1,8,0:0:0:0:
256,192,8455,1,4,0:0:0:0:
256,192,8686,1,4,0:0:0:0:
256,192,8917,1,12,0:0:0:0:
256,192,9148,1,12,0:0:0:0:
256,192,9378,1,0,0:0:0:0:
256,192,9494,1,0,0:0:0:0:
256,192,9609,1,0,0:0:0:0:
256,192,9724,1,8,0:0:0:0:
256,192,9840,1,0,0:0:0:0:
256,192,9955,1,0,0:0:0:0:
256,192,10071,1,8,0:0:0:0:
256,192,10186,1,8,0:0:0:0:
256,192,10301,1,0,0:0:0:0:
256,192,10417,1,0,0:0:0:0:
256,192,10532,1,8,0:0:0:0:
256,192,10648,1,0,0:0:0:0:
256,192,10763,1,8,0:0:0:0:
256,192,10878,1,8,0:0:0:0:
256,192,10994,1,0,0:0:0:0:
256,192,11109,1,8,0:0:0:0:
256,192,11224,1,0,0:0:0:0:
256,192,11340,1,0,0:0:0:0:
256,192,11455,1,0,0:0:0:0:
256,192,11571,1,8,0:0:0:0:
256,192,11686,1,0,0:0:0:0:
256,192,11801,1,0,0:0:0:0:
256,192,11917,1,8,0:0:0:0:
256,192,12032,1,8,0:0:0:0:
256,192,12148,1,4,0:0:0:0:
256,192,12378,1,4,0:0:0:0:
256,192,12609,1,12,0:0:0:0:
256,192,12840,1,12,0:0:0:0:
256,192,13071,1,0,0:0:0:0:
256,192,13186,1,0,0:0:0:0:
256,192,13301,1,0,0:0:0:0:
256,192,13417,1,8,0:0:0:0:
256,192,13532,1,0,0:0:0:0:
256,192,13648,1,0,0:0:0:0:
256,192,13763,1,8,0:0:0:0:
256,192,13878,1,8,0:0:0:0:
256,192,13994,1,0,0:0:0:0:
256,192,14109,1,0,0:0:0:0:
256,192,14224,1,8,0:0:0:0:
256,192,14340,1,0,0:0:0:0:
256,192,14455,1,8,0:0:0:0:
256,192,14571,1,8,0:0:0:0:
256,192,14686,1,0,0:0:0:0:
256,192,14801,1,8,0:0:0:0:
256,192,14917,1,0,0:0:0:0:
256,192,15032,1,8,0:0:0:0:
256,192,15148,1,8,0:0:0:0:
256,192,15263,1,8,0:0:0:0:
256,192,15378,1,0,0:0:0:0:
256,192,15494,1,0,0:0:0:0:
256,192,15609,1,8,0:0:0:0:
256,192,15724,1,8,0:0:0:0:
256,192,15840,1,4,0:0:0:0:
256,192,16071,1,4,0:0:0:0:
256,192,16301,1,12,0:0:0:0:
256,192,16532,1,12,0:0:0:0:
256,192,16763,1,4,0:0:0:0:
256,192,16994,1,8,0:0:0:0:
256,192,17109,1,0,0:0:0:0:
256,192,17224,1,0,0:0:0:0:
256,192,17340,1,8,0:0:0:0:
256,192,17455,1,8,0:0:0:0:
256,192,17571,1,0,0:0:0:0:
256,192,17686,1,8,0:0:0:0:
256,192,17744,1,8,0:0:0:0:
256,192,17801,1,0,0:0:0:0:
256,192,17859,1,0,0:0:0:0:
256,192,17917,1,8,0:0:0:0:
256,192,17974,1,8,0:0:0:0:
256,192,18032,1,0,0:0:0:0:
256,192,18090,1,0,0:0:0:0:
256,192,18148,1,8,0:0:0:0:
256,192,18205,1,8,0:0:0:0:
256,192,18263,1,0,0:0:0:0:
256,192,18321,1,0,0:0:0:0:
256,192,18378,1,8,0:0:0:0:
256,192,18436,1,8,0:0:0:0:
256,192,18494,1,0,0:0:0:0:
256,192,18551,1,0,0:0:0:0:
256,192,18609,1,8,0:0:0:0:
256,192,18667,1,8,0:0:0:0:
256,192,18724,1,0,0:0:0:0:
256,192,18782,1,0,0:0:0:0:
256,192,18840,1,8,0:0:0:0:
256,192,18898,1,8,0:0:0:0:
256,192,18955,1,0,0:0:0:0:
256,192,19013,1,0,0:0:0:0:
256,192,19071,1,8,0:0:0:0:
256,192,19128,1,8,0:0:0:0:
256,192,19186,1,0,0:0:0:0:
256,192,19244,1,0,0:0:0:0:
256,192,19301,1,8,0:0:0:0:
256,192,19359,1,8,0:0:0:0:
256,192,19417,1,0,0:0:0:0:
256,192,19474,1,0,0:0:0:0:
256,192,19532,1,8,0:0:0:0:
256,192,19590,1,8,0:0:0:0:
256,192,19648,1,0,0:0:0:0:
256,192,19705,1,0,0:0:0:0:
256,192,19763,1,8,0:0:0:0:
256,192,19821,1,8,0:0:0:0:
256,192,19878,1,0,0:0:0:0:
256,192,19936,1,0,0:0:0:0:
256,192,19994,1,8,0:0:0:0:
256,192,20051,1,8,0:0:0:0:
256,192,20109,1,0,0:0:0:0:
256,192,20167,1,0,0:0:0:0:
256,192,20224,1,8,0:0:0:0:
256,192,20282,1,8,0:0:0:0:
256,192,20340,1,0,0:0:0:0:
256,192,20398,1,0,0:0:0:0:
256,192,20455,1,8,0:0:0:0:
256,192,20513,1,8,0:0:0:0:
256,192,20571,1,0,0:0:0:0:
256,192,20628,1,0,0:0:0:0:
256,192,20686,1,8,0:0:0:0:
256,192,20744,1,8,0:0:0:0:
256,192,20801,1,0,0:0:0:0:
256,192,20859,1,0,0:0:0:0:
256,192,20917,1,8,0:0:0:0:
256,192,21032,1,8,0:0:0:0:
256,192,21148,1,0,0:0:0:0:
256,192,21263,1,0,0:0:0:0:
256,192,21378,1,8,0:0:0:0:
256,192,21609,1,0,0:0:0:0:
256,192,21724,1,8,0:0:0:0:
256,192,21840,1,8,0:0:0:0:
256,192,22071,1,0,0:0:0:0:
256,192,22301,1,8,0:0:0:0:
256,192,22417,1,0,0:0:0:0:
256,192,22532,1,8,0:0:0:0:
256,192,22648,1,8,0:0:0:0:
256,192,22763,1,0,0:0:0:0:
256,192,22994,1,0,0:0:0:0:
256,192,23224,1,8,0:0:0:0:
256,192,23455,1,0,0:0:0:0:
256,192,23686,1,8,0:0:0:0:
256,192,23917,1,8,0:0:0:0:
256,192,24148,1,4,0:0:0:0:
256,192,24378,1,8,0:0:0:0:
256,192,24494,1,8,0:0:0:0:
256,192,24609,1,0,0:0:0:0:
256,192,24724,1,8,0:0:0:0:
256,192,24840,1,0,0:0:0:0:
256,192,24955,1,0,0:0:0:0:
256,192,25071,1,8,0:0:0:0:
256,192,25186,1,8,0:0:0:0:
256,192,25301,1,0,0:0:0:0:
256,192,25532,1,0,0:0:0:0:
256,192,25763,1,8,0:0:0:0:
256,192,25994,1,0,0:0:0:0:
256,192,26224,1,8,0:0:0:0:
256,192,26340,1,0,0:0:0:0:
256,192,26455,1,8,0:0:0:0:
256,192,26686,1,0,0:0:0:0:
256,192,26801,1,8,0:0:0:0:
256,192,26917,1,8,0:0:0:0:
256,192,27148,1,0,0:0:0:0:
256,192,27378,1,8,0:0:0:0:
256,192,27609,1,8,0:0:0:0:
256,192,27840,1,4,0:0:0:0:
256,192,29686,1,0,0:0:0:0:
256,192,30609,1,8,0:0:0:0:
256,192,31071,1,0,0:0:0:0:
256,192,31186,1,0,0:0:0:0:
256,192,31301,1,8,0:0:0:0:
256,192,31417,1,8,0:0:0:0:
256,192,31532,1,4,0:0:0:0:
256,192,31763,1,8,0:0:0:0:
256,192,31994,1,0,0:0:0:0:
256,192,32224,1,8,0:0:0:0:
256,192,32455,1,0,0:0:0:0:
256,192,32686,1,0,0:0:0:0:
256,192,32917,1,8,0:0:0:0:
256,192,33148,1,8,0:0:0:0:
256,192,33378,1,0,0:0:0:0:
256,192,33494,1,8,0:0:0:0:
256,192,33609,1,0,0:0:0:0:
256,192,33724,1,8,0:0:0:0:
256,192,33840,1,0,0:0:0:0:
256,192,34071,1,8,0:0:0:0:
256,192,34301,1,0,0:0:0:0:
256,192,34532,1,0,0:0:0:0:
256,192,34763,1,8,0:0:0:0:
256,192,34994,1,8,0:0:0:0:
256,192,35224,1,0,0:0:0:0:
256,192,35686,1,8,0:0:0:0:
256,192,36148,1,8,0:0:0:0:
256,192,36609,1,8,0:0:0:0:
256,192,37071,1,0,0:0:0:0:
256,192,37532,1,8,0:0:0:0:
256,192,37994,1,8,0:0:0:0:
256,192,38455,1,8,0:0:0:0:
256,192,38917,1,0,0:0:0:0:
256,192,39148,1,8,0:0:0:0:
256,192,39263,1,8,0:0:0:0:
256,192,39378,1,0,0:0:0:0:
256,192,39609,1,8,0:0:0:0:
256,192,39840,1,0,0:0:0:0:
256,192,39955,1,8,0:0:0:0:
256,192,40071,1,0,0:0:0:0:
256,192,40301,1,8,0:0:0:0:
256,192,40532,1,8,0:0:0:0:
256,192,40763,1,0,0:0:0:0:
256,192,41224,1,0,0:0:0:0:
256,192,41686,1,0,0:0:0:0:
256,192,42148,1,0,0:0:0:0:
