osu file format v14

[General]
AudioFilename: audio.ogg
AudioLeadIn: 0
PreviewTime: 32225
Countdown: 0
SampleSet: Soft
StackLeniency: 0.7
Mode: 0
LetterboxInBreaks: 0
WidescreenStoryboard: 1

[Editor]
DistanceSpacing: 0.9
BeatDivisor: 4
GridSize: 8
TimelineZoom: 2.2

[Metadata]
Title:The Best of Both Worlds (TV Size)
TitleUnicode:The Best of Both Worlds (TV Size)
Artist:Miley Cyrus
ArtistUnicode:Miley Cyrus
Creator:AJT
Version:Fluxie's Spinsane
Source:Hannah Montana
Tags:english pop rock disney channel fluxie31
BeatmapID:4380552
BeatmapSetID:2089911

[Difficulty]
HPDrainRate:6
CircleSize:4
OverallDifficulty:7.5
ApproachRate:7
SliderMultiplier:2.4
SliderTickRate:1

[Events]
//Background and Video events
Video,201,"video.avi"
0,0,"bg.jpeg",0,0
//Break Periods
//Storyboard Layer 0 (Background)
//Storyboard Layer 1 (Fail)
//Storyboard Layer 2 (Pass)
//Storyboard Layer 3 (Foreground)
//Storyboard Layer 4 (Overlay)
//Storyboard Sound Samples

[TimingPoints]
290,483.870967741935,4,2,0,60,1,0
4160,-100,4,2,0,70,0,0
7306,-100,4,2,0,50,0,0
7548,-100,4,2,0,70,0,0
8031,-150,4,2,0,60,0,0
10209,-100,4,2,0,60,0,0
10693,-150,4,2,0,60,0,0
17467,-100,4,2,0,60,0,0
17709,-149.999925000037,4,2,0,60,0,0
23515,-120,4,2,0,70,0,0
29080,-100,4,2,0,70,0,0
29322,-100,4,2,0,75,0,0
33193,-93.75,4,2,0,85,0,1
38394,-93.75,4,2,0,5,0,1
38515,-93.75,4,2,0,85,0,1
48677,-93.75,4,2,0,85,0,0

[Colours]
Combo1 : 255,192,0
Combo2 : 255,255,74
Combo3 : 153,51,255
Combo4 : 0,188,128

[HitObjects]
144,64,290,6,0,B|256:-16|368:64,2,240,0|8|0,1:0|1:0|1:0,0:0:0:0:
144,64,1499,1,0,1:0:0:0:
256,112,1741,1,8,1:0:0:0:
368,320,2225,6,0,B|256:400|144:320,1,240,0|8,1:0|1:0,0:0:0:0:
136,208,2951,1,0,1:0:0:0:
136,208,3435,1,0,1:0:0:0:
256,192,3677,1,8,1:0:0:0:
464,72,4160,6,0,B|424:-8|320:56,1,120,4|0,1:2|0:0,0:0:0:0:
392,112,4644,2,0,B|352:192|248:128,1,120,8|0,1:0|0:0,0:0:0:0:
216,112,5128,2,0,B|176:32|72:96,1,120,0|0,1:0|0:0,0:0:0:0:
152,160,5612,2,0,B|112:240|8:176,1,120,8|0,1:0|0:0,0:0:0:0:
51,197,5975,1,0,0:0:0:0:
51,197,6096,6,0,B|112:155|152:235,1,120,0|0,1:0|0:0,0:0:0:0:
115,304,6580,2,0,B|176:347|216:267,1,120,8|0,1:0|0:0,0:0:0:0:
291,229,7064,2,0,B|352:187|392:267,1,120,0|0,1:0|0:0,0:0:0:0:
363,344,7548,2,0,B|424:387|464:307,1,120,8|0,1:0|0:0,0:0:0:0:
488,240,8031,5,6,3:2:0:0:
440,176,8273,1,0,0:0:0:0:
488,112,8515,1,0,1:0:0:0:
376,0,8999,1,2,3:2:0:0:
304,40,9241,1,0,0:0:0:0:
256,104,9483,1,0,1:0:0:0:
256,184,9725,1,2,0:0:0:0:
256,200,9846,1,2,0:0:0:0:
256,216,9967,1,0,3:0:0:0:
256,296,10209,2,0,B|184:384|312:304|256:376,2,120,2|2|2,0:0|1:2|0:0,0:0:0:0:
328,256,10935,5,0,3:0:0:0:
360,232,11056,1,0,3:0:0:0:
400,224,11177,1,2,0:0:0:0:
432,208,11298,1,0,3:0:0:0:
472,200,11419,2,0,B|488:168|456:152|472:120,1,80,0|0,1:0|0:0,0:0:0:0:
480,40,11902,2,0,B|400:8|312:56,1,160,0|0,3:0|1:0,0:0:0:0:
256,96,12628,1,2,0:0:0:0:
186,49,12870,2,0,B|112:8|32:40,1,160,0|0,3:0|1:0,0:0:0:0:
8,120,13596,1,2,0:0:0:0:
168,144,14080,6,0,B|216:152|256:192,1,80,2|0,0:0|1:0,0:0:0:0:
256,256,14564,1,0,0:0:0:0:
304,320,14806,1,0,3:0:0:0:
344,320,14927,1,0,3:0:0:0:
384,320,15048,1,2,3:2:0:0:
416,296,15169,1,0,3:0:0:0:
432,264,15289,1,2,1:2:0:0:
416,224,15410,1,0,3:0:0:0:
384,192,15531,1,2,3:2:0:0:
344,192,15652,1,0,3:0:0:0:
304,192,15773,6,0,B|264:192|240:152,1,80,2|0,3:2|0:0,0:0:0:0:
256,72,16257,1,0,1:0:0:0:
256,72,16499,1,0,0:0:0:0:
296,0,16741,2,0,B|336:0|360:40,2,80,0|2|0,3:0|0:0|1:0,0:0:0:0:
216,0,17467,2,0,B|184:64|152:-8|112:56,1,120,2|0,0:0|3:0,0:0:0:0:
72,112,17951,1,0,3:0:0:0:
72,112,18072,1,2,0:0:0:0:
72,112,18193,2,0,B|72:168|144:184,1,80.0000406901249,0|2,1:0|0:0,0:0:0:0:
192,152,18677,1,0,3:0:0:0:
264,208,18919,1,2,0:0:0:0:
264,208,19039,1,2,0:0:0:0:
264,208,19160,2,0,B|264:264|192:280,1,80.0000406901249,0|2,1:0|0:0,0:0:0:0:
144,272,19644,6,0,B|96:280|72:336,1,80.0000406901249,0|0,3:0|0:0,0:0:0:0:
144,368,20128,2,0,B|192:376|216:344,1,80.0000406901249,0|2,1:0|0:0,0:0:0:0:
296,344,20612,2,0,B|320:376|368:368,1,80.0000406901249,0|2,3:0|0:0,0:0:0:0:
430,317,21096,2,0,B|416:280|368:272,1,80.0000406901249,0|2,1:0|0:0,0:0:0:0:
296,240,21580,2,0,B|288:176|256:176|224:176|216:104,1,160.00008138025,0|0,3:0|1:0,0:0:0:0:
216,108,22306,1,2,0:0:0:0:
168,192,22548,5,0,3:0:0:0:
128,192,22669,1,0,3:0:0:0:
96,160,22789,1,0,3:0:0:0:
80,120,22910,1,0,3:0:0:0:
96,88,23031,2,0,P|112:72|128:64,1,40.0000203450624,0|0,1:0|0:0,0:0:0:0:
168,64,23273,1,0,1:0:0:0:
208,64,23394,1,0,1:0:0:0:
256,64,23515,6,0,B|312:64|352:16,1,100,4|0,3:2|0:0,0:0:0:0:
440,0,23999,2,0,B|440:56|488:96,1,100,0|0,1:0|0:0,0:0:0:0:
400,144,24483,2,0,B|400:200|352:240,1,100,0|0,3:0|0:0,0:0:0:0:
288,296,24967,2,0,B|288:352|336:392,1,100,0|2,1:0|0:0,0:0:0:0:
432,384,25451,1,0,3:0:0:0:
480,296,25693,2,0,B|472:232|400:208,1,100,2|0,0:0|1:0,0:0:0:0:
328,192,26177,2,0,B|256:96|256:304|176:192,1,200,2|0,0:0|0:0,0:0:0:0:
176,192,26902,1,0,1:0:0:0:
176,192,27144,1,2,0:0:0:0:
184,384,27386,6,0,B|224:352|224:296,1,100,2|2,3:2|0:0,0:0:0:0:
151,232,27870,2,0,B|112:200|112:144,1,100,0|2,1:0|0:0,0:0:0:0:
32,88,28354,2,0,B|72:56|72:0,2,100,0|2|0,3:0|0:0|1:0,0:0:0:0:
152,80,29080,6,0,B|273:-13|508:14|527:173|489:370|311:455|189:370|105:258|123:173|189:117|292:108|330:155,1,960,2|0,0:0|0:0,0:0:0:0:
256,192,31257,12,0,32225,1:0:0:0:
152,112,33193,6,0,B|256:-24|360:112,1,256,4|8,1:2|1:0,0:0:0:0:
256,192,33919,1,0,3:0:0:0:
360,272,34160,2,0,B|256:408|152:272,1,256,0|8,1:0|1:0,0:0:0:0:
56,192,34886,1,2,0:0:0:0:
72,64,35128,1,0,1:0:0:0:
144,200,35370,1,2,0:0:0:0:
152,48,35612,1,8,1:0:0:0:
216,160,35854,1,2,0:0:0:0:
224,0,36096,1,0,1:0:0:0:
296,144,36338,1,2,0:0:0:0:
312,16,36580,1,8,1:0:0:0:
392,216,36822,1,2,0:0:0:0:
392,0,37064,6,0,B|464:8|496:80,1,128,0|2,1:0|0:0,0:0:0:0:
376,128,37548,1,8,1:0:0:0:
488,192,37789,2,0,B|488:360|304:360,1,256,2|0,0:0|0:0,0:0:0:0:
208,368,38515,1,8,1:0:0:0:
208,368,38757,1,0,0:0:0:0:
304,280,38999,1,0,1:0:0:0:
208,192,39241,1,2,0:0:0:0:
304,104,39483,1,8,1:0:0:0:
208,16,39725,1,2,0:0:0:0:
464,8,40209,5,2,0:0:0:0:
488,136,40451,1,8,1:0:0:0:
360,144,40693,1,2,0:0:0:0:
360,272,40935,6,0,B|256:408|152:272,1,256,4|8,1:2|1:0,0:0:0:0:
256,192,41660,1,0,3:0:0:0:
152,112,41902,2,0,B|256:-24|360:112,1,256,0|8,1:0|1:0,0:0:0:0:
456,192,42628,1,2,0:0:0:0:
440,320,42870,1,0,1:0:0:0:
368,184,43112,1,2,0:0:0:0:
360,336,43354,1,8,1:0:0:0:
296,224,43596,1,2,0:0:0:0:
288,384,43838,1,0,1:0:0:0:
216,240,44080,1,2,0:0:0:0:
200,368,44322,1,8,1:0:0:0:
136,256,44564,1,2,0:0:0:0:
120,384,44806,6,0,B|48:376|16:288,1,128,0|0,1:0|0:0,0:0:0:0:
8,184,45289,2,0,B|16:112|104:80,1,128,8|0,1:0|0:0,0:0:0:0:
208,72,45773,2,0,B|280:80|312:168,1,128,0|0,1:0|0:0,0:0:0:0:
320,272,46257,2,0,B|312:344|224:376,1,128,8|0,1:0|0:0,0:0:0:0:
192,272,46741,5,2,1:2:0:0:
152,150,46983,1,2,1:2:0:0:
255,75,47225,1,2,1:2:0:0:
359,150,47467,1,2,1:2:0:0:
319,272,47709,1,2,1:2:0:0:
255,75,47951,1,2,1:2:0:0:
192,272,48193,1,2,1:2:0:0:
359,150,48435,1,0,1:0:0:0:
152,150,48677,1,4,1:2:0:0:
