osu file format v14

[General]
AudioFilename: audio.mp3
AudioLeadIn: 0
PreviewTime: 64253
Countdown: 0
SampleSet: Soft
StackLeniency: 0.7
Mode: 0
LetterboxInBreaks: 0
WidescreenStoryboard: 1

[Editor]
Bookmarks: 40381
DistanceSpacing: 0.9
BeatDivisor: 1
GridSize: 32
TimelineZoom: 1

[Metadata]
Title:Genzai Banzai (TV Size)
TitleUnicode:ゲンザイ↑バンザイ↑ (TV Size)
Artist:Mile (CV: Waki Azumi)
ArtistUnicode:マイル (CV: 和氣あず未)
Creator:Riana
Version:Normal
Source:私、能力は平均値でって言ったよね!
Tags:noukin watashi, nouryoku wa heikinchi de tte itta yo ne! ne adele von ascham japanese anime
BeatmapID:2319801
BeatmapSetID:1048637

[Difficulty]
HPDrainRate:3
CircleSize:3
OverallDifficulty:4
ApproachRate:5
SliderMultiplier:1.3
SliderTickRate:1

[Events]
//Background and Video events
0,0,"4228.jpg",0,0
//Break Periods
//Storyboard Layer 0 (Background)
//Storyboard Layer 1 (Fail)
//Storyboard Layer 2 (Pass)
//Storyboard Layer 3 (Foreground)
//Storyboard Layer 4 (Overlay)
//Storyboard Sound Samples

[TimingPoints]
1208,451.127819548872,4,2,0,50,1,0
1208,-100,4,2,0,50,0,0
4817,-90.9090909090909,4,2,0,70,0,0
15644,-90.9090909090909,4,2,0,70,0,0
19253,-100,4,2,0,40,0,0
32786,-100,4,2,0,40,0,0
33689,-100,4,2,0,60,0,0
48125,-100,4,2,0,50,0,0
55117,-90.9090909090909,4,2,0,60,0,0
62561,-90.9090909090909,4,2,0,70,0,0
64365,-83.3333333333333,4,2,0,80,0,1
78801,-90.9090909090909,4,2,0,70,0,0
84441,-100,4,2,0,50,0,0
86020,-90.9090909090909,4,2,0,70,0,0

[Colours]
Combo1 : 217,217,255
Combo2 : 255,149,202
Combo3 : 136,255,214
Combo4 : 255,255,128

[HitObjects]
11,261,1208,6,0,L|143:253,1,130,6|2,0:2|0:2,0:0:0:0:
265,290,2110,2,0,P|281:332|270:405,2,97.5,2|0|6,0:2|0:0|3:2,0:0:0:0:
235,168,3238,1,2,0:2:0:0:
235,168,3463,2,0,L|246:27,1,130,2|2,0:2|1:2,0:0:0:0:
429,257,4817,6,0,P|347:240|281:286,1,143.000004364014,6|10,1:2|0:2,0:0:0:0:
261,319,5493,1,0,0:2:0:0:
261,319,5719,2,0,P|181:330|138:303,1,107.25000327301,2|0,1:2|1:2,0:0:0:0:
113,235,6395,6,0,L|98:72,1,143.000004364014,2|2,0:2|0:0,0:0:0:0:
150,52,7072,2,0,P|194:41|238:55,1,71.5000021820069,10|2,0:0|0:0,0:0:0:0:
255,99,7523,2,0,L|415:116,1,143.000004364014,2|10,1:2|0:2,0:0:0:0:
360,237,8426,6,0,P|331:301|350:368,1,143.000004364014,6|10,1:2|0:2,0:0:0:0:
291,363,9102,1,0,0:2:0:0:
291,363,9328,2,0,P|211:352|168:379,2,107.25000327301,2|0|2,0:2|1:2|0:2,0:0:0:0:
290,234,10456,5,2,0:2:0:0:
290,234,10681,2,0,P|274:180|286:143,1,71.5000021820069,10|2,0:2|0:2,0:2:0:0:
311,111,11132,2,0,L|151:128,1,143.000004364014,2|10,1:2|0:2,0:0:0:0:
40,115,12035,6,0,P|23:197|69:263,1,143.000004364014,6|10,1:2|0:2,0:0:0:0:
102,283,12711,1,0,0:2:0:0:
102,283,12937,2,0,P|113:363|86:406,1,107.25000327301,2|0,1:2|1:2,0:0:0:0:
199,379,13613,6,0,L|349:360,1,143.000004364014,2|2,0:2|0:2,0:0:0:0:
363,300,14290,2,0,P|359:249|329:219,1,71.5000021820069,10|2,0:2|0:2,0:0:0:0:
299,191,14741,2,0,L|316:31,1,143.000004364014,2|14,1:2|0:2,0:0:0:0:
206,119,15644,6,0,P|141:147|74:128,1,143.000004364014,6|10,1:2|0:2,0:0:0:0:
3,235,16546,2,0,L|22:352,2,107.25000327301,2|2|2,1:2|1:2|1:2,0:0:0:0:
127,193,17674,5,10,0:2:0:0:
127,193,17899,2,0,P|148:238|148:279,1,71.5000021820069,10|0,0:2|0:0,0:0:0:0:
109,310,18350,2,0,L|271:289,1,143.000004364014,2|2,0:2|0:2,0:0:0:0:
359,334,19253,5,6,1:2:0:0:
271,182,19929,1,2,0:2:0:0:
271,182,20155,2,0,L|249:44,1,130,2|2,1:2|1:2,0:0:0:0:
289,9,20832,1,2,0:2:0:0:
377,84,21283,1,2,0:2:0:0:
372,200,21734,2,0,P|312:202|226:315,1,195,2|2,0:2|0:2,0:0:0:0:
129,234,22862,6,0,L|109:97,2,130,2|2|2,1:2|1:2|1:2,0:0:0:0:
46,316,24215,1,2,1:2:0:0:
46,316,24441,2,0,P|101:353|179:326,1,130,2|2,0:2|0:2,0:0:0:0:
196,296,25117,1,2,1:2:0:0:
300,244,25568,2,0,L|434:258,1,130,2|2,1:2|1:2,0:0:0:0:
378,151,26471,5,4,1:2:0:0:
226,63,27147,1,2,0:2:0:0:
226,63,27373,2,0,L|88:41,1,130,2|2,1:2|1:2,0:0:0:0:
53,81,28050,1,2,0:2:0:0:
16,192,28501,1,2,0:2:0:0:
93,279,28952,2,0,P|153:277|239:164,1,195,2|0,0:2|1:2,0:0:0:0:
222,65,30080,6,0,L|359:45,2,130,2|2|2,1:2|1:2|1:2,0:0:0:0:
140,1,31433,1,2,1:2:0:0:
140,1,31659,2,0,P|103:56|130:134,1,130,2|0,0:2|0:2,0:0:0:0:
161,149,32335,1,2,1:2:0:0:
211,254,32786,2,0,L|197:388,1,130,8|8,0:2|0:2,0:0:0:0:
315,376,33689,6,0,P|395:364|422:298,1,130,6|8,1:2|0:2,0:0:0:0:
437,274,34365,1,2,0:2:0:0:
437,274,34591,2,0,L|423:129,1,130,2|10,1:2|0:2,0:0:0:0:
378,107,35268,1,2,0:2:0:0:
277,166,35719,2,0,L|201:154,1,65,2|10,0:2|0:2,0:0:0:0:
159,131,36170,2,0,P|117:163|155:298,1,195,2|8,0:2|0:2,0:0:0:0:
248,327,37298,6,0,L|330:320,1,65,2|0,1:2|0:2,0:0:0:0:
349,276,37749,2,0,L|431:283,1,65,10|0,0:2|0:2,0:0:0:0:
461,315,38200,2,0,P|439:232|470:188,1,130,2|10,1:2|0:2,0:0:0:0:
510,169,38877,1,2,0:2:0:0:
429,84,39328,1,0,0:2:0:0:
429,84,39553,1,10,0:2:0:0:
319,43,40004,2,0,L|229:51,1,65,2|2,1:2|0:2,0:0:0:0:
216,93,40456,2,0,L|126:85,1,65,10|2,0:2|3:2,0:0:0:0:
102,54,40907,6,0,P|108:153|75:186,1,130,6|8,1:2|0:2,0:0:0:0:
44,205,41583,1,2,0:2:0:0:
44,205,41809,1,2,1:2:0:0:
102,306,42260,1,10,0:2:0:0:
102,306,42486,2,0,P|169:274|234:305,1,130,2|2,0:2|0:2,0:0:0:0:
270,317,43162,2,0,L|286:171,2,130,10|2|8,0:2|1:2|0:2,0:0:0:0:
377,269,44516,6,0,L|370:187,1,65,2|0,1:2|0:2,0:0:0:0:
407,158,44967,2,0,L|414:76,1,65,10|0,0:2|0:2,0:0:0:0:
370,51,45418,2,0,P|287:73|243:42,1,130,2|10,1:2|0:2,0:0:0:0:
218,5,46095,1,2,0:2:0:0:
105,16,46546,1,0,0:2:0:0:
105,16,46771,1,10,0:2:0:0:
31,106,47222,2,0,L|42:249,1,130,0|0,1:2|3:2,0:0:0:0:
102,335,48125,6,0,P|169:295|292:342,1,195,6|2,1:2|1:2,0:0:0:0:
322,288,49027,2,0,L|332:203,2,65,14|0|0,0:2|0:2|0:2,0:0:0:0:
425,232,49929,2,0,L|409:83,1,130,2|0,1:2|3:2,0:0:0:0:
434,48,50606,2,0,P|359:83|261:23,1,195,2|10,1:2|0:2,0:0:0:0:
151,52,51734,6,0,P|191:119|144:242,1,195,6|2,1:2|1:2,0:0:0:0:
111,256,52636,1,14,0:2:0:0:
188,350,53087,1,0,0:2:0:0:
188,350,53313,2,0,L|390:330,1,195,2|0,0:2|0:2,0:0:0:0:
441,231,54441,1,12,0:2:0:0:
441,231,54666,2,0,P|444:186|433:146,1,65,2|8,0:2|0:2,0:0:0:0:
426,103,55117,6,0,L|258:78,1,143.000004364014,2|0,0:2|0:2,0:0:0:0:
222,69,55794,1,14,0:2:0:0:
94,89,56245,2,0,L|77:0,2,71.5000021820069,2|2|14,1:2|3:2|0:2,0:0:0:0:
110,151,56922,2,0,L|278:176,1,143.000004364014,2|0,0:2|0:2,0:0:0:0:
302,131,57599,1,14,0:2:0:0:
356,247,58050,2,0,L|373:336,2,71.5000021820069,2|2|14,1:2|3:2|0:2,0:0:0:0:
450,159,58952,6,0,P|405:119|412:15,1,143.000004364014,6|10,1:2|0:2,0:0:0:0:
345,77,59629,2,0,P|287:95|201:37,1,143.000004364014,2|2,1:2|1:2,0:0:0:0:
184,11,60305,1,10,0:2:0:0:
184,11,60531,1,6,1:2:0:0:
256,192,60756,12,2,62561,1:2:0:0:
111,229,64365,6,0,P|152:233|198:218,1,77.999997619629,6|0,1:2|0:2,0:0:0:0:
237,173,64817,2,0,P|274:163|313:167,1,77.999997619629,10|0,0:2|0:2,0:0:0:0:
366,213,65268,2,0,L|376:356,1,116.999996429443,2|2,1:2|0:2,0:0:0:0:
463,274,65944,2,0,L|473:173,1,77.999997619629,2|0,0:2|0:0,0:0:0:0:
441,132,66395,2,0,P|447:84|431:31,2,77.999997619629,2|10|2,0:2|0:2|0:2,0:0:0:0:
303,102,67298,1,14,0:2:0:0:
237,78,67523,1,14,0:2:0:0:
100,111,67974,6,0,P|79:163|86:212,1,77.999997619629,6|0,1:2|0:2,0:0:0:0:
54,250,68426,2,0,P|88:294|134:312,1,77.999997619629,10|0,0:2|0:2,0:0:0:0:
133,369,68877,2,0,L|255:349,2,116.999996429443,2|2|2,1:2|0:2|0:2,0:0:0:0:
199,245,70004,2,0,L|189:160,2,77.999997619629,2|10|2,0:2|0:2|0:2,0:0:0:0:
267,258,70681,1,2,1:2:0:0:
336,269,70907,2,0,L|438:252,1,77.999997619629,12|12,0:2|0:2,0:0:0:0:
364,124,71583,6,0,P|323:120|277:135,1,77.999997619629,6|0,1:2|0:2,0:0:0:0:
238,180,72035,2,0,P|200:189|161:185,1,77.999997619629,10|0,0:2|0:2,0:0:0:0:
110,137,72486,2,0,L|100:-6,1,116.999996429443,2|2,1:2|0:2,0:0:0:0:
17,82,73162,2,0,L|22:173,1,77.999997619629,2|0,0:2|0:0,0:0:0:0:
6,228,73613,2,0,P|55:227|105:246,2,77.999997619629,2|2|2,0:2|1:2|0:2,0:0:0:0:
85,344,74516,1,14,0:2:0:0:
151,320,74741,1,14,0:2:0:0:
275,256,75192,6,0,P|296:204|289:155,1,77.999997619629,6|2,1:2|0:2,0:0:0:0:
305,113,75644,2,0,P|270:68|224:50,1,77.999997619629,10|2,0:2|0:2,0:0:0:0:
215,1,76095,2,0,L|93:21,2,116.999996429443,2|2|2,1:2|0:2|1:2,0:0:0:0:
162,131,77222,2,0,P|158:175|172:216,1,77.999997619629,2|4,0:2|1:2,0:0:0:0:
115,337,77899,2,0,L|217:354,1,77.999997619629,2|10,3:2|0:2,0:0:0:0:
259,369,78350,2,0,L|361:352,1,77.999997619629,2|2,3:2|3:2,0:0:0:0:
347,292,78801,6,0,P|329:216|377:149,1,143.000004364014,6|10,1:2|0:2,0:0:0:0:
432,56,79704,2,0,L|300:45,1,107.25000327301,2|2,1:2|0:2,0:0:0:0:
250,107,80380,2,0,L|94:124,1,143.000004364014,6|2,0:2|0:2,0:0:0:0:
179,236,81283,1,2,0:2:0:0:
179,236,81508,2,0,P|218:233|254:244,1,71.5000021820069,2|2,1:2|0:2,0:0:0:0:
307,268,81959,2,0,P|341:276|376:273,1,71.5000021820069,10|2,0:2|0:2,0:0:0:0:
419,225,82411,6,0,P|437:149|389:82,1,143.000004364014,6|14,1:2|0:2,0:0:0:0:
287,46,83314,2,0,L|301:173,2,107.25000327301,6|2|2,1:2|0:2|0:2,0:0:0:0:
175,9,84441,2,0,P|98:31|81:92,1,130,2|2,0:2|0:2,0:0:0:0:
95,128,85117,2,0,L|65:277,1,130,2|2,0:2|0:2,0:0:0:0:
103,310,85794,1,2,0:2:0:0:
103,310,86020,5,6,1:2:0:0:
223,265,86471,2,0,L|318:279,1,71.5000021820069,10|8,0:2|0:2,0:0:0:0:
354,297,86922,2,0,P|343:232|387:178,2,107.25000327301,2|2|6,1:2|1:2|0:2,0:0:0:0:
256,192,87824,12,0,89629,0:2:0:0:
