osu file format v14

[General]
AudioFilename: audio.mp3
AudioLeadIn: 0
PreviewTime: 64253
Countdown: 0
SampleSet: Soft
StackLeniency: 0.7
Mode: 0
LetterboxInBreaks: 0
WidescreenStoryboard: 0

[Editor]
DistanceSpacing: 1.1
BeatDivisor: 4
GridSize: 32
TimelineZoom: 2.1

[Metadata]
Title:Genzai Banzai (TV Size)
TitleUnicode:ゲンザイ↑バンザイ↑ (TV Size)
Artist:Mile (CV: Waki Azumi)
ArtistUnicode:マイル (CV: 和氣あず未)
Creator:Riana
Version:Insane
Source:私、能力は平均値でって言ったよね!
Tags:noukin watashi, nouryoku wa heikinchi de tte itta yo ne! ne adele von ascham japanese anime
BeatmapID:2191826
BeatmapSetID:1048637

[Difficulty]
HPDrainRate:6
CircleSize:4
OverallDifficulty:7.5
ApproachRate:8.5
SliderMultiplier:2.2
SliderTickRate:1

[Events]
//Background and Video events
0,0,"81PVAkvlnQL.jpg",0,0
//Break Periods
//Storyboard Layer 0 (Background)
//Storyboard Layer 1 (Fail)
//Storyboard Layer 2 (Pass)
//Storyboard Layer 3 (Foreground)
//Storyboard Layer 4 (Overlay)
//Storyboard Sound Samples

[TimingPoints]
1208,451.127819548872,4,2,0,50,1,0
1208,-125,4,2,0,50,0,0
4817,-100,4,2,0,70,0,0
15644,-83.3333333333333,4,2,0,70,0,0
18350,-83.3333333333333,4,2,0,50,0,0
19253,-133.333333333333,4,2,0,40,0,0
32786,-86.9565217391304,4,2,0,40,0,0
33689,-111.111111111111,4,2,0,60,0,0
48125,-133.333333333333,4,2,0,50,0,0
55117,-100,4,2,0,60,0,0
62561,-76.9230769230769,4,2,0,70,0,0
64365,-83.3333333333333,4,2,0,80,0,1
78801,-83.3333333333333,4,2,0,70,0,0
84441,-83.3333333333333,4,2,0,50,0,0
86020,-66.6666666666667,4,2,0,70,0,0

[Colours]
Combo1 : 217,217,255
Combo2 : 255,149,202
Combo3 : 136,255,214
Combo4 : 255,255,128

[HitObjects]
116,43,982,5,2,0:2:0:0:
116,43,1095,1,2,0:2:0:0:
116,43,1208,2,0,P|104:103|125:144,1,88,6|0,0:2|0:2,0:0:0:0:
69,199,1546,1,2,0:2:0:0:
69,199,1659,2,0,P|114:239|160:241,1,88,2|0,0:2|0:2,0:0:0:0:
180,317,1997,1,2,0:2:0:0:
180,317,2110,2,0,P|237:297|262:258,2,88,2|0|0,0:2|3:2|3:2,0:0:0:0:
304,221,2786,6,0,B|395:182|403:273|501:214,1,176,6|2,3:2|0:2,0:0:0:0:
438,153,3350,1,2,0:2:0:0:
438,153,3463,2,0,P|396:197|396:244,1,88,2|0,0:2|0:2,0:0:0:0:
473,227,3914,1,2,1:2:0:0:
319,325,4140,5,10,0:2:0:0:
304,221,4365,1,2,0:2:0:0:
290,117,4591,1,2,0:2:0:0:
206,45,4817,6,0,P|132:93|91:80,1,110,6|0,1:2|0:2,0:0:0:0:
76,67,5155,1,2,0:2:0:0:
76,67,5268,2,0,L|89:188,1,110,10|0,0:2|0:2,0:0:0:0:
0,288,5719,2,0,P|78:255|156:336,1,165,2|0,1:2|1:2,0:0:0:0:
150,315,6170,1,10,0:2:0:0:
293,384,6395,6,0,P|245:314|325:197,1,220,2|2,0:2|0:2,0:0:0:0:
388,179,7072,1,10,0:2:0:0:
324,113,7298,1,2,0:2:0:0:
207,233,7523,6,0,L|201:159,1,55,2|0,1:2|0:2,0:0:0:0:
180,216,7749,2,0,L|174:142,1,55,2|0,0:2|0:2,0:0:0:0:
119,100,7974,6,0,L|125:26,1,55,10|0,0:2|0:2,0:0:0:0:
146,83,8200,2,0,L|152:9,1,55,2|0,0:2|0:2,0:0:0:0:
242,34,8426,6,0,P|290:108|277:149,1,110,6|0,1:2|0:2,0:0:0:0:
202,178,8764,1,2,0:2:0:0:
202,178,8877,2,0,L|323:165,1,110,10|0,0:2|0:2,0:0:0:0:
450,269,9328,2,0,P|483:191|402:113,1,165,2|0,0:2|1:2,0:0:0:0:
409,118,9779,1,10,0:2:0:0:
248,296,10004,6,0,B|352:247|359:340|475:286,1,220,2|2,0:2|0:2,0:0:0:0:
395,198,10681,1,6,1:2:0:0:
504,186,10907,1,2,0:2:0:0:
463,59,11132,6,0,L|457:133,1,55,2|0,1:2|0:2,0:0:0:0:
436,76,11358,2,0,L|430:150,1,55,2|0,0:2|0:2,0:0:0:0:
357,71,11583,6,0,L|351:145,1,55,10|0,0:2|0:2,0:0:0:0:
330,88,11809,2,0,L|324:162,1,55,2|0,3:2|3:2,0:0:0:0:
248,108,12035,6,0,P|190:111|148:38,1,110,6|0,1:2|0:2,0:0:0:0:
79,28,12373,1,2,0:2:0:0:
79,28,12486,2,0,L|65:161,1,110,10|0,0:2|0:2,0:0:0:0:
10,246,12937,2,0,P|72:226|159:294,1,165,2|0,1:2|1:2,0:0:0:0:
157,309,13388,1,10,0:2:0:0:
315,367,13614,6,0,P|340:313|329:253,1,110,2|0,0:2|1:2,0:0:0:0:
372,153,14065,2,0,P|337:104|280:83,2,110,2|10|2,0:2|0:2|0:2,0:0:0:0:
417,265,14741,6,0,L|343:271,1,55,2|0,1:2|0:2,0:0:0:0:
400,292,14967,2,0,L|326:298,1,55,2|0,0:2|0:2,0:0:0:0:
298,359,15192,6,0,L|224:353,1,55,14|0,0:2|0:2,0:0:0:0:
281,332,15418,2,0,L|207:326,1,55,2|0,0:2|0:2,0:0:0:0:
147,287,15644,6,0,P|221:239|281:262,1,131.99999597168,6|0,1:2|0:2,0:0:0:0:
346,297,15982,1,2,0:2:0:0:
346,297,16095,2,0,L|334:151,1,131.99999597168,10|0,0:2|0:2,0:0:0:0:
360,65,16546,6,0,P|268:129|212:98,1,131.99999597168,2|0,1:2|0:2,0:0:0:0:
185,167,16884,2,0,P|130:134|68:151,1,131.99999597168,2|0,1:2|0:2,0:0:0:0:
17,90,17223,6,0,L|36:305,1,197.99999395752,2|0,1:2|0:2,0:0:0:0:
54,320,17674,1,10,0:2:0:0:
54,320,17899,1,10,0:2:0:0:
180,350,18350,5,2,0:2:0:0:
176,320,18576,1,2,0:2:0:0:
205,288,18801,5,2,0:2:0:0:
197,320,19027,1,2,0:2:0:0:
120,213,19253,6,0,P|207:244|281:193,1,165.000006294251,6|0,1:2|1:2,0:0:0:0:
332,167,19929,1,2,0:2:0:0:
332,167,20155,2,0,P|351:219|325:271,1,82.5000031471254,2|0,1:2|0:2,0:0:0:0:
279,304,20606,5,2,1:2:0:0:
319,330,20832,2,0,L|513:314,2,165.000006294251,2|2|2,0:2|0:2|0:2,0:0:0:0:
199,353,21959,2,0,P|168:319|161:276,1,82.5000031471254,2|0,0:2|0:2,0:0:0:0:
209,214,22411,1,2,0:2:0:0:
209,214,22862,6,0,P|258:238|302:229,1,82.5000031471254,2|0,1:2|0:2,0:0:0:0:
369,264,23313,2,0,P|414:233|428:190,1,82.5000031471254,2|0,1:2|0:2,0:0:0:0:
486,106,23764,6,0,P|445:106|410:127,1,82.5000031471254,2|0,1:2|0:2,0:0:0:0:
348,184,24215,1,2,1:2:0:0:
308,164,24441,2,0,L|290:-19,1,165.000006294251,2|2,0:2|0:2,0:0:0:0:
291,0,25117,1,2,1:2:0:0:
66,186,25568,6,0,L|110:185,1,41.2500015735627,2|0,1:2|3:2,0:0:0:0:
137,172,25794,1,2,0:2:0:0:
177,70,26020,5,2,1:2:0:0:
262,88,26245,1,2,0:2:0:0:
415,201,26471,6,0,P|328:232|254:181,1,165.000006294251,4|0,1:2|1:2,0:0:0:0:
203,155,27147,1,2,0:2:0:0:
203,155,27373,2,0,P|184:207|210:259,1,82.5000031471254,2|0,1:2|0:2,0:0:0:0:
233,304,27824,5,2,1:2:0:0:
193,330,28050,2,0,L|-1:314,2,165.000006294251,2|2|2,0:2|0:2|0:2,0:0:0:0:
326,376,29177,2,0,P|357:342|364:299,1,82.5000031471254,2|0,1:2|0:2,0:0:0:0:
330,232,29629,1,0,1:2:0:0:
330,232,30080,6,0,P|281:256|237:247,1,82.5000031471254,2|0,1:2|0:2,0:0:0:0:
202,184,30531,2,0,P|156:153|142:110,1,82.5000031471254,2|0,1:2|0:2,0:0:0:0:
246,22,30982,6,0,P|242:76|212:110,1,82.5000031471254,2|0,1:2|0:2,0:0:0:0:
117,104,31433,1,2,1:2:0:0:
145,129,31659,2,0,L|329:111,1,165.000006294251,2|0,0:2|0:2,0:0:0:0:
309,112,32335,1,2,1:2:0:0:
371,186,32561,1,0,1:2:0:0:
371,186,32674,1,8,0:2:0:0:
371,186,32786,5,8,0:2:0:0:
255,343,33238,1,8,0:2:0:0:
65,277,33689,6,0,P|47:185|137:127,1,197.99999395752,6|8,1:2|0:2,0:0:0:0:
312,121,34365,1,2,0:2:0:0:
186,189,34591,2,0,L|303:207,1,98.9999969787599,2|0,1:2|0:2,0:0:0:0:
402,105,35042,1,10,0:2:0:0:
245,47,35268,6,0,L|362:29,1,98.9999969787599,2|0,0:2|1:2,0:0:0:0:
490,92,35719,1,2,0:2:0:0:
490,92,35944,1,10,0:2:0:0:
376,184,36170,1,2,0:2:0:0:
428,333,36395,2,0,P|450:285|431:220,2,98.9999969787599,2|0|8,1:2|0:2|0:2,0:0:0:0:
150,357,37298,6,0,L|138:245,1,98.9999969787599,2|0,1:2|0:2,0:0:0:0:
254,57,37749,2,0,L|243:155,1,98.9999969787599,10|0,0:2|0:2,0:0:0:0:
120,305,38200,5,2,1:2:0:0:
22,227,38426,1,2,0:2:0:0:
94,127,38651,1,10,0:2:0:0:
160,177,38877,6,0,P|94:211|5:125,1,197.99999395752,2|0,0:2|0:2,0:0:0:0:
6,141,39553,1,10,0:2:0:0:
215,75,40004,5,2,1:2:0:0:
225,119,40230,1,2,0:2:0:0:
317,100,40456,5,10,0:2:0:0:
296,182,40681,1,2,3:2:0:0:
296,182,40794,1,0,3:2:0:0:
296,182,40907,6,0,P|314:274|224:332,1,197.99999395752,6|8,1:2|0:2,0:0:0:0:
154,172,41583,1,2,0:2:0:0:
86,298,41809,2,0,L|68:181,1,98.9999969787599,2|0,1:2|0:2,0:0:0:0:
170,82,42260,1,10,0:2:0:0:
228,239,42486,6,0,L|246:122,1,98.9999969787599,2|0,0:2|1:2,0:0:0:0:
90,32,42937,1,2,0:2:0:0:
90,32,43162,1,10,0:2:0:0:
154,172,43388,1,2,0:2:0:0:
296,79,43613,2,0,P|248:57|183:75,2,98.9999969787599,2|0|8,1:2|0:2|0:2,0:0:0:0:
507,246,44516,6,0,L|395:234,1,98.9999969787599,2|0,1:2|0:2,0:0:0:0:
207,350,44967,2,0,L|305:339,1,98.9999969787599,10|0,0:2|0:2,0:0:0:0:
450,67,45418,5,2,1:2:0:0:
435,148,45644,1,2,0:2:0:0:
369,93,45869,1,10,0:2:0:0:
200,133,46095,6,0,P|270:106|359:192,1,197.99999395752,2|0,0:2|0:2,0:0:0:0:
206,315,46771,2,0,P|188:257|216:200,1,98.9999969787599,10|0,0:2|0:2,0:0:0:0:
325,373,47223,1,0,1:2:0:0:
325,373,47335,2,0,L|274:368,1,49.4999984893799,0|0,3:2|0:2,0:0:0:0:
206,315,47561,1,0,3:2:0:0:
206,315,47674,2,0,L|94:331,1,98.9999969787599,0|0,3:2|3:2,0:0:0:0:
2,384,48125,6,0,P|32:294|-18:227,1,165.000006294251,6|0,1:2|0:2,0:0:0:0:
69,176,48801,1,2,1:2:0:0:
69,176,49027,2,0,P|103:143|157:137,2,82.5000031471254,14|0|0,0:2|0:2|0:2,0:0:0:0:
147,223,49704,1,2,0:2:0:0:
147,223,49930,2,0,P|192:235|224:279,1,82.5000031471254,2|0,1:2|0:2,0:0:0:0:
229,299,50268,1,0,3:2:0:0:
229,299,50380,1,0,3:2:0:0:
321,368,50606,5,2,1:2:0:0:
379,193,50832,1,10,0:2:0:0:
409,302,51057,1,2,1:2:0:0:
379,193,51283,1,10,0:2:0:0:
379,193,51734,6,0,P|289:162|222:213,1,165.000006294251,6|0,1:2|0:2,0:0:0:0:
143,177,52411,1,2,1:2:0:0:
143,177,52636,2,0,P|110:142|104:89,2,82.5000031471254,14|0|0,0:2|0:2|0:2,0:0:0:0:
189,102,53313,5,2,0:2:0:0:
189,102,53538,2,0,P|101:87|44:172,1,165.000006294251,0|0,1:2|0:2,0:0:0:0:
0,250,54215,1,0,1:2:0:0:
64,315,54441,1,12,0:2:0:0:
64,315,54666,2,0,P|152:300|169:314,1,82.5000031471254,2|8,0:2|0:2,0:0:0:0:
239,384,55117,6,0,P|178:298|267:192,1,220,2|0,0:2|0:2,0:0:0:0:
394,227,55794,1,14,0:2:0:0:
394,227,56020,5,2,0:2:0:0:
350,241,56132,1,2,0:2:0:0:
311,227,56245,1,2,1:2:0:0:
324,72,56471,1,2,3:2:0:0:
311,227,56696,1,14,0:2:0:0:
161,20,56922,6,0,P|222:106|133:212,1,220,2|0,0:2|0:2,0:0:0:0:
6,177,57599,1,14,0:2:0:0:
6,177,57825,5,2,0:2:0:0:
50,163,57937,1,2,0:2:0:0:
89,177,58050,1,2,1:2:0:0:
76,332,58276,1,2,3:2:0:0:
89,177,58501,1,14,0:2:0:0:
222,379,58952,6,0,P|311:299|386:324,1,165,6|0,1:2|0:2,0:0:0:0:
383,324,59403,1,10,0:2:0:0:
496,143,59629,2,0,P|407:223|332:198,1,165,2|0,1:2|0:2,0:0:0:0:
335,198,60080,1,2,1:2:0:0:
468,305,60305,1,10,0:2:0:0:
401,128,60531,6,0,P|318:102|286:279,1,275,6|0,1:2|0:2,0:0:0:0:
279,277,61207,1,8,0:2:0:0:
138,384,61433,1,0,3:2:0:0:
134,329,61545,1,0,3:2:0:0:
103,285,61658,1,2,3:2:0:0:
53,263,61771,1,2,3:2:0:0:
0,269,61884,1,2,3:2:0:0:
81,183,62110,5,8,0:2:0:0:
81,183,62335,1,0,1:2:0:0:
229,334,62561,6,0,P|177:376|36:357,2,214.49999018097,2|2|2,1:2|1:2|1:2,0:0:0:0:
229,334,63463,1,2,0:2:0:0:
192,153,63689,5,2,0:2:0:0:
199,111,63801,1,2,0:2:0:0:
224,76,63914,1,2,3:2:0:0:
261,55,64027,1,2,3:2:0:0:
303,52,64140,1,2,3:2:0:0:
343,68,64252,1,2,3:2:0:0:
370,106,64365,6,0,P|420:59|404:-27,1,131.99999597168,6|0,1:2|0:2,0:0:0:0:
294,147,64817,2,0,P|309:213|392:242,1,131.99999597168,10|0,0:2|0:2,0:0:0:0:
493,327,65268,2,0,L|271:360,1,197.99999395752,2|2,1:2|0:2,0:0:0:0:
220,310,65719,1,10,0:2:0:0:
169,166,65944,6,0,P|201:264|74:363,1,263.99999194336,2|2,0:2|0:2,0:0:0:0:
35,294,66621,1,10,0:2:0:0:
35,294,66847,2,0,P|124:275|177:324,1,131.99999597168,2|0,0:2|1:2,0:0:0:0:
270,227,67298,5,14,0:2:0:0:
87,112,67523,1,14,0:2:0:0:
259,142,67974,6,0,P|306:91|392:108,1,131.99999597168,6|0,1:2|0:2,0:0:0:0:
270,227,68426,2,0,P|203:211|174:128,1,131.99999597168,10|0,0:2|0:2,0:0:0:0:
141,21,68877,2,0,L|107:243,1,197.99999395752,2|2,1:2|0:2,0:0:0:0:
166,286,69328,1,8,0:2:0:0:
358,298,69553,6,0,P|260:266|161:392,1,263.99999194336,2|2,0:2|0:2,0:0:0:0:
305,235,70230,1,10,0:2:0:0:
310,146,70456,1,2,0:2:0:0:
305,235,70681,1,2,1:2:0:0:
166,286,70907,5,12,0:2:0:0:
396,379,71132,1,12,0:2:0:0:
386,294,71358,5,0,3:2:0:0:
386,294,71471,1,0,3:2:0:0:
386,294,71583,2,0,P|462:322|481:384,1,131.99999597168,6|0,1:2|0:2,0:0:0:0:
307,256,72035,2,0,P|369:204|432:218,1,131.99999597168,10|0,0:2|0:2,0:0:0:0:
245,316,72486,2,0,L|45:293,1,197.99999395752,2|2,1:2|0:2,0:0:0:0:
3,220,72937,1,8,0:2:0:0:
171,218,73162,6,0,P|203:120|76:21,1,263.99999194336,2|2,0:2|0:2,0:0:0:0:
37,90,73839,1,2,1:2:0:0:
37,90,74065,2,0,P|126:109|179:60,1,131.99999597168,2|0,0:2|1:2,0:0:0:0:
286,160,74516,5,14,0:2:0:0:
118,319,74741,1,14,0:2:0:0:
447,318,75192,5,6,1:2:0:0:
286,160,75418,1,2,0:2:0:0:
320,376,75644,1,10,0:2:0:0:
481,152,75869,1,2,0:2:0:0:
185,240,76095,6,0,P|176:158|231:95,1,131.99999597168,2|0,1:2|0:2,0:0:0:0:
286,160,76433,2,0,P|352:112|434:128,1,131.99999597168,2|0,0:2|0:2,0:0:0:0:
406,208,76771,2,0,P|481:242|508:321,1,131.99999597168,2|0,1:2|1:2,0:0:0:0:
488,371,77110,1,2,0:2:0:0:
488,371,77223,1,2,0:2:0:0:
309,284,77448,1,4,1:2:0:0:
406,208,77674,5,2,3:2:0:0:
406,208,77786,1,0,3:2:0:0:
406,208,77899,1,2,3:2:0:0:
408,234,78011,1,0,3:2:0:0:
415,269,78125,2,0,L|429:342,1,65.9999979858399,10|0,0:2|0:2,0:0:0:0:
389,326,78350,1,2,3:2:0:0:
352,339,78462,1,0,3:2:0:0:
328,370,78575,1,2,3:2:0:0:
289,384,78688,1,0,3:2:0:0:
252,370,78801,6,0,P|162:320|82:370,1,197.99999395752,6|0,1:2|0:2,0:0:0:0:
0,375,79253,2,0,P|89:321|86:227,1,197.99999395752,10|0,0:2|0:2,0:0:0:0:
20,185,79704,2,0,P|21:289|80:325,1,131.99999597168,2|0,1:2|0:2,0:0:0:0:
35,304,80042,1,2,0:2:0:0:
35,304,80155,1,8,0:2:0:0:
249,249,80380,6,0,P|228:173|286:71,1,197.99999395752,6|0,0:2|0:2,0:0:0:0:
326,64,80832,1,2,0:2:0:0:
195,173,81057,1,8,0:2:0:0:
66,38,81283,5,2,0:2:0:0:
66,38,81395,1,0,0:2:0:0:
66,38,81508,1,2,1:2:0:0:
126,258,81734,1,2,0:2:0:0:
93,146,81959,1,10,0:2:0:0:
26,333,82185,5,2,0:2:0:0:
26,333,82298,1,0,0:2:0:0:
26,333,82411,2,0,P|116:282|196:332,1,197.99999395752,6|0,1:2|0:2,0:0:0:0:
271,325,82861,2,0,P|181:271|184:177,1,197.99999395752,14|0,0:2|0:2,0:0:0:0:
251,135,83313,2,0,P|249:239|191:275,1,131.99999597168,6|0,1:2|1:2,0:0:0:0:
236,254,83651,1,2,0:2:0:0:
236,254,83764,1,8,0:2:0:0:
143,68,83989,1,2,0:2:0:0:
341,177,84441,5,2,0:2:0:0:
371,181,84666,1,2,0:2:0:0:
402,185,84892,1,2,0:2:0:0:
428,300,85117,5,2,0:2:0:0:
452,294,85343,1,2,0:2:0:0:
475,289,85568,1,2,0:2:0:0:
497,284,85794,1,2,0:2:0:0:
293,365,86020,6,0,P|228:277|124:300,1,165.000006294251,6|0,1:2|0:2,0:0:0:0:
110,228,86358,1,0,0:2:0:0:
110,228,86471,1,10,0:2:0:0:
243,60,86696,1,8,0:2:0:0:
36,156,86922,6,0,P|136:199|214:127,1,165.000006294251,2|0,1:2|1:2,0:0:0:0:
255,223,87260,1,2,1:2:0:0:
255,223,87373,1,8,0:2:0:0:
88,384,87598,1,6,0:2:0:0:
256,192,87711,12,0,89629,0:2:0:0:
