osu file format v14

[General]
AudioFilename: audio.mp3
AudioLeadIn: 0
PreviewTime: 64253
Countdown: 0
SampleSet: Soft
StackLeniency: 0.7
Mode: 0
LetterboxInBreaks: 0
WidescreenStoryboard: 1

[Editor]
Bookmarks: 40155
DistanceSpacing: 1.1
BeatDivisor: 4
GridSize: 32
TimelineZoom: 1

[Metadata]
Title:Genzai Banzai (TV Size)
TitleUnicode:ゲンザイ↑バンザイ↑ (TV Size)
Artist:Mile (CV: Waki Azumi)
ArtistUnicode:マイル (CV: 和氣あず未)
Creator:Riana
Version:Hard
Source:私、能力は平均値でって言ったよね!
Tags:noukin watashi, nouryoku wa heikinchi de tte itta yo ne! ne adele von ascham japanese anime
BeatmapID:2319800
BeatmapSetID:1048637

[Difficulty]
HPDrainRate:5
CircleSize:3.5
OverallDifficulty:6
ApproachRate:7.5
SliderMultiplier:1.8
SliderTickRate:1

[Events]
//Background and Video events
0,0,"bg.jpg",0,0
//Break Periods
//Storyboard Layer 0 (Background)
//Storyboard Layer 1 (Fail)
//Storyboard Layer 2 (Pass)
//Storyboard Layer 3 (Foreground)
//Storyboard Layer 4 (Overlay)
//Storyboard Sound Samples

[TimingPoints]
1208,451.127819548872,4,2,0,50,1,0
1208,-100,4,2,0,50,0,0
4817,-90.9090909090909,4,2,0,70,0,0
15644,-90.9090909090909,4,2,0,70,0,0
18350,-133.333333333333,4,2,0,70,0,0
19253,-100,4,2,0,40,0,0
32786,-100,4,2,0,40,0,0
33689,-100,4,2,0,60,0,0
48125,-111.111111111111,4,2,0,50,0,0
55117,-90.9090909090909,4,2,0,60,0,0
62561,-90.9090909090909,4,2,0,70,0,0
64365,-83.3333333333333,4,2,0,80,0,1
78801,-90.9090909090909,4,2,0,70,0,0
84441,-100,4,2,0,50,0,0
86020,-90.9090909090909,4,2,0,70,0,0

[Colours]
Combo1 : 217,217,255
Combo2 : 255,149,202
Combo3 : 136,255,214
Combo4 : 255,255,128

[HitObjects]
0,157,1208,6,0,L|193:142,1,180,6|2,0:2|0:2,0:0:0:0:
351,45,2110,2,0,P|405:84|414:164,1,135,2|0,0:2|0:0,0:0:0:0:
344,276,2786,1,6,3:2:0:0:
344,276,3238,6,0,L|348:338,2,45,2|2|2,0:2|0:2|0:2,0:0:0:0:
156,229,3914,1,2,1:2:0:0:
156,229,4140,2,0,L|53:238,2,90,10|2|2,0:2|0:2|0:2,0:0:0:0:
118,131,4817,5,6,1:2:0:0:
118,131,5042,1,0,0:2:0:0:
227,140,5268,2,0,L|344:128,1,99.0000030212404,10|0,0:2|0:2,0:0:0:0:
421,78,5719,2,0,P|372:142|401:258,1,198.000006042481,2|10,1:2|0:2,0:0:0:0:
467,330,6395,6,0,L|335:355,1,99.0000030212404,2|0,0:2|0:0,0:0:0:0:
270,301,6847,1,2,0:2:0:0:
270,301,7072,2,0,L|145:325,1,99.0000030212404,10|2,0:2|0:2,0:0:0:0:
81,260,7523,2,0,L|77:200,3,49.5000015106202,2|0|2|0,1:2|0:2|0:2|0:2,0:0:0:0:
113,169,7974,2,0,L|117:109,3,49.5000015106202,10|0|2|0,0:2|0:2|0:2|0:2,0:0:0:0:
107,69,8426,5,6,1:2:0:0:
107,69,8651,1,0,0:2:0:0:
208,28,8877,2,0,L|325:16,1,99.0000030212404,10|0,0:2|0:2,0:0:0:0:
359,114,9328,2,0,P|295:163|179:134,1,198.000006042481,2|10,0:2|0:2,0:0:0:0:
107,69,10004,6,0,L|82:201,1,99.0000030212404,2|0,0:2|0:0,0:0:0:0:
149,257,10456,1,2,0:2:0:0:
106,358,10681,1,6,1:2:0:0:
106,358,10907,1,2,0:2:0:0:
212,339,11132,2,0,L|272:343,3,49.5000015106202,2|0|2|0,1:2|0:2|0:2|0:2,0:0:0:0:
306,311,11583,2,0,L|366:307,3,49.5000015106202,10|0|2|0,0:2|0:2|3:2|3:2,0:0:0:0:
412,296,12035,5,6,1:2:0:0:
412,296,12260,1,0,0:2:0:0:
342,210,12486,2,0,P|316:125|330:86,1,99.0000030212404,10|0,0:2|0:2,0:0:0:0:
372,23,12937,2,0,P|270:14|209:94,1,198.000006042481,2|10,1:2|0:2,0:0:0:0:
135,157,13614,6,0,L|147:284,1,99.0000030212404,2|0,0:2|1:2,0:0:0:0:
39,254,14065,1,2,0:2:0:0:
39,254,14290,2,0,L|51:127,1,99.0000030212404,10|2,0:2|0:2,0:0:0:0:
98,58,14741,2,0,L|157:51,3,49.5000015106202,2|0|2|0,1:2|0:2|0:2|0:2,0:0:0:0:
192,82,15192,2,0,L|251:89,3,49.5000015106202,14|0|2|0,0:2|0:2|0:2|0:2,0:0:0:0:
283,122,15644,6,0,P|339:77|458:118,2,198.000006042481,6|10|2,1:2|0:2|1:2,0:0:0:0:
222,273,16884,1,2,1:2:0:0:
222,273,16997,1,0,1:0:0:0:
119,235,17223,2,0,L|17:252,1,99.0000030212404,2|0,1:2|0:0,0:0:0:0:
95,338,17674,1,10,0:2:0:0:
95,338,17899,1,10,0:2:0:0:
12,136,18350,6,0,L|23:44,3,67.5000025749208,2|2|2|2,0:2|0:2|0:2|0:2,0:0:0:0:
117,88,19253,6,0,P|200:50|276:95,1,180,6|0,1:2|1:2,0:0:0:0:
341,160,19929,1,2,0:2:0:0:
341,160,20155,2,0,L|357:52,1,90,2|0,1:2|0:2,0:0:0:0:
451,41,20606,1,2,1:2:0:0:
451,41,20832,6,0,L|423:237,1,180,2|2,0:2|0:2,0:0:0:0:
266,336,21734,2,0,L|171:348,2,90,2|2|0,0:2|0:2|0:2,0:0:0:0:
340,270,22411,2,0,P|327:201|358:151,1,90,2|0,0:2|0:0,0:0:0:0:
371,93,22862,6,0,L|257:107,1,90,2|0,1:2|0:2,0:0:0:0:
236,192,23313,2,0,L|122:178,1,90,2|0,1:2|0:2,0:0:0:0:
64,124,23764,2,0,P|108:181|60:282,1,180,2|2,1:2|1:2,0:0:0:0:
12,352,24441,6,0,L|108:362,1,90,2|0,0:2|0:0,0:0:0:0:
187,312,24892,1,2,0:2:0:0:
187,312,25117,2,0,L|296:326,1,90,2|0,1:2|0:0,0:0:0:0:
366,365,25568,6,0,P|392:277|378:246,1,90,2|2,1:2|0:2,0:0:0:0:
414,185,26020,2,0,P|350:118|316:115,1,90,2|2,1:2|0:2,0:0:0:0:
321,213,26471,6,0,P|238:251|162:206,1,180,4|0,1:2|1:2,0:0:0:0:
97,141,27147,1,2,0:2:0:0:
97,141,27373,2,0,L|81:249,1,90,2|0,1:2|0:2,0:0:0:0:
0,260,27824,1,2,1:2:0:0:
0,260,28050,6,0,L|28:64,1,180,2|2,0:2|0:2,0:0:0:0:
210,10,28952,2,0,L|305:-2,2,90,2|2|0,0:2|1:2|0:2,0:0:0:0:
136,76,29629,2,0,P|149:145|118:195,1,90,0|0,1:2|0:0,0:0:0:0:
113,256,30080,6,0,L|227:242,1,90,2|0,1:2|0:2,0:0:0:0:
271,174,30531,2,0,L|385:188,1,90,2|0,1:2|0:2,0:0:0:0:
423,261,30982,2,0,L|537:247,1,90,2|0,1:2|0:2,0:0:0:0:
459,172,31433,1,2,1:2:0:0:
459,172,31659,6,0,P|453:109|486:65,1,90,2|0,0:2|0:0,0:0:0:0:
399,18,32110,1,0,0:2:0:0:
399,18,32335,2,0,L|290:4,1,90,2|0,1:2|1:2,0:0:0:0:
263,10,32674,1,8,0:2:0:0:
263,10,32786,6,0,P|237:98|251:129,1,90,8|0,0:2|0:0,0:0:0:0:
165,162,33238,2,0,P|228:228|262:231,1,90,8|0,0:2|0:0,0:0:0:0:
306,279,33689,6,0,L|100:300,1,180,6|8,1:2|0:2,0:0:0:0:
69,223,34365,1,2,0:2:0:0:
69,223,34591,2,0,P|55:168|67:108,1,90,2|0,1:2|0:2,0:0:0:0:
160,127,35042,1,10,0:2:0:0:
160,127,35268,6,0,P|174:182|162:242,1,90,2|0,0:2|1:2,0:0:0:0:
266,187,35719,2,0,L|361:202,1,90,2|10,0:2|0:2,0:0:0:0:
444,159,36170,2,0,P|450:98|421:48,2,90,2|2|0,0:2|1:2|0:2,0:0:0:0:
354,201,36847,1,8,0:2:0:0:
181,298,37298,6,0,L|174:198,1,90,2|0,1:2|0:2,0:0:0:0:
240,133,37749,2,0,L|247:33,1,90,10|0,0:2|0:2,0:0:0:0:
151,14,38200,1,2,1:2:0:0:
151,14,38426,2,0,P|108:3|47:25,1,90,2|10,0:2|0:2,0:0:0:0:
14,98,38877,6,0,P|65:118|45:244,1,180,2|0,0:2|0:2,0:0:0:0:
0,302,39553,1,10,0:2:0:0:
186,369,40004,2,0,L|304:355,1,90,2|2,1:2|0:2,0:0:0:0:
317,268,40456,2,0,L|199:254,1,90,10|2,0:2|3:2,0:0:0:0:
258,163,40907,6,0,L|464:142,1,180,6|8,1:2|0:2,0:0:0:0:
495,219,41583,1,2,0:2:0:0:
495,219,41809,2,0,P|509:274|497:334,1,90,2|0,1:2|0:2,0:0:0:0:
404,315,42260,1,10,0:2:0:0:
404,315,42486,6,0,P|390:260|402:200,1,90,2|0,0:2|1:2,0:0:0:0:
298,255,42937,2,0,L|203:240,1,90,2|10,0:2|0:2,0:0:0:0:
120,283,43388,2,0,P|114:344|143:394,2,90,2|2|0,0:2|1:2|0:2,0:0:0:0:
210,241,44065,1,8,0:2:0:0:
93,85,44516,6,0,L|100:185,1,90,2|0,1:2|0:2,0:0:0:0:
34,250,44967,2,0,L|27:350,1,90,10|0,0:2|0:2,0:0:0:0:
123,369,45418,1,2,1:2:0:0:
123,369,45644,2,0,P|166:380|227:358,1,90,2|10,0:2|0:2,0:0:0:0:
284,304,46095,6,0,P|237:275|278:154,1,180,2|0,2:2|2:2,2:0:0:0:
344,125,46771,1,10,2:2:0:0:
182,19,47223,1,0,1:2:0:0:
182,19,47335,2,0,L|31:35,1,135,0|0,3:2|3:2,0:0:0:0:
40,132,47899,1,0,3:2:0:0:
136,169,48125,6,0,P|211:169|253:254,1,161.999995056153,6|0,1:2|0:2,0:0:0:0:
334,275,48801,1,2,1:2:0:0:
334,275,49027,2,0,L|343:182,2,80.9999975280763,14|0|0,0:2|0:2|0:2,0:0:0:0:
421,258,49704,1,2,0:2:0:0:
421,258,49929,6,0,L|440:69,1,161.999995056153,2|0,1:2|3:2,0:0:0:0:
418,14,50606,1,2,1:2:0:0:
418,14,50832,2,0,P|367:39|325:25,2,80.9999975280763,10|2|10,0:2|1:2|0:2,0:0:0:0:
240,0,51734,6,0,P|240:75|325:117,1,161.999995056153,6|0,1:2|0:2,0:0:0:0:
364,193,52410,1,2,1:2:0:0:
364,193,52636,2,0,L|271:202,2,80.9999975280763,14|0|0,0:2|0:2|0:2,0:0:0:0:
341,282,53313,1,2,0:2:0:0:
341,282,53538,6,0,L|152:301,1,161.999995056153,0|0,1:2|0:2,0:0:0:0:
97,284,54215,1,0,1:2:0:0:
97,284,54441,1,12,0:2:0:0:
59,203,54666,2,0,P|56:146|82:113,1,80.9999975280763,2|8,0:2|0:2,0:0:0:0:
137,42,55117,6,0,L|336:54,1,198.000006042481,2|0,0:2|0:2,0:0:0:0:
432,5,55794,1,14,0:2:0:0:
478,104,56020,2,0,L|464:161,1,49.5000015106202,2|2,0:2|0:2,0:0:0:0:
451,204,56245,1,2,1:2:0:0:
391,295,56471,1,2,3:2:0:0:
340,198,56696,1,14,0:2:0:0:
391,295,56922,6,0,L|192:283,1,198.000006042481,2|0,0:2|0:2,0:0:0:0:
105,347,57599,1,14,0:2:0:0:
19,281,57825,2,0,L|33:224,1,49.5000015106202,2|2,0:2|0:2,0:0:0:0:
46,181,58050,1,2,1:2:0:0:
106,90,58276,1,2,3:2:0:0:
157,187,58501,1,14,0:2:0:0:
341,70,58952,6,0,P|263:137|261:243,1,198.000006042481,6|10,1:2|0:2,0:0:0:0:
323,312,59629,2,0,P|356:214|342:184,1,99.0000030212403,2|0,1:2|0:0,0:0:0:0:
302,131,60080,1,2,1:2:0:0:
193,132,60305,1,10,0:2:0:0:
302,131,60531,1,6,1:2:0:0:
256,192,60644,12,0,62110,0:0:0:0:
173,89,62561,6,0,L|156:268,2,148.50000453186,2|2|2,1:2|1:2|1:2,0:0:0:0:
262,25,63463,1,2,0:2:0:0:
362,90,63689,1,2,0:2:0:0:
362,90,63801,1,2,0:2:0:0:
362,90,63914,2,0,L|372:158,3,49.5000015106202,2|2|2|2,3:2|3:2|3:2|3:2,0:0:0:0:
411,180,64365,6,0,P|407:263|350:303,1,107.999996704102,6|0,1:2|0:2,0:0:0:0:
278,313,64817,1,10,0:2:0:0:
196,226,65042,1,0,0:2:0:0:
78,242,65268,2,0,L|237:274,1,161.999995056153,2|2,1:2|0:2,0:0:0:0:
280,233,65719,1,10,0:2:0:0:
204,141,65944,6,0,P|162:208|170:256,1,107.999996704102,2|0,0:2|0:0,0:0:0:0:
228,334,66395,1,2,0:2:0:0:
346,320,66621,1,10,0:2:0:0:
346,320,66847,2,0,P|387:252|379:204,1,107.999996704102,2|0,0:2|1:2,0:0:0:0:
350,112,67298,1,14,0:2:0:0:
306,1,67523,1,14,0:2:0:0:
179,202,67974,6,0,P|183:285|240:325,1,107.999996704102,6|0,1:2|0:2,0:0:0:0:
312,335,68426,1,10,0:2:0:0:
394,248,68651,1,0,0:2:0:0:
312,335,68877,2,0,L|153:367,1,161.999995056153,2|2,1:2|0:2,0:0:0:0:
103,334,69328,1,8,0:2:0:0:
17,251,69553,6,0,P|15:171|45:134,1,107.999996704102,2|0,0:2|0:0,0:0:0:0:
132,91,70004,1,2,0:2:0:0:
244,45,70230,1,10,0:2:0:0:
244,45,70456,2,0,P|245:124|215:161,1,107.999996704102,2|2,0:2|1:2,0:0:0:0:
129,207,70907,1,12,0:2:0:0:
227,272,71132,1,12,0:2:0:0:
227,272,71245,1,0,3:0:0:0:
227,272,71358,2,0,L|292:265,1,53.9999983520508,0|0,3:2|3:2,0:0:0:0:
334,293,71583,6,0,P|321:216|357:171,1,107.999996704102,6|0,1:2|0:2,0:0:0:0:
418,108,72035,1,10,0:2:0:0:
377,0,72260,1,0,0:2:0:0:
260,0,72486,2,0,L|65:29,1,161.999995056153,2|2,1:2|0:2,0:0:0:0:
70,53,72937,1,8,0:2:0:0:
187,70,73162,6,0,P|228:137|220:185,1,107.999996704102,2|0,0:2|0:0,0:0:0:0:
157,259,73613,1,2,0:2:0:0:
42,250,73839,1,2,1:2:0:0:
42,250,74065,2,0,P|0:182|8:134,1,107.999996704102,2|0,0:2|1:2,0:0:0:0:
70,53,74516,1,14,0:2:0:0:
187,70,74741,1,14,0:2:0:0:
347,244,75192,6,0,L|356:119,1,107.999996704102,6|2,1:2|0:2,0:0:0:0:
421,37,75644,1,10,0:2:0:0:
471,144,75869,1,2,0:2:0:0:
429,255,76095,2,0,L|231:286,1,161.999995056153,2|2,1:2|0:2,0:0:0:0:
214,255,76546,1,0,1:0:0:0:
165,146,76771,6,0,P|169:263|56:301,1,215.999993408203,2|2,1:2|0:2,0:0:0:0:
3,226,77448,1,4,1:2:0:0:
34,114,77674,1,2,3:2:0:0:
148,70,77899,1,2,3:2:0:0:
148,70,78012,1,0,3:2:0:0:
148,70,78125,2,0,L|239:53,1,53.9999983520508,10|0,0:2|0:2,0:0:0:0:
235,9,78350,2,0,L|313:19,3,53.9999983520508,2|0|2|0,3:2|3:2|3:2|3:2,0:0:0:0:
324,57,78801,6,0,P|363:9|433:3,1,99.0000030212403,6|0,1:2|0:0,0:0:0:0:
491,54,79253,2,0,L|505:171,1,99.0000030212403,10|0,0:2|0:0,0:0:0:0:
456,251,79704,2,0,P|395:216|294:258,1,148.50000453186,2|2,1:2|0:2,0:0:0:0:
285,272,80155,1,8,0:2:0:0:
195,210,80380,6,0,L|215:-5,1,198.000006042481,6|2,0:2|0:2,0:0:0:0:
321,2,81057,1,8,0:2:0:0:
349,112,81283,1,2,0:2:0:0:
349,112,81508,2,0,L|341:181,3,49.5000015106202,2|0|2|0,1:2|0:0|0:2|0:0,0:0:0:0:
298,191,81959,2,0,L|306:260,3,49.5000015106202,10|0|2|0,0:2|0:0|0:2|0:2,0:0:0:0:
275,287,82411,6,0,P|314:335|384:341,1,99.0000030212403,6|0,1:2|0:0,0:0:0:0:
442,290,82863,2,0,L|456:173,1,99.0000030212403,14|0,0:2|0:0,0:0:0:0:
407,93,83314,2,0,P|346:128|245:86,1,148.50000453186,6|2,1:2|0:2,0:0:0:0:
236,72,83765,1,8,0:2:0:0:
146,134,83989,1,2,0:2:0:0:
175,350,84441,6,0,L|275:359,2,90,2|2|2,0:2|0:2|0:2,0:0:0:0:
125,264,85117,2,0,L|18:274,1,90,2|2,0:2|0:2,0:0:0:0:
35,272,85568,1,2,0:2:0:0:
35,272,85794,1,2,0:2:0:0:
71,169,86020,6,0,L|180:184,1,99.0000030212403,6|0,1:2|0:2,0:0:0:0:
219,158,86358,1,0,3:2:0:0:
219,158,86471,1,10,0:2:0:0:
249,262,86696,1,8,0:2:0:0:
278,366,86922,6,0,L|382:348,1,99.0000030212403,2|0,1:2|1:2,0:0:0:0:
431,370,87260,1,2,1:2:0:0:
431,370,87373,1,8,0:2:0:0:
427,261,87598,1,6,0:2:0:0:
256,192,87711,12,0,89629,0:2:0:0:
