osu file format v14

[General]
AudioFilename: audio.mp3
AudioLeadIn: 0
PreviewTime: 44542
Countdown: 1
SampleSet: Normal
StackLeniency: 0.5
Mode: 0
LetterboxInBreaks: 0
WidescreenStoryboard: 1

[Editor]
DistanceSpacing: 2.5
BeatDivisor: 4
GridSize: 4
TimelineZoom: 3.399999

[Metadata]
Title:Chouhatsu Cherry Heart? (TV Edit)
TitleUnicode:挑発 Cherry Heart? (TV Edit)
Artist:Milan Himemiya & Chocolate Rockers
ArtistUnicode:Milan Himemiya & Chocolate Rockers
Creator:sorata143
Version:Happy Ending
Source:Nogizaka Haruka no Himitsu Purezza
Tags:secret of nogizaka haruka no himitsu purezza s2 season 2 opening tv edit size shana
BeatmapID:1781037
BeatmapSetID:852019

[Difficulty]
HPDrainRate:5.5
CircleSize:4
OverallDifficulty:9.4
ApproachRate:9.7
SliderMultiplier:2.14
SliderTickRate:2

[Events]
//Background and Video events
0,0,"302566ed.jpg",0,0
//Break Periods
2,12839,14673
//Storyboard Layer 0 (Background)
//Storyboard Layer 1 (Fail)
//Storyboard Layer 2 (Pass)
//Storyboard Layer 3 (Foreground)
//Storyboard Sound Samples

[TimingPoints]
1225,292.682926829268,4,1,1,65,1,0
1225,-100,4,1,1,65,0,0
2395,-128.205128205128,4,1,1,65,0,0
16371,-100,4,1,1,5,0,0
16444,-100,4,1,1,65,0,0
44542,-119.047619047619,4,1,1,65,0,0
63273,-81.9672131147541,4,1,2,65,0,1
67956,-69.4444444444444,4,1,2,65,0,1
71468,-69.4444444444444,4,1,1,65,0,1
72639,-100,4,1,1,65,0,0
80834,-476.190476190476,4,1,1,65,0,0
82005,-75.7575757575758,4,1,1,65,0,1
90200,-100,4,1,1,65,0,0
90639,-217.391304347826,4,1,1,65,0,0
91371,-100,4,1,1,65,0,0
101615,-100,4,1,1,5,0,0

[HitObjects]
247,19,1225,5,0,0:0:0:0:
286,33,1298,1,0,0:0:0:0:
316,63,1371,1,0,0:0:0:0:
331,103,1444,1,0,0:0:0:0:
331,145,1517,2,0,L|325:181,3,35.6666666666667
317,222,1737,1,0,0:0:0:0:
250,254,1810,2,0,B|204:234|203:194,1,53.5
242,120,1956,2,0,B|284:140|291:175,1,53.5
317,222,2103,1,0,0:0:0:0:
462,349,2395,6,0,P|437:220|454:159,1,166.920005603394,0|8,0:0|0:0,0:0:0:0:
395,75,2834,2,0,P|324:70|299:80,1,83.4600028016969
266,189,3127,2,0,P|337:194|358:185,1,83.4600028016969,0|8,0:0|0:0,0:0:0:0:
194,99,3420,2,0,P|157:162|193:267,1,166.920005603394
292,323,3859,1,8,0:0:0:0:
340,100,4005,5,0,0:0:0:0:
219,237,4151,1,8,0:0:0:0:
192,92,4298,5,0,0:0:0:0:
351,268,4444,2,0,P|300:320|270:327,1,83.4600028016969,8|0,0:0|0:0,0:0:0:0:
58,183,4737,6,0,B|102:159|138:141|221:163,1,166.920005603394,0|8,0:0|0:0,0:0:0:0:
337,327,5176,2,0,P|258:324|224:300,1,83.4600028016969
147,234,5468,2,0,P|154:152|170:128,1,83.4600028016969,0|8,0:0|0:0,0:0:0:0:
282,39,5761,2,0,P|299:163|292:203,1,166.920005603394
209,78,6200,1,8,0:0:0:0:
334,271,6346,5,0,0:0:0:0:
442,52,6493,1,8,0:0:0:0:
451,254,6639,5,0,0:0:0:0:
278,118,6785,2,0,P|278:31|265:15,1,83.4600028016969,8|0,0:0|0:0,0:0:0:0:
144,276,7078,6,0,P|86:231|101:129,1,166.920005603394,0|8,0:0|0:0,0:0:0:0:
282,222,7517,2,0,P|214:193|177:199,1,83.4600028016969
265,326,7810,2,0,P|346:350|373:338,1,83.4600028016969,0|8,0:0|0:0,0:0:0:0:
376,84,8103,2,0,L|324:265,1,166.920005603394
218,142,8542,1,8,0:0:0:0:
420,57,8688,5,0,0:0:0:0:
242,209,8834,1,8,0:0:0:0:
333,3,8981,5,0,0:0:0:0:
375,208,9127,2,0,P|350:240|289:260,1,83.4600028016969,8|0,0:0|0:0,0:0:0:0:
142,26,9420,6,0,P|197:100|269:149,1,166.920005603394,0|8,0:0|0:0,0:0:0:0:
303,335,9859,2,0,L|339:241,1,83.4600028016969
444,69,10151,2,0,L|410:169,1,83.4600028016969,0|8,0:0|0:0,0:0:0:0:
409,292,10444,1,0,0:0:0:0:
254,6,10590,5,8,0:0:0:0:
330,235,10737,1,0,0:0:0:0:
181,97,10883,5,8,0:0:0:0:
417,148,11029,1,0,0:0:0:0:
259,315,11176,6,0,L|298:281,1,41.7300014008484,8|0,0:0|0:0,0:0:0:0:
297,129,11322,2,0,L|264:184,1,41.7300014008484
290,287,11468,6,0,L|282:243,1,41.7300014008484,8|0,0:0|0:0,0:0:0:0:
278,91,11615,2,0,L|303:142,1,41.7300014008484
324,249,11761,6,0,L|267:244,1,41.7300014008484,2|0,0:0|0:0,0:0:0:0:
236,96,11981,2,0,L|293:88,1,41.7300014008484,2|0,0:0|0:0,0:0:0:0:
390,189,12200,2,0,L|315:180,1,41.7300014008484,2|0,0:0|0:0,0:0:0:0:
331,158,12346,1,0,0:0:0:0:
362,149,12420,2,0,L|463:148,1,83.4600028016969,2|0,0:0|0:0,0:0:0:0:
445,148,12639,1,6,0:0:0:0:
61,104,15273,6,0,B|132:91|176:206|176:206|203:155|203:155|230:220|230:220|257:160|257:160|291:224|291:224|365:101|455:143,1,625.950021012727,6|0,0:0|0:0,0:0:0:0:
444,138,16444,5,2,0:0:0:0:
279,48,16737,6,0,P|246:120|255:183,1,107,8|0,0:0|0:0,0:0:0:0:
137,238,17029,2,0,P|191:284|245:291,1,107
336,279,17322,1,8,0:0:0:0:
454,163,17468,6,0,P|388:132|331:137,1,107
178,49,17761,2,0,P|243:34|288:54,1,107,0|8,0:0|0:0,0:0:0:0:
372,177,18054,1,0,0:0:0:0:
239,261,18200,2,0,P|239:187|270:145,1,107
278,47,18493,1,8,0:0:0:0:
299,214,18639,1,0,0:0:0:0:
164,124,18785,6,0,P|86:116|44:157,1,107
267,285,19078,2,0,P|213:296|168:274,1,107,8|0,0:0|0:0,0:0:0:0:
296,112,19371,1,0,0:0:0:0:
129,228,19517,1,0,0:0:0:0:
332,150,19664,1,8,0:0:0:0:
121,178,19810,1,0,0:0:0:0:
320,46,19956,6,0,P|336:123|331:159,1,107
267,285,20249,1,8,0:0:0:0:
332,150,20395,2,0,P|380:85|391:39,1,107
244,74,20688,1,0,0:0:0:0:
432,162,20834,1,8,0:0:0:0:
242,110,20981,1,0,0:0:0:0:
463,244,21127,6,0,P|303:255|254:300,1,214,0|8,0:0|0:0,0:0:0:0:
119,193,21566,1,0,0:0:0:0:
259,243,21712,1,0,0:0:0:0:
83,166,21859,1,0,0:0:0:0:
211,264,22005,1,8,0:0:0:0:
327,39,22151,6,0,P|289:81|286:138,1,107
352,322,22444,2,0,P|310:228|287:217,1,107,0|8,0:0|0:0,0:0:0:0:
239,104,22737,1,0,0:0:0:0:
109,241,22883,2,0,P|194:253|231:282,1,107
300,361,23176,1,8,0:0:0:0:
236,249,23322,1,0,0:0:0:0:
309,56,23468,6,0,P|244:157|240:272,1,214,0|8,0:0|0:0,0:0:0:0:
487,191,23907,2,0,P|432:173|376:174,1,107
241,183,24200,1,0,0:0:0:0:
290,308,24346,2,0,P|400:307|417:298,1,107,8|0,0:0|0:0,0:0:0:0:
359,91,24639,6,0,L|351:231,1,107
290,308,24932,1,8,0:0:0:0:
152,135,25078,2,0,P|336:101|363:88,1,214
460,49,25517,1,8,0:0:0:0:
360,146,25664,1,0,0:0:0:0:
360,146,25737,1,0,0:0:0:0:
360,146,25810,6,0,P|282:155|226:138,1,107
73,225,26103,2,0,P|185:143|268:154,1,214,8|0,0:0|0:0,0:0:0:0:
217,306,26542,1,0,0:0:0:0:
294,169,26688,1,8,0:0:0:0:
132,33,26834,6,0,P|130:79|150:157,1,107
99,327,27127,2,0,P|140:253|147:190,1,107,0|8,0:0|0:0,0:0:0:0:
185,149,27420,1,0,0:0:0:0:
316,272,27566,2,0,P|314:238|284:151,1,107
144,231,27859,1,8,0:0:0:0:
276,128,28005,1,0,0:0:0:0:
122,3,28151,6,0,P|233:121|290:128,1,214,0|8,0:0|0:0,0:0:0:0:
446,175,28590,1,0,0:0:0:0:
295,108,28737,1,0,0:0:0:0:
454,215,28883,1,0,0:0:0:0:
324,74,29029,1,8,0:0:0:0:
425,252,29176,1,0,0:0:0:0:
189,221,29322,6,0,P|254:198|334:212,1,107
243,348,29615,1,8,0:0:0:0:
291,198,29761,1,0,0:0:0:0:
120,146,29907,2,0,P|169:213|208:223,1,107
238,69,30200,1,8,0:0:0:0:
188,220,30346,1,0,0:0:0:0:
145,44,30493,6,0,P|130:128|106:162,1,107
46,273,30785,1,8,0:0:0:0:
76,150,30932,1,0,0:0:0:0:
137,312,31078,2,0,P|78:271|30:279,1,107
235,224,31371,1,8,0:0:0:0:
56,326,31517,1,0,0:0:0:0:
202,126,31664,6,0,P|211:190|246:233,1,107
393,150,31956,1,8,0:0:0:0:
230,252,32103,1,0,0:0:0:0:
473,213,32249,2,0,P|437:167|369:149,1,107
413,337,32542,1,8,0:0:0:0:
356,179,32688,1,0,0:0:0:0:
255,317,32834,5,8,0:0:0:0:
103,164,32981,1,0,0:0:0:0:
294,69,33127,1,0,0:0:0:0:
264,50,33273,5,8,0:0:0:0:
111,201,33420,1,0,0:0:0:0:
295,308,33566,1,0,0:0:0:0:
295,308,33639,1,0,0:0:0:0:
295,308,33712,2,0,P|391:313|428:288,1,107,8|0,0:0|0:0,0:0:0:0:
499,225,34005,6,0,P|452:183|392:179,1,107
282,130,34298,1,0,0:0:0:0:
163,234,34444,1,0,0:0:0:0:
163,234,34517,1,0,0:0:0:0:
163,234,34590,2,0,P|228:297|308:305,1,160.5,8|0,0:0|0:0,0:0:0:0:
318,304,34883,2,0,P|265:253|259:195,1,107,8|0,0:0|0:0,0:0:0:0:
256,194,35103,1,0,0:0:0:0:
254,157,35176,6,0,P|129:117|46:183,1,214,0|8,0:0|0:0,0:0:0:0:
1,262,35615,1,0,0:0:0:0:
27,58,35761,2,0,P|40:120|79:168,1,107
170,247,36054,1,8,0:0:0:0:
92,116,36200,1,0,0:0:0:0:
325,62,36346,6,0,P|271:32|193:49,1,107
132,180,36639,1,8,0:0:0:0:
335,114,36785,2,0,L|122:183,1,214
51,263,37224,1,8,0:0:0:0:
205,286,37371,1,0,0:0:0:0:
50,360,37517,1,0,0:0:0:0:
243,190,37664,6,0,P|207:252|206:300,1,107,0|8,0:0|0:0,0:0:0:0:
283,376,37956,1,0,0:0:0:0:
243,190,38103,2,0,P|251:257|279:284,1,107
433,250,38395,1,8,0:0:0:0:
279,323,38542,1,0,0:0:0:0:
147,216,38688,6,0,P|107:179|96:252,1,160.5
126,254,38981,2,0,P|164:261|240:297,1,107,8|0,0:0|0:0,0:0:0:0:
370,142,39273,2,0,P|314:184|312:266,1,107
474,268,39566,1,8,0:0:0:0:
269,181,39712,1,0,0:0:0:0:
141,323,39859,6,0,P|220:191|277:181,1,214,0|8,0:0|0:0,0:0:0:0:
384,299,40298,1,0,0:0:0:0:
239,349,40444,2,0,P|152:333|120:290,1,107
258,244,40737,1,8,0:0:0:0:
82,245,40883,1,0,0:0:0:0:
44,51,41029,6,0,P|12:106|12:154,1,107
32,293,41322,1,8,0:0:0:0:
159,209,41468,2,0,P|101:182|47:31,1,214
47,18,41834,1,0,0:0:0:0:
66,44,41907,2,0,P|101:92|157:117,1,107,8|0,0:0|0:0,0:0:0:0:
285,186,42200,5,0,0:0:0:0:
65,273,42346,2,0,L|195:286,1,107,0|8,0:0|0:0,0:0:0:0:
171,283,42639,1,0,0:0:0:0:
135,91,42785,2,0,L|255:95,1,107,8|0,0:0|0:0,0:0:0:0:
241,94,43078,1,0,0:0:0:0:
278,302,43224,6,0,P|385:290|427:192,1,214
335,66,43664,1,8,0:0:0:0:
254,181,43810,2,0,L|326:193,2,53.5,0|0|8,0:0|0:0|0:0,0:0:0:0:
427,202,44103,1,0,0:0:0:0:
258,28,44249,2,0,P|276:122|245:193,1,160.5
276,208,44542,6,0,P|314:175|330:134,1,89.8799972570802
355,52,44834,1,8,0:0:0:0:
130,126,44981,2,0,P|194:106|243:122,1,89.8799972570802
294,144,45273,2,0,P|234:126|198:84,1,89.8799972570802,0|8,0:0|0:0,0:0:0:0:
131,24,45566,1,0,0:0:0:0:
32,161,45712,2,0,P|58:80|136:22,1,179.75999451416,0|8,0:0|0:0,0:0:0:0:
188,203,46151,2,0,P|85:146|4:182,1,179.75999451416
56,336,46590,2,0,L|102:225,1,89.8799972570802,8|0,0:0|0:0,0:0:0:0:
369,352,46883,6,0,P|282:349|199:296,1,179.75999451416,0|8,0:0|0:0,0:0:0:0:
178,175,47322,1,0,0:0:0:0:
336,163,47468,2,0,L|304:256,1,89.8799972570802
195,131,47761,1,8,0:0:0:0:
287,288,47907,1,0,0:0:0:0:
456,140,48054,6,0,L|331:146,1,89.8799972570802
178,175,48346,1,8,0:0:0:0:
373,314,48493,2,0,L|261:280,1,89.8799972570802
183,88,48785,2,0,P|174:164|198:206,1,89.8799972570802,0|8,0:0|0:0,0:0:0:0:
204,301,49078,1,0,0:0:0:0:
73,81,49224,5,0,0:0:0:0:
291,139,49371,1,0,0:0:0:0:
101,125,49517,1,8,0:0:0:0:
319,182,49664,1,0,0:0:0:0:
128,168,49810,1,0,0:0:0:0:
344,227,49956,1,0,0:0:0:0:
154,213,50103,1,8,0:0:0:0:
370,269,50249,1,0,0:0:0:0:
185,344,50395,6,0,P|172:297|184:228,1,89.8799972570802
400,287,50688,2,0,P|355:302|313:289,1,89.8799972570802,8|0,0:0|0:0,0:0:0:0:
224,201,50981,1,0,0:0:0:0:
340,126,51127,2,0,P|424:119|461:143,1,89.8799972570802,0|8,0:0|0:0,0:0:0:0:
501,231,51420,1,0,0:0:0:0:
179,102,51566,6,0,P|318:138|363:104,1,179.75999451416,0|8,0:0|0:0,0:0:0:0:
162,150,52005,1,0,0:0:0:0:
339,125,52151,2,0,P|389:96|451:110,1,89.8799972570802
181,195,52444,1,8,0:0:0:0:
319,299,52590,6,0,P|347:182|336:117,1,179.75999451416
256,28,53029,1,8,0:0:0:0:
231,190,53176,2,0,P|153:222|113:216,1,89.8799972570802,0|8,0:0|0:0,0:0:0:0:
50,145,53468,2,0,L|38:84,2,44.9399986285401,0|0|8,0:0|0:0|0:0,0:0:0:0:
173,256,53761,1,0,0:0:0:0:
173,256,53834,1,0,0:0:0:0:
173,256,53907,6,0,P|223:206|234:177,1,89.8799972570802
216,102,54200,2,0,P|218:157|249:218,1,89.8799972570802,8|0,0:0|0:0,0:0:0:0:
200,350,54493,1,0,0:0:0:0:
250,226,54639,1,0,0:0:0:0:
387,344,54785,2,0,B|358:237,1,89.8799972570802,8|0,0:0|0:0,0:0:0:0:
335,68,55078,2,0,L|372:190,1,89.8799972570802
447,248,55371,1,8,0:0:0:0:
197,214,55517,2,0,P|291:262|384:249,1,179.75999451416
374,170,55956,2,0,P|358:233|380:294,1,89.8799972570802,8|0,0:0|0:0,0:0:0:0:
448,35,56249,6,0,P|493:115|471:213,1,179.75999451416,0|8,0:0|0:0,0:0:0:0:
370,289,56688,1,0,0:0:0:0:
289,153,56834,2,0,P|347:139|406:158,1,89.8799972570802
203,210,57127,1,8,0:0:0:0:
375,122,57273,1,0,0:0:0:0:
274,363,57420,6,0,P|305:296|304:245,1,89.8799972570802
304,146,57712,1,8,0:0:0:0:
114,210,57859,2,0,P|178:215|219:211,1,89.8799972570802
179,73,58151,2,0,P|243:70|299:82,1,89.8799972570802,0|8,0:0|0:0,0:0:0:0:
355,203,58444,1,0,0:0:0:0:
218,305,58590,6,0,P|267:239|376:201,1,179.75999451416,0|8,0:0|0:0,0:0:0:0:
320,282,59029,2,0,P|338:221|361:196,1,89.8799972570802
210,99,59322,1,0,0:0:0:0:
352,153,59468,1,8,0:0:0:0:
153,193,59615,1,0,0:0:0:0:
28,348,59761,6,0,P|35:278|65:239,1,89.8799972570802
84,141,60054,1,8,0:0:0:0:
109,317,60200,2,0,P|55:284|38:234,1,89.8799972570802
96,83,60493,1,0,0:0:0:0:
54,222,60639,1,8,0:0:0:0:
228,107,60785,1,0,0:0:0:0:
371,249,60932,6,0,P|353:192|353:136,1,89.8799972570802
327,63,61224,1,8,0:0:0:0:
205,259,61371,2,0,P|317:279|389:226,1,179.75999451416
327,63,61810,1,8,0:0:0:0:
74,240,61956,6,0,P|161:242|218:266,1,134.81999588562,2|0,0:0|0:0,0:0:0:0:
233,246,62249,2,0,P|180:200|117:178,1,134.81999588562,2|0,0:0|0:0,0:0:0:0:
88,164,62542,2,0,P|130:132|213:130,1,134.81999588562,2|0,0:0|0:0,0:0:0:0:
249,130,62834,1,0,0:0:0:0:
249,130,62907,1,0,0:0:0:0:
249,130,62981,2,0,P|211:78|174:69,1,89.8799972570802,8|0,0:0|0:0,0:0:0:0:
105,313,63273,5,0,0:0:0:0:
105,313,63566,5,8,0:0:0:0:
438,255,63712,1,0,0:0:0:0:
101,193,63859,5,8,0:0:0:0:
422,88,64005,1,0,0:0:0:0:
200,346,64151,5,8,0:0:0:0:
273,15,64297,1,0,0:0:0:0:
369,333,64444,5,8,0:0:0:0:
154,71,64590,1,0,0:0:0:0:
421,180,64737,5,8,0:0:0:0:
103,298,64883,1,0,0:0:0:0:
203,25,65029,5,8,0:0:0:0:
265,357,65175,1,0,0:0:0:0:
408,21,65322,5,8,0:0:0:0:
352,355,65468,1,0,0:0:0:0:
149,67,65615,5,8,0:0:0:0:
484,170,65761,1,0,0:0:0:0:
52,93,65907,5,8,0:0:0:0:
330,307,66053,1,0,0:0:0:0:
59,206,66200,5,8,0:0:0:0:
379,61,66346,1,0,0:0:0:0:
40,65,66493,5,8,0:0:0:0:
356,218,66639,1,0,0:0:0:0:
14,184,66785,5,8,0:0:0:0:
332,361,66931,1,0,0:0:0:0:
262,18,67078,5,8,0:0:0:0:
428,357,67224,1,0,0:0:0:0:
148,117,67371,5,8,0:0:0:0:
129,98,67444,1,0,0:0:0:0:
148,80,67517,1,0,0:0:0:0:
166,98,67590,1,0,0:0:0:0:
147,99,67664,2,0,P|131:184|139:229,1,130.539994621918,8|0,0:0|0:0,0:0:0:0:
457,49,67956,5,0,0:0:0:0:
457,49,68249,5,8,0:0:0:0:
320,358,68395,1,0,0:0:0:0:
227,26,68542,5,8,0:0:0:0:
455,274,68688,1,0,0:0:0:0:
83,146,68834,5,8,0:0:0:0:
419,113,68980,1,0,0:0:0:0:
72,37,69127,5,8,0:0:0:0:
236,332,69273,1,0,0:0:0:0:
345,17,69420,5,8,0:0:0:0:
496,319,69566,1,0,0:0:0:0:
261,43,69712,5,8,0:0:0:0:
84,331,69858,1,0,0:0:0:0:
356,176,70005,5,8,0:0:0:0:
22,119,70151,1,0,0:0:0:0:
311,355,70298,5,8,0:0:0:0:
179,26,70444,1,0,0:0:0:0:
458,320,70590,5,8,0:0:0:0:
171,112,70736,1,0,0:0:0:0:
149,360,70883,5,8,0:0:0:0:
336,41,71029,1,0,0:0:0:0:
15,203,71176,5,8,0:0:0:0:
397,167,71322,1,0,0:0:0:0:
181,378,71468,5,2,0:0:0:0:
181,378,71542,1,0,0:0:0:0:
181,378,71615,1,0,0:0:0:0:
181,378,71688,1,0,0:0:0:0:
181,378,71761,1,0,0:0:0:0:
181,378,71834,1,0,0:0:0:0:
181,378,71907,1,0,0:0:0:0:
181,378,71981,1,0,0:0:0:0:
181,378,72054,1,0,0:0:0:0:
197,343,72127,1,0,0:0:0:0:
193,305,72200,1,0,0:0:0:0:
171,274,72273,1,0,0:0:0:0:
136,259,72346,1,0,0:0:0:0:
90,254,72420,1,0,0:0:0:0:
47,273,72493,1,0,0:0:0:0:
17,308,72566,1,0,0:0:0:0:
8,353,72639,5,6,0:0:0:0:
8,353,73224,5,0,0:0:0:0:
129,49,73371,2,0,P|137:101|123:193,1,107,0|8,0:0|0:0,0:0:0:0:
315,287,73810,1,2,0:0:0:0:
315,287,74981,5,2,0:0:0:0:
157,136,75712,6,0,P|145:191|160:252,1,107,0|8,0:0|0:0,0:0:0:0:
367,325,76151,1,2,0:0:0:0:
372,331,77322,5,0,0:0:0:0:
372,331,77468,5,8,0:0:0:0:
212,88,77615,1,0,0:0:0:0:
497,70,77907,5,8,0:0:0:0:
372,331,78054,1,0,0:0:0:0:
273,254,78346,5,8,0:0:0:0:
497,70,78493,1,0,0:0:0:0:
1,155,78785,5,8,0:0:0:0:
273,254,78932,1,0,0:0:0:0:
271,47,79224,5,8,0:0:0:0:
1,155,79371,1,0,0:0:0:0:
67,251,79664,5,8,0:0:0:0:
271,47,79810,1,0,0:0:0:0:
332,366,80103,5,8,0:0:0:0:
67,251,80249,1,0,0:0:0:0:
243,92,80542,5,8,0:0:0:0:
332,366,80688,1,0,0:0:0:0:
332,366,80834,6,0,B|277:319|277:319|260:206,1,179.75999451416,6|6,0:0|0:0,0:0:0:0:
417,39,82298,5,8,0:0:0:0:
65,17,82444,1,0,0:0:0:0:
425,139,82590,5,8,0:0:0:0:
70,157,82737,1,0,0:0:0:0:
414,282,82883,5,8,0:0:0:0:
62,264,83029,1,0,0:0:0:0:
381,363,83176,5,8,0:0:0:0:
28,369,83322,1,0,0:0:0:0:
311,39,83468,5,8,0:0:0:0:
161,360,83615,1,0,0:0:0:0:
115,60,83761,5,8,0:0:0:0:
368,304,83907,1,0,0:0:0:0:
117,36,84054,5,8,0:0:0:0:
467,70,84200,1,0,0:0:0:0:
85,159,84346,5,8,0:0:0:0:
439,178,84493,1,0,0:0:0:0:
70,254,84639,5,8,0:0:0:0:
422,247,84785,1,0,0:0:0:0:
64,335,84932,5,8,0:0:0:0:
414,372,85078,1,0,0:0:0:0:
122,287,85224,5,8,0:0:0:0:
388,53,85371,1,0,0:0:0:0:
292,335,85517,5,8,0:0:0:0:
163,4,85664,1,0,0:0:0:0:
396,226,85810,5,8,0:0:0:0:
62,111,85956,1,0,0:0:0:0:
172,326,86103,5,0,0:0:0:0:
153,289,86176,1,0,0:0:0:0:
164,249,86249,1,0,0:0:0:0:
200,229,86322,1,0,0:0:0:0:
228,236,86395,1,0,0:0:0:0:
241,252,86468,1,0,0:0:0:0:
246,265,86542,1,0,0:0:0:0:
249,271,86615,1,0,0:0:0:0:
249,271,86688,5,0,0:0:0:0:
70,38,86981,5,8,0:0:0:0:
57,375,87127,1,0,0:0:0:0:
209,27,87273,5,8,0:0:0:0:
160,363,87420,1,0,0:0:0:0:
299,40,87566,5,8,0:0:0:0:
279,377,87712,1,0,0:0:0:0:
403,39,87859,5,8,0:0:0:0:
432,375,88005,1,0,0:0:0:0:
474,130,88151,5,8,0:0:0:0:
149,233,88298,1,0,0:0:0:0:
461,263,88444,5,8,0:0:0:0:
182,71,88590,1,0,0:0:0:0:
407,356,88737,5,8,0:0:0:0:
437,19,88883,1,0,0:0:0:0:
317,349,89029,5,8,0:0:0:0:
286,9,89176,1,0,0:0:0:0:
165,360,89322,5,8,0:0:0:0:
191,22,89468,1,0,0:0:0:0:
66,347,89615,5,8,0:0:0:0:
21,11,89761,1,0,0:0:0:0:
326,264,89907,5,8,0:0:0:0:
17,120,90054,1,0,0:0:0:0:
288,90,90200,5,8,0:0:0:0:
35,314,90346,2,0,P|71:276|137:274,1,107
362,300,90639,2,0,P|371:194|269:82,1,246.099991738587,2|8,0:0|0:0,0:0:0:0:
143,281,91517,1,0,0:0:0:0:
80,43,91664,5,8,0:0:0:0:
143,281,91810,1,0,0:0:0:0:
340,94,91956,5,8,0:0:0:0:
175,263,92103,1,0,0:0:0:0:
398,336,92249,1,8,0:0:0:0:
175,263,92395,1,6,0:0:0:0:
256,192,92468,12,0,94810,0:0:0:0:
296,250,94883,5,2,0:0:0:0:
250,295,94956,1,0,0:0:0:0:
188,312,95029,1,0,0:0:0:0:
126,295,95103,1,0,0:0:0:0:
81,250,95176,1,2,0:0:0:0:
64,187,95249,1,0,0:0:0:0:
81,125,95322,1,0,0:0:0:0:
126,80,95395,1,0,0:0:0:0:
188,63,95468,5,2,0:0:0:0:
250,80,95542,1,0,0:0:0:0:
296,125,95615,1,0,0:0:0:0:
312,187,95688,1,0,0:0:0:0:
326,232,95761,1,2,0:0:0:0:
357,269,95834,1,0,0:0:0:0:
405,278,95907,1,0,0:0:0:0:
447,254,95981,1,0,0:0:0:0:
463,208,96054,5,2,0:0:0:0:
447,163,96127,1,0,0:0:0:0:
405,139,96200,1,0,0:0:0:0:
357,147,96273,1,0,0:0:0:0:
326,184,96346,1,6,0:0:0:0:
140,240,96639,6,0,P|124:174|144:124,1,107,2|0,0:0|0:0,0:0:0:0:
256,192,97078,5,6,0:0:0:0:
256,192,97151,12,0,101615,0:0:0:0:
