osu file format v14

[General]
AudioFilename: audio.mp3
AudioLeadIn: 0
PreviewTime: 47780
Countdown: 0
SampleSet: Soft
StackLeniency: 1
Mode: 0
LetterboxInBreaks: 0
WidescreenStoryboard: 1

[Editor]
Bookmarks: 5330,67730
DistanceSpacing: 1.4
BeatDivisor: 4
GridSize: 16
TimelineZoom: 1

[Metadata]
Title:Sore ga, Ai deshou (TV Size)
TitleUnicode:それが、愛でしょう (TV Size)
Artist:Mikuni Shimokawa
ArtistUnicode:下川みくに
Creator:subahibi
Version:Normal
Source:フルメタル・パニック? ふもっふ
Tags:full metal panic? Fumoffu FMP TV Size Sin opening sainoo majk00 pop japanese anime female vocal
BeatmapID:3575208
BeatmapSetID:1743292

[Difficulty]
HPDrainRate:4
CircleSize:3
OverallDifficulty:4
ApproachRate:4
SliderMultiplier:1.99999990463257
SliderTickRate:1

[Events]
//Background and Video events
0,0,"bg.jpg",0,0
//Break Periods
//Storyboard Layer 0 (Background)
//Storyboard Layer 1 (Fail)
//Storyboard Layer 2 (Pass)
//Storyboard Layer 3 (Foreground)
//Storyboard Layer 4 (Overlay)
//Storyboard Sound Samples

[TimingPoints]
530,600,4,2,1,50,1,0
10130,-100,4,2,1,40,0,0
26930,-100,4,2,1,50,0,0
29330,-100,4,2,1,60,0,0
38930,-100,4,2,1,70,0,0
48530,-100,4,2,1,80,0,1
86930,-100,4,2,1,80,0,0
89180,-100,4,2,1,5,0,0

[Colours]
Combo1 : 254,154,63
Combo2 : 255,153,244
Combo3 : 255,223,157
Combo4 : 255,185,220
Combo5 : 179,253,250

[HitObjects]
86,384,5330,6,0,L|47:244,1,99.9999952316284,6|4,3:3|0:3,0:0:0:0:
30,191,5930,1,8,0:0:0:0:
26,91,6230,2,0,B|86:95|123:143|123:143|168:125|214:121,1,199.999990463257,6|4,0:3|0:3,0:0:0:0:
306,125,7130,1,8,0:0:0:0:
263,320,7730,6,0,P|165:296|66:283,1,199.999990463257,6|8,0:3|0:0,0:0:0:0:
86,185,8630,2,0,P|183:208|282:221,1,199.999990463257,6|4,0:3|0:3,0:0:0:0:
356,288,9530,1,8,0:0:0:0:
498,148,10130,5,6,0:3:0:0:
458,56,10430,2,0,L|400:69,1,49.9999976158143,4|8,0:3|0:3,0:0:0:0:
360,77,10730,2,0,L|239:45,1,99.9999952316285,8|0,0:0|3:3,0:0:0:0:
177,102,11330,5,2,0:0:0:0:
152,199,11630,1,4,0:3:0:0:
223,269,11930,2,0,L|254:396,1,99.9999952316285,8|2,0:0|0:3,0:0:0:0:
346,370,12530,2,0,P|399:304|381:164,1,199.999990463257,6|8,0:3|0:0,0:0:0:0:
307,148,13430,1,2,0:3:0:0:
193,313,14930,6,0,L|0:363,1,199.999990463257,6|8,0:3|0:0,0:0:0:0:
10,264,15830,1,2,0:3:0:0:
22,164,16130,2,0,B|63:173|96:214|96:214|181:196,1,149.999992847443,0|8,0:0|0:3,0:0:0:0:
202,191,16730,1,8,0:0:0:0:
359,67,17330,5,6,0:3:0:0:
411,152,17630,2,0,L|472:167,1,49.9999976158143,2|8,0:3|0:3,0:0:0:0:
491,202,17930,2,0,P|499:282|431:349,1,149.999992847443,8|4,0:0|0:3,0:0:0:0:
362,360,18680,1,4,0:3:0:0:
294,294,18980,1,8,0:3:0:0:
294,294,19130,2,0,L|131:338,1,149.999992847443,8|4,0:0|0:3,0:0:0:0:
101,348,19730,6,0,P|51:302|66:148,1,199.999990463257,6|8,0:3|0:0,0:0:0:0:
126,115,20630,1,2,0:3:0:0:
165,206,20930,2,0,P|212:221|261:215,1,99.9999952316285,0|4,0:0|0:3,0:0:0:0:
358,190,21530,1,8,0:0:0:0:
370,90,21830,1,2,0:3:0:0:
319,3,22130,6,0,B|283:37|271:70|271:70|218:50|148:52,1,199.999990463257,6|8,0:3|0:0,0:0:0:0:
64,91,23030,2,0,P|84:125|102:138,1,49.9999976158143
136,154,23330,2,0,B|197:179|258:174|258:174|316:213|281:269,1,199.999990463257,0|10,0:0|0:0,0:0:0:0:
238,318,24230,5,2,0:3:0:0:
315,380,24530,2,0,P|378:325|508:293,1,199.999990463257,6|8,0:3|0:0,0:0:0:0:
479,197,25430,1,2,0:3:0:0:
479,197,25580,2,0,P|425:187|366:167,1,99.9999952316285,4|4,0:3|0:3,0:0:0:0:
274,69,26330,5,8,0:0:0:0:
192,126,26630,1,2,0:3:0:0:
92,137,26930,2,0,P|83:207|155:327,1,199.999990463257,6|8,0:3|0:0,0:0:0:0:
214,248,27830,1,2,0:3:0:0:
214,248,27980,2,0,P|259:232|326:222,1,99.9999952316285,4|6,0:3|0:3,0:0:0:0:
460,226,28730,5,10,0:0:0:0:
478,324,29030,1,2,0:3:0:0:
388,368,29330,2,0,B|353:363|325:351|325:351|260:370|260:370|226:355|187:351,1,199.999990463257,6|8,0:3|0:0,0:0:0:0:
97,336,30230,2,0,L|66:219,1,99.9999952316285,2|0,0:3|0:0,0:0:0:0:
16,155,30830,1,4,0:3:0:0:
53,67,31130,1,8,0:0:0:0:
147,32,31430,2,0,L|258:58,1,99.9999952316285,2|6,0:3|0:3,0:0:0:0:
309,131,32030,5,2,0:3:0:0:
143,243,32630,1,2,0:3:0:0:
49,66,33230,2,0,L|204:27,1,149.999992847443,6|8,0:3|0:3,0:0:0:0:
302,133,34130,6,0,B|337:128|365:116|365:116|430:135|430:135|464:120|503:116,1,199.999990463257,6|8,0:3|0:0,0:0:0:0:
487,217,35030,2,0,L|460:319,1,99.9999952316285,2|0,0:3|0:0,0:0:0:0:
369,344,35630,1,4,0:3:0:0:
369,344,35780,2,0,L|206:386,1,149.999992847443,0|2,0:0|0:3,0:0:0:0:
144,320,36530,1,4,0:3:0:0:
177,224,36830,1,2,0:3:0:0:
276,218,37130,2,0,P|306:166|301:117,1,99.9999952316285,10|2,0:0|0:3,0:0:0:0:
279,84,37580,1,4,0:3:0:0:
185,47,37880,6,0,L|197:-2,2,49.9999976158143,8|6|0,0:3|0:3|0:0,0:0:0:0:
147,80,38330,1,8,0:0:0:0:
92,163,38630,1,2,0:3:0:0:
168,227,38930,2,0,P|190:267|193:323,1,99.9999952316285,6|4,0:3|0:3,0:0:0:0:
273,380,39530,1,8,0:0:0:0:
371,362,39830,1,2,0:3:0:0:
420,275,40130,6,0,L|389:162,1,99.9999952316285,4|4,0:3|0:3,0:0:0:0:
383,134,40580,1,4,0:3:0:0:
383,134,40730,2,0,P|333:129|287:148,1,99.9999952316285,8|2,0:0|0:3,0:0:0:0:
192,177,41330,6,0,B|151:171|123:157|123:157|70:206|6:205,1,199.999990463257,6|8,0:3|0:0,0:0:0:0:
30,107,42230,1,2,0:3:0:0:
110,48,42530,2,0,P|183:61|261:94,1,149.999992847443,0|8,0:0|0:3,0:0:0:0:
287,125,43130,1,8,0:0:0:0:
277,224,43430,1,2,0:3:0:0:
344,297,43730,2,0,P|407:286|477:177,1,199.999990463257,6|8,0:3|0:0,0:0:0:0:
415,41,44780,5,4,0:3:0:0:
334,100,45080,1,0,3:0:0:0:
238,105,45380,1,8,0:3:0:0:
238,105,45530,2,0,L|128:137,1,99.9999952316285,8|2,0:0|0:3,0:0:0:0:
61,192,46130,1,6,0:3:0:0:
123,270,46430,6,0,L|195:287,1,49.9999976158143,8|8,0:3|0:3,0:0:0:0:
201,241,46730,2,0,L|365:200,1,149.999992847443,8|4,0:0|0:3,0:0:0:0:
395,195,47330,6,0,L|467:212,1,49.9999976158143,8|8,0:1|0:1,0:0:0:0:
483,236,47630,2,0,L|494:284,1,49.9999976158143,8|8,0:1|0:3,0:0:0:0:
478,332,47930,2,0,L|381:357,1,99.9999952316285,8|8,1:0|0:1,0:0:0:0:
302,295,48530,6,0,B|242:299|205:347|205:347|160:329|114:325,1,199.999990463257,6|10,0:0|0:0,0:0:0:0:
5,239,49580,1,6,0:3:0:0:
5,239,49730,2,0,P|21:188|31:136,1,99.9999952316285,0|4,0:0|0:3,0:0:0:0:
30,42,50330,6,0,L|90:25,1,49.9999976158143,10|10,0:0|0:3,0:0:0:0:
117,60,50630,2,0,L|165:72,1,49.9999976158143,2|10,0:3|0:3,0:0:0:0:
214,63,50930,2,0,L|343:27,1,99.9999952316285,14|2,0:0|0:3,0:0:0:0:
401,77,51530,1,8,0:0:0:0:
406,176,51830,2,0,B|348:172|321:132|321:132|202:164,1,199.999990463257,10|4,0:3|0:3,0:0:0:0:
128,188,52730,6,0,L|72:173,1,49.9999976158143,10|10,0:0|0:3,0:0:0:0:
36,200,53030,2,0,L|21:255,1,49.9999976158143,2|10,0:3|0:3,0:0:0:0:
40,295,53330,2,0,L|136:321,1,99.9999952316285,14|10,0:0|0:3,0:0:0:0:
178,291,53780,5,6,0:3:0:0:
178,291,53930,2,0,L|281:264,1,99.9999952316285,8|10,0:0|0:3,0:0:0:0:
298,168,54530,2,0,L|223:91,1,99.9999952316285,2|6,0:3|0:3,0:0:0:0:
132,125,55130,2,0,L|103:228,1,99.9999952316285,8|6,0:0|0:3,0:0:0:0:
86,319,55730,6,0,P|125:362|264:352,1,199.999990463257,14|8,0:0|0:0,0:0:0:0:
282,260,56630,1,10,0:3:0:0:
380,244,56930,1,0,0:0:0:0:
408,148,57230,2,0,L|438:39,1,99.9999952316285,6|8,0:3|0:0,0:0:0:0:
345,4,57830,1,2,0:3:0:0:
269,70,58130,2,0,B|143:111|143:111|116:83|72:79|72:79,1,199.999990463257,14|12,0:0|0:0,0:0:0:0:
74,184,59030,5,10,0:3:0:0:
74,184,59180,2,0,L|101:295,1,99.9999952316285,6|8,0:3|0:3,0:0:0:0:
111,329,59630,1,6,0:3:0:0:
209,346,59930,1,8,0:0:0:0:
299,304,60230,2,0,L|312:251,1,49.9999976158143,6|8,0:3|0:3,0:0:0:0:
345,219,60530,6,0,L|293:16,1,199.999990463257,14|8,0:0|0:0,0:0:0:0:
196,17,61430,2,0,B|136:25|99:69|99:69|58:47|8:47,1,199.999990463257,8|6,0:3|0:3,0:0:0:0:
33,145,62330,1,8,0:0:0:0:
128,173,62630,1,2,0:3:0:0:
152,270,62930,2,0,L|316:313,1,149.999992847443,14|4,0:0|0:3,0:0:0:0:
345,322,63530,1,8,0:0:0:0:
423,260,63830,5,10,0:3:0:0:
381,168,64130,2,0,L|279:140,1,99.9999952316285,2|6,0:3|0:3,0:0:0:0:
201,198,64730,1,10,0:0:0:0:
170,102,65030,2,0,P|174:49|217:3,1,99.9999952316285,2|14,0:3|0:0,0:0:0:0:
355,14,65780,5,6,0:3:0:0:
355,14,65930,2,0,L|427:34,1,49.9999976158143,8|8,0:0|0:0,0:0:0:0:
443,57,66230,2,0,L|456:105,1,49.9999976158143,4|4,0:3|0:3,0:0:0:0:
436,151,66530,2,0,P|415:200|359:228,1,99.9999952316285,0|8,0:0|0:0,0:0:0:0:
287,180,67130,6,0,L|229:195,1,49.9999976158143,10|10,0:0|0:3,0:0:0:0:
191,175,67430,2,0,L|142:162,1,49.9999976158143,2|10,0:3|0:3,0:0:0:0:
97,184,67730,2,0,P|42:234|67:379,1,199.999990463257,6|8,0:0|0:0,0:0:0:0:
142,373,68630,2,0,P|234:340|367:312,1,199.999990463257,10|4,0:3|0:3,0:0:0:0:
400,243,69530,6,0,L|383:186,1,49.9999976158143,10|10,0:0|0:3,0:0:0:0:
354,156,69830,2,0,L|370:99,1,49.9999976158143,2|10,0:3|0:3,0:0:0:0:
342,64,70130,2,0,L|148:115,1,199.999990463257,14|8,0:0|0:0,0:0:0:0:
71,178,71030,1,10,0:3:0:0:
71,178,71180,2,0,P|59:238|112:321,1,149.999992847443,6|6,0:3|0:3,0:0:0:0:
198,333,71930,1,8,0:0:0:0:
282,279,72230,1,2,0:3:0:0:
274,179,72530,6,0,B|337:184|382:238|382:238|424:219|466:217,1,199.999990463257,14|8,0:0|0:0,0:0:0:0:
491,310,73430,2,0,P|438:332|378:344,1,99.9999952316285,10|0,0:3|0:0,0:0:0:0:
298,362,74030,1,4,0:3:0:0:
240,280,74330,2,0,L|269:173,1,99.9999952316285,10|2,0:0|0:3,0:0:0:0:
268,137,74780,5,10,0:3:0:0:
268,137,74930,2,0,L|63:193,1,199.999990463257,14|8,0:0|0:0,0:0:0:0:
20,274,75830,1,8,0:3:0:0:
20,274,75980,2,0,L|199:323,1,149.999992847443,4|6,0:3|0:3,0:0:0:0:
241,377,76730,2,0,L|346:347,1,99.9999952316285,8|2,0:0|0:3,0:0:0:0:
354,251,77330,2,0,P|356:184|277:65,1,199.999990463257,14|10,0:0|0:0,0:0:0:0:
209,133,78230,6,0,P|109:163|10:183,1,199.999990463257,10|6,0:3|0:3,0:0:0:0:
0,281,79130,1,8,0:0:0:0:
87,328,79430,1,6,0:3:0:0:
172,275,79730,2,0,P|262:244|365:221,1,199.999990463257,14|10,0:0|0:0,0:0:0:0:
462,259,80630,5,10,0:3:0:0:
462,259,80780,2,0,P|505:197|505:96,1,149.999992847443,6|6,0:3|0:3,0:0:0:0:
422,81,81530,1,8,0:0:0:0:
330,122,81830,1,2,0:3:0:0:
269,42,82130,6,0,L|68:99,1,199.999990463257,12|8,0:0|0:0,0:0:0:0:
1,163,83030,2,0,P|-4:246|80:333,1,199.999990463257,10|4,0:3|0:3,0:0:0:0:
162,293,83930,6,0,P|224:270|290:255,1,99.9999952316285,10|2,0:0|0:3,0:0:0:0:
344,309,84530,2,0,L|392:131,1,149.999992847443,14|4,0:0|0:3,0:0:0:0:
350,126,85130,2,0,L|336:74,1,49.9999976158143,10|8,0:0|0:3,0:0:0:0:
300,52,85430,1,6,0:3:0:0:
300,52,85580,2,0,L|111:104,1,149.999992847443,6|6,0:3|0:3,0:0:0:0:
107,180,86330,1,8,0:0:0:0:
187,239,86630,2,0,P|196:257|200:295,1,49.9999976158143,6|6,0:3|0:3,0:0:0:0:
199,336,86930,1,6,0:3:0:0:
256,192,87530,12,0,89330,0:0:0:0:
