osu file format v14

[General]
AudioFilename: audio.mp3
AudioLeadIn: 0
PreviewTime: 47780
Countdown: 0
SampleSet: Soft
StackLeniency: 0.7
Mode: 0
LetterboxInBreaks: 0
WidescreenStoryboard: 0

[Editor]
Bookmarks: 67730
DistanceSpacing: 1.4
BeatDivisor: 4
GridSize: 16
TimelineZoom: 1.6

[Metadata]
Title:Sore ga, Ai deshou (TV Size)
TitleUnicode:それが、愛でしょう (TV Size)
Artist:Mikuni Shimokawa
ArtistUnicode:下川みくに
Creator:subahibi
Version:Deluded Summer
Source:フルメタル・パニック? ふもっふ
Tags:full metal panic? Fumoffu FMP TV Size Sin opening sainoo majk00 pop japanese anime female vocal
BeatmapID:3563861
BeatmapSetID:1743292

[Difficulty]
HPDrainRate:5
CircleSize:4
OverallDifficulty:9
ApproachRate:9.2
SliderMultiplier:3.39999990463257
SliderTickRate:1

[Events]
//Background and Video events
0,0,"bg.jpg",0,0
//Break Periods
//Storyboard Layer 0 (Background)
//Storyboard Layer 1 (Fail)
//Storyboard Layer 2 (Pass)
//Storyboard Layer 3 (Foreground)
//Storyboard Layer 4 (Overlay)
//Storyboard Sound Samples

[TimingPoints]
530,600,4,2,1,30,1,0
530,-142.857142857143,4,2,1,50,0,0
1430,-285.714285714286,4,2,1,50,0,0
2930,-142.857142857143,4,2,1,50,0,0
3830,-285.714285714286,4,2,1,50,0,0
5330,-111.111111111111,4,2,1,50,0,0
6155,-111.111111111111,4,2,1,5,0,0
6230,-111.111111111111,4,2,1,50,0,0
9005,-111.111111111111,4,2,1,5,0,0
9080,-111.111111111111,4,2,1,50,0,0
10130,-117.647058823529,4,2,1,40,0,0
14555,-117.647058823529,4,2,1,5,0,0
14630,-117.647058823529,4,2,1,40,0,0
16355,-117.647058823529,4,2,1,5,0,0
16430,-117.647058823529,4,2,1,40,0,0
25805,-117.647058823529,4,2,1,5,0,0
25880,-117.647058823529,4,2,1,40,0,0
26930,-117.647058823529,4,2,1,50,0,0
27380,-117.647058823529,4,2,1,50,0,0
29330,-166.666666666667,4,2,1,60,0,0
30530,-200,4,2,1,60,0,0
31130,-166.666666666667,4,2,1,60,0,0
35030,-142.857142857143,4,2,1,60,0,0
35780,-166.666666666667,4,2,1,60,0,0
36230,-142.857142857143,4,2,1,60,0,0
38930,-125,4,2,1,70,0,0
42230,-142.857142857143,4,2,1,70,0,0
42980,-125,4,2,1,70,0,0
43655,-125,4,2,1,5,0,0
43730,-111.111111111111,4,2,1,70,0,0
47030,-99.9999999999999,4,2,1,70,0,0
48530,-100,4,2,1,80,0,1
48755,-100,4,2,1,5,0,1
48830,-100,4,2,1,80,0,1
50255,-100,4,2,1,5,0,1
50330,-100,4,2,1,80,0,1
51155,-100,4,2,1,5,0,1
51230,-100,4,2,1,80,0,1
51755,-100,4,2,1,5,0,1
51830,-100,4,2,1,80,0,1
54155,-100,4,2,1,5,0,1
54230,-100,4,2,1,80,0,1
55955,-100,4,2,1,5,0,1
56030,-100,4,2,1,80,0,1
58955,-100,4,2,1,5,0,1
59030,-100,4,2,1,80,0,1
59855,-100,4,2,1,5,0,1
59930,-100,4,2,1,80,0,1
64355,-100,4,2,1,5,0,1
64430,-100,4,2,1,80,0,1
67730,-111.111111111111,4,2,1,80,0,1
67955,-111.111111111111,4,2,1,5,0,1
68030,-111.111111111111,4,2,1,80,0,1
70130,-99.9999999999999,4,2,1,80,0,1
73955,-99.9999999999999,4,2,1,5,0,1
74030,-99.9999999999999,4,2,1,80,0,1
77555,-99.9999999999999,4,2,1,5,0,1
77630,-99.9999999999999,4,2,1,80,0,1
82355,-99.9999999999999,4,2,1,5,0,1
82430,-99.9999999999999,4,2,1,80,0,1
86930,-100,4,2,1,50,0,0
89255,-100,4,2,1,5,0,0

[Colours]
Combo1 : 254,154,63
Combo2 : 255,153,244
Combo3 : 255,223,157
Combo4 : 255,185,220
Combo5 : 179,253,250

[HitObjects]
42,344,530,6,0,P|57:289|73:222,1,118.999993030548,2|2,0:0|0:0,0:0:0:0:
15,174,980,1,2,0:0:0:0:
14,168,1130,2,0,L|-3:97,1,59.4999965152742,2|2,0:0|0:0,0:0:0:0:
148,199,1430,2,0,P|206:190|264:177,1,118.999993030548,2|0,0:0|0:0,0:0:0:0:
273,176,2330,1,0,0:0:0:0:
282,171,2930,6,0,P|266:225|250:292,1,118.999993030548,2|2,0:0|0:0,0:0:0:0:
237,364,3380,1,2,0:0:0:0:
237,364,3530,1,2,0:0:0:0:
61,326,3680,1,2,0:0:0:0:
126,246,3830,2,0,P|144:303|158:361,1,118.999993030548,2|0,0:0|0:0,0:0:0:0:
158,369,4730,1,0,0:0:0:0:
508,202,5330,6,0,P|464:215|414:222,1,76.4999955196382,6|0,3:3|0:0,0:0:0:0:
487,55,5630,2,0,P|474:97|465:150,1,76.4999955196382,4|8,0:3|0:3,0:0:0:0:
286,84,5930,2,0,B|314:110|324:129|324:129|355:131|394:147,1,114.749993279457,8|0,0:0|0:0,0:0:0:0:
385,145,6230,5,6,0:3:0:0:
359,295,6380,2,0,P|346:254|336:215,1,76.4999955196382,6|0,0:3|0:0,0:0:0:0:
209,306,6680,2,0,P|167:316|129:328,1,76.4999955196382,2|4,0:3|0:3,0:0:0:0:
288,330,6980,1,2,0:3:0:0:
242,160,7130,6,0,P|249:201|262:241,1,76.4999955196382,8|2,0:0|0:3,0:0:0:0:
65,118,7430,2,0,P|54:76|41:39,1,76.4999955196382,2|6,0:3|0:3,0:0:0:0:
83,258,7730,6,0,P|125:235|139:131,1,152.999991039276,6|4,0:3|0:3,0:0:0:0:
16,189,8180,1,8,0:3:0:0:
131,55,8330,2,0,P|172:66|209:78,1,76.4999955196382,8|0,0:0|0:0,0:0:0:0:
304,140,8630,5,6,0:3:0:0:
162,221,8780,2,0,B|197:222|229:248|229:248|259:240|286:240,1,114.749993279457,2|0,0:3|0:0,0:0:0:0:
135,384,9080,2,0,P|144:342|157:301,1,76.4999955196382,2|4,0:3|0:3,0:0:0:0:
297,346,9380,1,2,0:3:0:0:
297,346,9530,2,0,P|256:355|217:359,1,76.4999955196382,8|2,0:0|0:3,0:0:0:0:
83,277,9830,2,0,P|73:235|68:193,1,76.4999955196382,2|6,0:3|0:3,0:0:0:0:
374,225,10130,6,0,B|429:222|478:246|478:246|503:232|537:224,1,144.499998703003,6|4,0:3|0:3,0:0:0:0:
359,127,10580,1,8,0:3:0:0:
445,71,10730,2,0,P|456:106|466:146,1,72.2499993515015,8|0,0:0|0:0,0:0:0:0:
396,324,11030,5,0,3:3:0:0:
280,261,11180,1,4,0:3:0:0:
166,311,11330,2,0,L|145:383,1,72.2499993515015,2|0,0:0|0:0,0:0:0:0:
273,367,11630,5,4,0:3:0:0:
183,200,11780,1,8,0:3:0:0:
183,200,11855,1,8,0:3:0:0:
183,200,11930,2,0,P|170:164|161:126,1,72.2499993515015,8|0,0:0|0:0,0:0:0:0:
45,290,12230,2,0,P|74:267|108:248,1,72.2499993515015,2|4,0:3|0:3,0:0:0:0:
127,48,12530,6,0,P|89:77|96:186,1,144.499998703003,6|0,0:3|0:3,0:0:0:0:
320,82,12980,1,4,0:3:0:0:
262,177,13130,2,0,P|249:140|237:100,1,72.2499993515015,8|0,0:0|0:0,0:0:0:0:
402,92,13430,5,2,0:3:0:0:
214,28,13580,2,0,P|250:18|287:5,1,72.2499993515015,4|0,0:3|0:0,0:0:0:0:
414,181,13879,1,4,0:3:0:0:
414,181,14030,2,0,P|377:168|340:158,1,72.2499993515015,8|8,0:3|0:3,0:0:0:0:
96,271,14330,2,0,B|125:247|162:241|162:241|168:218|183:188,1,108.374999027252,8|0,0:0|0:0,0:0:0:0:
243,247,14630,2,0,L|263:174,1,72.2499993515015,2|0,0:3|0:0,0:0:0:0:
35,88,14930,6,0,L|14:16,1,72.2499993515015,6|0,0:3|0:0,0:0:0:0:
126,131,15230,1,4,0:3:0:0:
42,193,15380,1,4,0:3:0:0:
191,45,15530,2,0,P|155:32|120:25,1,72.2499993515015,8|0,0:0|0:0,0:0:0:0:
330,235,15830,6,0,P|366:247|406:257,1,72.2499993515015,2|4,0:3|0:3,0:0:0:0:
208,131,16130,2,0,B|219:171|250:197|250:197|243:220|242:249,1,108.374999027252
285,304,16430,1,4,0:3:0:0:
320,155,16580,1,8,0:3:0:0:
166,219,16730,2,0,P|201:228|239:234,1,72.2499993515015,8|8,0:0|0:3,0:0:0:0:
87,281,17030,2,0,P|50:290|17:306,1,72.2499993515015,2|4,0:3|0:3,0:0:0:0:
219,136,17330,6,0,P|257:77|232:-7,1,144.499998703003,6|2,0:3|0:3,0:0:0:0:
170,60,17780,1,8,0:3:0:0:
306,166,17930,2,0,P|343:159|379:147,1,72.2499993515015,8|0,0:0|0:0,0:0:0:0:
270,311,18230,2,0,P|263:348|250:380,1,72.2499993515015,2|4,0:3|0:3,0:0:0:0:
336,250,18530,5,0,0:0:0:0:
219,145,18680,1,4,0:3:0:0:
165,207,18830,1,8,0:3:0:0:
270,311,18980,1,8,0:3:0:0:
437,80,19130,6,0,P|399:74|365:62,1,72.2499993515015,8|0,0:0|0:0,0:0:0:0:
450,196,19430,2,0,P|440:233|424:264,1,72.2499993515015,2|4,0:3|0:3,0:0:0:0:
191,339,19730,2,0,B|155:337|117:318|117:318|73:320|44:357,1,144.499998703003,6|4,0:3|0:3,0:0:0:0:
266,279,20180,1,4,0:3:0:0:
199,172,20330,2,0,P|192:209|180:242,1,72.2499993515015,8|0,0:0|0:0,0:0:0:0:
361,177,20630,6,0,P|324:187|285:194,1,72.2499993515015,2|4,0:3|0:3,0:0:0:0:
390,374,20930,2,0,P|371:327|436:241,1,144.499998703003,0|4,0:0|0:3,0:0:0:0:
511,236,21380,1,8,0:3:0:0:
472,90,21530,2,0,P|464:126|452:164,1,72.2499993515015,8|0,0:0|0:0,0:0:0:0:
332,294,21830,2,0,P|294:286|256:280,1,72.2499993515015,2|4,0:3|0:3,0:0:0:0:
272,87,22130,6,0,P|278:166|341:205,1,144.499998703003,6|2,0:3|0:3,0:0:0:0:
377,130,22580,1,4,0:3:0:0:
165,287,22730,2,0,B|115:257|60:253|60:253|49:232|35:219,1,144.499998703003,8|2,0:0|0:3,0:0:0:0:
205,199,23180,1,4,0:3:0:0:
148,107,23330,2,0,P|132:137|117:177,1,72.2499993515015,0|4,0:0|0:3,0:0:0:0:
403,240,23630,2,0,P|433:247|476:256,1,72.2499993515015,4|8,0:3|0:3,0:0:0:0:
211,379,23930,5,10,0:0:0:0:
284,71,24230,1,2,0:3:0:0:
13,137,24530,2,0,P|21:174|33:207,1,72.2499993515015,6|0,0:3|0:0,0:0:0:0:
150,91,24830,5,4,0:3:0:0:
150,91,24980,1,4,0:3:0:0:
150,91,25130,2,0,P|112:82|80:73,1,72.2499993515015,8|0,0:0|0:0,0:0:0:0:
0,46,25430,1,2,0:3:0:0:
118,177,25580,2,0,B|148:179|180:205|180:205|210:197|236:197,1,108.374999027252,4|0,0:3|0:0,0:0:0:0:
300,272,25880,2,0,P|263:284|226:292,1,72.2499993515015,4|4,0:3|0:3,0:0:0:0:
383,161,26180,5,8,0:3:0:0:
251,40,26330,2,0,P|238:75|231:111,1,72.2499993515015,8|8,0:0|0:3,0:0:0:0:
303,188,26630,2,0,P|304:149|311:112,1,72.2499993515015,2|4,0:3|0:3,0:0:0:0:
138,281,26930,6,0,B|87:280|45:300|45:300|23:288|-2:282,1,144.499998703003,6|2,0:3|0:3,0:0:0:0:
102,374,27380,1,4,0:3:0:0:
41,204,27530,2,0,P|31:162|26:120,1,72.2499993515015,8|0,0:0|0:0,0:0:0:0:
235,253,27830,1,2,0:3:0:0:
133,275,27980,2,0,P|139:238|151:200,1,72.2499993515015,4|0,0:3|0:0,0:0:0:0:
181,114,28280,2,0,P|143:123|108:128,1,72.2499993515015,6|4,0:3|0:3,0:0:0:0:
385,161,28580,5,8,0:3:0:0:
313,199,28730,2,0,L|239:176,1,72.2499993515015,10|8,0:0|0:3,0:0:0:0:
490,255,29030,2,0,L|418:234,1,72.2499993515015,2|0,0:3|0:0,0:0:0:0:
232,173,29255,5,2,0:0:0:0:
219,169,29330,2,0,B|184:164|156:152|156:152|91:171|91:171|57:156|18:152,1,203.999988052369,6|8,0:3|0:0,0:0:0:0:
20,159,30230,6,0,L|35:215,1,50.9999970130922,2|4,0:3|0:3,0:0:0:0:
80,98,30530,2,0,L|106:0,1,84.9999976158143,0|4,0:0|0:3,0:0:0:0:
96,17,30980,1,8,0:3:0:0:
91,19,31130,2,0,L|34:34,1,50.9999970130922,8|0,0:0|0:0,0:0:0:0:
165,63,31430,2,0,L|221:78,1,50.9999970130922,2|4,0:3|0:3,0:0:0:0:
277,138,31730,6,0,B|286:117|312:99|312:99|300:77|293:40,1,101.999994026184,6|2,0:3|0:3,0:0:0:0:
360,0,32180,1,8,0:3:0:0:
360,0,32330,2,0,P|367:24|372:49,1,50.9999970130922,10|0,0:0|0:0,0:0:0:0:
213,74,32630,6,0,B|196:68|164:65|164:65|159:39|148:16,1,101.999994026184,2|0,0:3|0:0,0:0:0:0:
220,203,33080,1,4,0:3:0:0:
220,203,33230,2,0,B|209:179|204:154|204:154|181:152|144:141,1,101.999994026184,6|8,0:3|0:0,0:0:0:0:
71,51,33680,1,8,0:3:0:0:
71,51,33830,2,0,B|83:101|83:101,1,50.9999970130922,2|4,0:3|0:3,0:0:0:0:
15,229,34055,5,2,0:0:0:0:
27,226,34130,2,0,B|60:222|90:209|90:209|155:228|155:228|190:212|224:211,1,203.999988052369,6|8,0:3|0:0,0:0:0:0:
221,221,35030,6,0,B|206:283|206:283,1,59.4999965152742,2|4,0:3|0:3,0:0:0:0:
84,294,35330,2,0,L|149:316,1,59.4999965152742,0|4,0:0|0:3,0:0:0:0:
251,349,35630,1,4,0:3:0:0:
251,349,35780,2,0,L|368:388,1,101.999994026184
344,373,36230,2,0,B|327:302,1,59.4999965152742,2|4,0:3|0:3,0:0:0:0:
305,223,36530,6,0,L|339:91,1,118.999993030548,4|2,0:3|0:3,0:0:0:0:
338,100,36980,1,8,0:3:0:0:
341,91,37130,2,0,L|277:109,1,59.4999965152742,10|0,0:0|0:0,0:0:0:0:
240,175,37430,1,2,0:3:0:0:
240,175,37580,2,0,L|159:152,1,59.4999965152742,4|0,0:3|0:0,0:0:0:0:
107,153,37880,1,8,0:3:0:0:
107,153,38030,2,0,L|26:175,1,59.4999965152742,6|8,0:3|0:3,0:0:0:0:
111,313,38330,5,8,0:0:0:0:
123,309,38480,1,4,0:3:0:0:
134,290,38630,1,2,0:3:0:0:
140,261,38780,1,4,0:3:0:0:
133,228,38930,6,0,P|96:237|52:252,1,67.9999980926514,6|0,0:3|0:0,0:0:0:0:
202,316,39230,2,0,P|238:306|282:291,1,67.9999980926514,4|8,0:3|0:3,0:0:0:0:
197,159,39530,6,0,P|186:127|178:93,1,67.9999980926514,8|0,0:0|0:0,0:0:0:0:
327,238,39830,2,0,P|295:223|263:213,1,67.9999980926514,2|4,0:3|0:3,0:0:0:0:
67,246,40130,2,0,P|93:221|89:121,1,135.999996185303,4|4,0:3|0:3,0:0:0:0:
20,172,40580,5,4,0:3:0:0:
130,303,40730,2,0,P|164:315|198:324,1,67.9999980926514,8|0,0:0|0:0,0:0:0:0:
184,234,41030,2,0,P|186:200|192:166,1,67.9999980926514,2|4,0:3|0:3,0:0:0:0:
401,334,41330,6,0,B|360:334|328:362|328:362|297:354|270:354,1,135.999996185303,6|0,0:3|0:0,0:0:0:0:
370,208,41780,1,8,0:3:0:0:
287,207,41930,2,0,P|295:239|307:271,1,67.9999980926514,8|0,0:0|0:0,0:0:0:0:
191,87,42230,2,0,P|182:54|169:21,1,59.4999965152742,2|4,0:3|0:3,0:0:0:0:
376,130,42530,2,0,B|354:132|335:140|335:140|303:120|256:126,1,118.999993030548,4|4,0:3|0:3,0:0:0:0:
91,275,42980,1,8,0:3:0:0:
166,233,43130,2,0,P|175:195|189:158,1,67.9999980926514,8|0,0:0|0:0,0:0:0:0:
39,46,43430,6,0,P|16:64|12:162,1,101.999997138977,2|0,0:3|0:0,0:0:0:0:
3,139,43730,2,0,P|39:147|83:160,1,76.4999955196382,6|0,0:3|0:0,0:0:0:0:
325,268,44030,5,4,0:3:0:0:
233,336,44180,1,8,0:3:0:0:
177,235,44330,2,0,P|213:226|257:213,1,76.4999955196382,8|0,0:0|0:0,0:0:0:0:
420,168,44630,5,0,3:0:0:0:
262,129,44780,1,4,0:3:0:0:
351,107,44930,2,0,P|340:143|331:180,1,76.4999955196382,0|0,0:0|3:0,0:0:0:0:
151,316,45230,2,0,P|161:279|170:242,1,76.4999955196382,4|8,0:3|0:3,0:0:0:0:
326,346,45530,6,0,P|280:324|257:227,1,152.999991039276,8|2,0:0|0:3,0:0:0:0:
331,195,45980,1,4,0:3:0:0:
178,93,46130,2,0,L|199:166,1,76.4999955196382,6|0,0:3|0:0,0:0:0:0:
372,272,46430,2,0,P|408:285|446:294,1,76.4999955196382,8|8,0:3|0:3,0:0:0:0:
508,235,46730,5,8,0:0:0:0:
477,374,46880,1,8,0:3:0:0:
363,267,47030,2,0,P|405:231|435:197,1,84.9999976158143,2|4,0:3|0:3,0:0:0:0:
167,31,47330,5,8,0:1:0:0:
306,0,47480,1,8,0:1:0:0:
270,146,47630,1,8,0:1:0:0:
250,67,47780,1,8,0:3:0:0:
409,99,47930,5,8,1:0:0:0:
257,317,48080,1,10,0:0:0:0:
506,225,48230,1,8,0:1:0:0:
257,150,48380,1,10,1:3:0:0:
396,365,48530,2,0,P|381:307|377:222,1,127.499996423721,6|0,0:0|0:0,0:0:0:0:
430,172,48830,6,0,P|391:152|326:167,1,84.9999976158143,10|6,0:3|0:3,0:0:0:0:
115,237,49130,5,10,0:0:0:0:
87,345,49280,1,0,0:0:0:0:
172,156,49430,5,10,0:3:0:0:
208,236,49580,1,6,0:3:0:0:
32,194,49730,6,0,P|71:164|104:131,1,84.9999976158143,0|8,0:0|0:3,0:0:0:0:
320,39,50030,2,0,P|289:74|200:79,1,127.499996423721,4|0,0:3|0:0,0:0:0:0:
137,67,50330,5,10,0:0:0:0:
303,260,50480,1,10,0:3:0:0:
152,332,50630,1,2,0:3:0:0:
170,165,50780,1,10,0:3:0:0:
202,250,50930,6,0,P|148:248|69:274,1,127.499996423721,14|0,0:0|0:0,0:0:0:0:
38,340,51230,2,0,P|8:309|0:254,1,84.9999976158143,2|6,0:3|0:3,0:0:0:0:
362,188,51530,2,0,B|410:187|452:207|452:207|473:195|502:188,1,127.499996423721,8|0,0:0|0:0,0:0:0:0:
493,192,51830,5,10,0:3:0:0:
388,282,51980,1,6,0:3:0:0:
447,114,52130,2,0,P|460:72|468:21,1,84.9999976158143,0|8,0:0|0:3,0:0:0:0:
173,170,52430,2,0,P|214:161|255:150,1,84.9999976158143,4|8,0:3|0:3,0:0:0:0:
352,78,52730,5,10,0:0:0:0:
287,249,52880,1,10,0:3:0:0:
104,229,53030,1,2,0:3:0:0:
195,62,53180,1,10,0:3:0:0:
58,59,53330,6,0,P|71:96|83:147,1,84.9999976158143,14|0,0:0|0:0,0:0:0:0:
70,335,53630,1,10,0:3:0:0:
12,185,53780,1,6,0:3:0:0:
5,279,53930,2,0,B|44:249|87:252|87:252|96:233|122:210,1,127.499996423721,8|0,0:0|0:0,0:0:0:0:
173,277,54230,2,0,P|214:266|254:252,1,84.9999976158143,10|6,0:3|0:3,0:0:0:0:
305,0,54530,6,0,P|297:39|283:89,1,84.9999976158143,2|8,0:3|0:3,0:0:0:0:
191,188,54830,2,0,P|198:146|210:105,1,84.9999976158143,6|8,0:3|0:3,0:0:0:0:
357,184,55130,2,0,P|315:177|275:165,1,84.9999976158143,8|8,0:0|0:3,0:0:0:0:
221,23,55430,1,6,0:3:0:0:
398,97,55580,1,8,0:3:0:0:
238,248,55730,2,0,P|191:218|108:231,1,127.499996423721,14|0,0:0|0:0,0:0:0:0:
77,298,56030,5,2,0:3:0:0:
323,277,56180,1,6,0:3:0:0:
139,378,56330,2,0,P|153:332|163:285,1,84.9999976158143,8|0,0:0|0:0,0:0:0:0:
195,126,56630,5,10,0:3:0:0:
37,195,56780,1,6,0:3:0:0:
226,371,56930,5,0,0:0:0:0:
138,213,57080,1,8,0:3:0:0:
320,111,57230,2,0,P|306:149|296:196,1,84.9999976158143,6|8,0:3|0:3,0:0:0:0:
73,27,57530,2,0,P|86:65|96:112,1,84.9999976158143,8|8,0:0|0:3,0:0:0:0:
161,306,57830,1,2,0:3:0:0:
207,126,57980,1,8,0:3:0:0:
232,365,58130,6,0,P|294:347|342:247,1,169.999995231629,14|8,2:0|2:3,2:0:0:0:
420,79,58580,5,4,0:3:0:0:
139,223,58730,2,0,B|90:247|68:283|68:283|45:273|18:270,1,127.499996423721,12|0,0:0|0:0,0:0:0:0:
154,307,59030,5,10,0:3:0:0:
17,175,59180,1,6,0:3:0:0:
242,133,59330,2,0,P|230:170|219:219,1,84.9999976158143,0|8,0:0|0:3,0:0:0:0:
66,57,59630,6,0,P|88:107|167:136,1,127.499996423721,6|0,0:3|0:0,0:0:0:0:
321,99,59930,2,0,P|358:87|407:76,1,84.9999976158143,8|8,0:0|0:3,0:0:0:0:
219,48,60230,5,6,0:3:0:0:
282,302,60380,1,8,0:3:0:0:
282,302,60455,1,8,0:3:0:0:
282,302,60530,2,0,L|304:388,1,84.9999976158143,14|0,0:0|0:0,0:0:0:0:
123,242,60830,5,0,0:0:0:0:
304,182,60980,1,4,0:3:0:0:
47,46,61130,2,0,P|35:83|24:132,1,84.9999976158143,8|0,0:0|0:0,0:0:0:0:
192,317,61430,5,8,0:3:0:0:
347,264,61580,1,6,0:3:0:0:
100,161,61730,1,0,0:0:0:0:
278,311,61880,1,8,0:3:0:0:
343,68,62030,2,0,P|303:83|263:96,1,84.9999976158143,6|8,0:3|0:3,0:0:0:0:
181,76,62330,5,8,0:0:0:0:
181,76,62480,1,8,0:3:0:0:
276,224,62630,1,2,0:3:0:0:
421,114,62780,1,8,0:3:0:0:
197,169,62930,6,0,B|152:169|116:144|116:144|64:146|27:197,1,169.999995231629,14|8,0:0|0:3,0:0:0:0:
263,223,63380,1,4,0:3:0:0:
157,0,63530,2,0,P|169:37|181:86,1,84.9999976158143,8|0,0:0|0:0,0:0:0:0:
185,246,63830,6,0,P|170:286|162:328,1,84.9999976158143,10|4,0:3|0:3,0:0:0:0:
21,312,64130,2,0,P|79:287|102:230,1,127.499996423721,2|0,0:3|0:0,0:0:0:0:
39,180,64430,2,0,P|26:142|14:93,1,84.9999976158143,6|8,0:3|0:3,0:0:0:0:
246,308,64730,2,0,P|287:297|327:284,1,84.9999976158143,10|8,0:0|0:3,0:0:0:0:
166,168,65030,6,0,P|157:140|149:119,1,42.4999988079071,2|0,0:3|0:0,0:0:0:0:
319,132,65180,2,0,P|326:151|333:181,1,42.4999988079071,8|0,0:3|0:0,0:0:0:0:
262,221,65330,2,0,P|251:178|200:34,1,169.999995231629,14|2,0:0|0:3,0:0:0:0:
132,43,65780,1,6,0:3:0:0:
167,320,65930,5,8,0:0:0:0:
401,118,66080,1,8,0:0:0:0:
75,103,66230,1,4,0:3:0:0:
176,196,66380,1,4,0:3:0:0:
59,287,66530,2,0,P|71:246|78:204,1,84.9999976158143,0|4,0:0|0:3,0:0:0:0:
329,56,66830,2,0,P|316:96|309:138,1,84.9999976158143,8|8,0:0|0:3,0:0:0:0:
278,286,67130,5,10,0:0:0:0:
184,203,67280,1,10,0:3:0:0:
386,259,67430,1,2,0:3:0:0:
160,315,67580,1,10,0:3:0:0:
354,372,67730,2,0,P|391:346|480:357,1,114.749993279457,6|0,0:0|0:0,0:0:0:0:
464,338,68030,6,0,P|476:293|484:249,1,76.4999955196382,10|6,0:3|0:3,0:0:0:0:
308,168,68330,2,0,P|345:160|382:150,1,76.4999955196382,8|0,0:0|0:0,0:0:0:0:
461,180,68630,5,10,0:3:0:0:
269,23,68780,1,6,0:3:0:0:
358,3,68930,2,0,P|350:40|340:77,1,76.4999955196382,0|8,0:0|0:3,0:0:0:0:
150,219,69230,2,0,P|139:255|132:293,1,76.4999955196382,4|8,0:3|0:3,0:0:0:0:
227,99,69530,5,10,0:0:0:0:
47,184,69680,1,10,0:3:0:0:
223,311,69830,1,2,0:3:0:0:
124,116,69980,1,10,0:3:0:0:
360,192,70130,6,0,P|420:167|455:62,1,169.999995231629,14|0,0:0|3:3,0:0:0:0:
223,311,70580,1,4,0:3:0:0:
299,367,70730,2,0,P|310:324|317:283,1,84.9999976158143,8|0,0:0|0:0,0:0:0:0:
253,96,71030,5,10,0:3:0:0:
141,254,71180,2,0,P|99:263|58:274,1,84.9999976158143,6|0,0:3|0:0,0:0:0:0:
216,312,71480,5,8,0:3:0:0:
66,162,71630,1,6,0:3:0:0:
262,95,71780,1,8,0:3:0:0:
123,340,71930,5,8,0:0:0:0:
156,174,72080,1,8,0:3:0:0:
322,157,72230,2,0,P|363:167|404:176,1,84.9999976158143,2|8,0:3|0:3,0:0:0:0:
87,19,72530,2,0,P|45:8|4:0,1,84.9999976158143,14|0,0:0|0:0,0:0:0:0:
231,233,72830,5,10,0:3:0:0:
63,180,72980,1,6,0:3:0:0:
183,87,73130,2,0,L|160:168,1,84.9999976158143,8|0,0:0|0:0,0:0:0:0:
340,336,73430,6,0,P|327:295|322:242,1,84.9999976158143,10|6,0:3|0:3,0:0:0:0:
325,0,73730,2,0,B|277:-1|235:19|235:19|214:7|185:0,1,127.499996423721
191,5,74030,1,4,0:3:0:0:
376,65,74180,1,8,0:3:0:0:
317,169,74330,2,0,P|303:129|294:87,1,84.9999976158143,10|8,0:0|0:3,0:0:0:0:
390,202,74630,6,0,L|431:213,1,42.4999988079071,2|0,0:3|0:0,0:0:0:0:
248,214,74780,2,0,L|206:202,1,42.4999988079071,10|0,0:3|0:0,0:0:0:0:
396,380,74930,6,0,P|341:351|324:243,1,169.999995231629,14|2,0:0|0:3,0:0:0:0:
480,376,75380,1,4,0:3:0:0:
487,275,75530,2,0,P|446:289|405:299,1,84.9999976158143,8|0,0:0|0:0,0:0:0:0:
155,285,75830,5,8,0:3:0:0:
234,323,75980,2,0,P|274:336|315:346,1,84.9999976158143,4|0,0:3|0:0,0:0:0:0:
409,207,76280,5,8,0:3:0:0:
296,167,76430,2,0,P|313:207|323:248,1,84.9999976158143,6|8,0:3|0:3,0:0:0:0:
160,371,76730,5,8,0:0:0:0:
400,301,76880,1,8,0:3:0:0:
167,163,77030,1,2,0:3:0:0:
315,346,77180,1,8,0:3:0:0:
128,286,77330,6,0,B|117:287|96:299|96:299|54:279|6:280,1,127.499996423721,14|0,0:0|0:0,0:0:0:0:
1,289,77630,1,10,3:3:0:0:
206,236,77780,1,6,0:3:0:0:
66,121,77930,2,0,P|78:159|92:218,1,84.9999976158143,10|0,0:0|0:0,0:0:0:0:
371,117,78230,6,0,B|328:111|290:135|290:135|260:104|210:100,1,169.999995231629,10|0,0:3|0:0,0:0:0:0:
435,50,78680,1,8,0:3:0:0:
366,286,78830,2,0,P|353:245|342:195,1,84.9999976158143,6|8,0:3|0:3,0:0:0:0:
127,285,79130,2,0,P|85:294|44:307,1,84.9999976158143,8|8,0:0|0:3,0:0:0:0:
222,354,79430,5,6,0:3:0:0:
165,167,79580,1,8,0:3:0:0:
351,207,79730,2,0,B|393:207|432:183|432:183|483:185|505:218,1,169.999995231629,14|2,0:0|0:3,0:0:0:0:
267,155,80180,1,4,0:3:0:0:
335,36,80330,2,0,B|344:77|356:118,1,84.9999976158143,10|0,0:0|0:0,0:0:0:0:
259,281,80630,6,0,L|267:240,1,42.4999988079071,10|0,0:3|0:0,0:0:0:0:
434,174,80780,2,0,B|442:132|443:86,1,84.9999976158143,6|0,0:3|0:0,0:0:0:0:
257,9,81080,6,0,L|249:50,1,42.4999988079071,8|0,0:3|0:0,0:0:0:0:
350,215,81230,2,0,B|344:257|336:298,1,84.9999976158143,6|8,0:3|0:3,0:0:0:0:
92,259,81530,5,8,0:0:0:0:
263,153,81680,1,8,0:3:0:0:
256,362,81830,1,2,0:3:0:0:
153,136,81980,1,8,0:3:0:0:
159,345,82130,2,0,P|179:283|196:209,1,127.499996423721,12|0,0:0|0:0,0:0:0:0:
198,214,82430,5,10,0:3:0:0:
59,148,82580,1,6,0:3:0:0:
92,58,82730,2,0,P|133:46|174:40,1,84.9999976158143,8|0,0:0|0:0,0:0:0:0:
429,234,83030,5,10,0:3:0:0:
429,234,83180,2,0,B|399:239|373:254|373:254|318:243|318:243|296:255|268:262,1,169.999995231629,6|8,0:3|0:3,0:0:0:0:
454,320,83630,1,4,0:3:0:0:
371,143,83780,1,8,0:3:0:0:
512,92,83930,2,0,P|491:128|469:178,1,84.9999976158143,10|8,0:0|0:3,0:0:0:0:
369,371,84230,2,0,P|355:333|360:273,1,84.9999976158143,2|8,0:3|0:3,0:0:0:0:
505,0,84530,2,0,B|457:0|427:38|427:38|392:36|392:36|342:63,1,169.999995231629,14|2,0:0|0:3,0:0:0:0:
172,140,84980,5,4,0:3:0:0:
363,158,85130,1,10,0:0:0:0:
124,320,85280,1,8,0:3:0:0:
73,45,85430,1,6,0:3:0:0:
283,247,85580,2,0,B|240:241|202:265|202:265|172:234|122:230,1,169.999995231629,6|8,0:3|0:3,0:0:0:0:
258,155,86030,5,6,0:3:0:0:
179,41,86180,1,10,0:3:0:0:
0,272,86330,1,8,0:0:0:0:
175,149,86480,5,6,0:3:0:0:
44,189,86630,1,6,0:3:0:0:
148,306,86780,1,6,0:3:0:0:
70,32,86930,1,6,0:3:0:0:
256,192,87080,12,0,89330,0:0:0:0:
