osu file format v14

[General]
AudioFilename: Mikuni Shimokawa - Sore ga, Ai deshou.mp3
AudioLeadIn: 0
PreviewTime: 47630
Countdown: 0
SampleSet: Soft
StackLeniency: 0.4
Mode: 0
LetterboxInBreaks: 0
WidescreenStoryboard: 0

[Editor]
Bookmarks: 530,5330,10130,14930,19730,24530,29330,34130,38930,43730,48530,53330,58130,62930,67730,72530,77330,82130,86930,89330
DistanceSpacing: 1.5
BeatDivisor: 8
GridSize: 16
TimelineZoom: 1.9

[Metadata]
Title:Sore ga, Ai deshou
TitleUnicode:それが、愛でしょう
Artist:Mikuni Shimokawa
ArtistUnicode:下川みくに
Creator:Kencho
Version:Hard
Source:フルメタル・パニック? ふもっふ
Tags:Full Metal Panic Fumoffu FMP TV Size Sin opening Pata-Mon Sadism-Bread __Ag
BeatmapID:1026538
BeatmapSetID:295946

[Difficulty]
HPDrainRate:5
CircleSize:3.7
OverallDifficulty:6
ApproachRate:8
SliderMultiplier:2.8
SliderTickRate:2

[Events]
//Background and Video events
Video,-420,"video.avi"
0,0,"BG.jpg",0,0
//Break Periods
//Storyboard Layer 0 (Background)
//Storyboard Layer 1 (Fail)
//Storyboard Layer 2 (Pass)
//Storyboard Layer 3 (Foreground)
//Storyboard Sound Samples

[TimingPoints]
530,600,4,2,1,50,1,0
530,-133.333333333333,4,2,1,50,0,0
5330,-100,4,2,1,60,0,0
10130,-100,4,2,1,70,0,0
19730,-100,4,2,1,65,0,0
29330,-133.333333333333,4,2,1,50,0,0
38930,-133.333333333333,4,2,1,60,0,0
43730,-113.636363636364,4,2,1,70,0,0
46130,-100,4,2,1,80,0,0
47330,-100,4,2,1,85,0,0
47480,-100,4,2,1,90,0,0
47630,-100,4,2,1,95,0,0
48530,-100,4,2,1,90,0,1
67580,-100,4,2,1,90,0,0
67730,-100,4,2,1,90,0,1
86930,-100,4,2,1,70,0,0

[Colours]
Combo1 : 255,128,192
Combo2 : 224,176,32
Combo3 : 64,192,64
Combo4 : 255,255,128

[HitObjects]
176,159,530,6,0,P|226:174|276:162,1,105.000004005432,0|0,3:0|0:0,0:0:0:0:
338,112,980,1,0,0:0:0:0:
338,112,1130,2,0,L|334:216,1,105.000004005432,0|0,3:0|3:0,0:0:0:0:
491,196,1730,6,0,L|492:143,2,52.5000020027161,0|0|0,3:0|0:0|0:0,0:0:0:0:
382,310,2330,2,0,P|331:322|281:307,1,105.000004005432,0|0,3:0|0:0,0:0:0:0:
181,184,2930,6,0,L|177:80,1,105.000004005432,0|0,3:0|0:0,0:0:0:0:
239,129,3380,1,0,0:0:0:0:
239,129,3530,2,0,P|289:141|339:126,1,105.000004005432,0|0,3:0|3:0,0:0:0:0:
471,40,4130,6,0,L|472:92,2,52.5000020027161,0|0|0,3:0|0:0|0:0,0:0:0:0:
410,185,4730,2,0,L|414:289,1,105.000004005432,0|0,3:0|0:0,0:0:0:0:
245,360,5330,6,0,P|176:369|113:340,1,140,6|0,0:0|0:0,0:0:0:0:
70,259,5780,1,2,0:0:0:0:
70,259,5930,2,0,P|103:248|137:251,1,70,8|0,0:0|0:0,0:0:0:0:
223,281,6230,1,0,0:0:0:0:
309,251,6380,2,0,P|343:248|376:258,1,70,4|0,0:3|0:0,0:0:0:0:
456,303,6680,6,0,P|466:269|463:235,2,70,0|2|0,3:0|0:0|0:0,0:0:0:0:
377,350,7130,2,0,L|237:344,1,140,8|2,3:0|0:0,0:0:0:0:
210,257,7580,1,0,0:0:0:0:
149,325,7730,6,0,P|86:349|23:321,1,140,2|0,0:0|0:0,0:0:0:0:
86,189,8180,1,2,0:0:0:0:
86,189,8330,2,0,P|95:222|89:257,1,70,8|0,0:0|0:0,0:0:0:0:
2,227,8630,1,2,0:0:0:0:
47,114,8780,6,0,L|116:111,1,70,4|0,0:3|0:0,0:0:0:0:
194,158,9080,2,0,L|263:155,2,70,0|2|0,3:0|0:0|0:0,0:0:0:0:
161,243,9530,2,0,L|300:237,1,140,8|2,3:0|0:0,0:0:0:0:
365,66,10130,6,0,L|226:72,1,140,6|0,0:0|0:0,0:0:0:0:
139,42,10580,1,2,0:0:0:0:
139,42,10730,2,0,P|133:76|142:109,1,70,8|0,0:0|0:0,0:0:0:0:
216,163,11030,2,0,P|225:196|219:230,1,70,0|4,3:0|0:3,0:0:0:0:
153,294,11330,6,0,B|189:276|189:276|241:286|267:333,1,140,0|2,0:0|0:0,0:0:0:0:
186,374,11780,1,0,0:0:0:0:
96,360,11930,2,0,P|67:297|91:233,1,140,8|2,0:0|0:0,0:0:0:0:
149,164,12380,1,0,0:0:0:0:
237,140,12530,6,0,L|306:137,1,70,2|0,0:0|0:0,0:0:0:0:
397,122,12830,1,0,3:0:0:0:
365,207,12980,1,2,3:0:0:0:
455,192,13130,2,0,P|458:261|443:329,1,140,8|0,0:0|3:0,0:0:0:0:
358,295,13580,1,4,0:3:0:0:
286,351,13730,6,0,L|217:354,1,70,0|2,0:0|0:0,0:0:0:0:
161,282,14030,2,0,L|92:285,1,70,2|0,0:0|0:0,0:0:0:0:
28,351,14330,2,0,P|1:289|23:224,1,140,8|2,0:0|0:0,0:0:0:0:
142,87,14930,6,0,L|282:81,1,140,2|0,0:0|0:0,0:0:0:0:
368,52,15380,1,2,0:0:0:0:
368,52,15530,2,0,L|365:121,1,70,8|0,0:0|0:0,0:0:0:0:
305,190,15830,2,0,L|308:259,1,70,0|4,3:0|0:3,0:0:0:0:
375,321,16130,6,0,P|312:348|247:326,1,140,0|2,0:0|0:0,0:0:0:0:
179,266,16580,1,0,0:0:0:0:
98,308,16730,2,0,L|95:377,1,70,8|0,0:0|0:0,0:0:0:0:
29,247,17030,2,0,L|32:178,1,70,2|0,0:0|0:0,0:0:0:0:
88,104,17330,6,0,P|122:101|157:106,1,70,2|0,0:0|0:0,0:0:0:0:
197,189,17630,1,0,3:0:0:0:
248,114,17780,1,2,3:0:0:0:
288,196,17930,2,0,B|327:210|327:210|425:205,1,140,8|0,0:0|3:0,0:0:0:0:
459,90,18380,1,4,0:3:0:0:
373,60,18530,6,0,P|367:94|376:127,1,70,0|2,0:0|0:0,0:0:0:0:
429,273,18830,2,0,P|434:238|425:205,1,70,2|0,0:0|0:0,0:0:0:0:
334,209,19130,2,0,L|195:215,1,140,8|2,0:0|0:0,0:0:0:0:
84,69,19730,6,0,L|223:63,1,140,6|0,0:0|0:0,0:0:0:0:
304,20,20180,1,2,0:0:0:0:
304,20,20330,2,0,L|373:17,1,70,8|0,0:0|0:0,0:0:0:0:
417,96,20630,2,0,L|348:99,1,70,0|4,3:0|0:3,0:0:0:0:
267,141,20930,6,0,P|242:205|274:264,1,140,0|2,0:0|0:0,0:0:0:0:
360,293,21380,1,0,0:0:0:0:
293,355,21530,2,0,B|225:375|225:337|156:355,1,140,8|2,0:0|0:0,0:0:0:0:
65,371,21980,1,0,0:0:0:0:
22,291,22130,6,0,P|12:257|18:223,1,70,2|0,0:0|0:0,0:0:0:0:
88,164,22430,1,0,3:0:0:0:
105,253,22580,1,2,3:0:0:0:
174,194,22730,2,0,P|179:159|170:126,1,70,8|0,0:0|0:0,0:0:0:0:
85,96,23030,2,0,P|79:130|88:163,1,70,0|4,3:0|0:3,0:0:0:0:
191,283,23330,6,0,B|225:293|225:293|269:261|324:283,1,140,0|2,0:0|0:0,0:0:0:0:
400,332,23780,2,0,P|413:299|412:265,2,70,0|8|0,0:0|0:0|0:0,0:0:0:0:
316,370,24230,1,2,0:0:0:0:
316,370,24530,6,0,L|310:231,1,140,2|0,3:0|0:0,0:0:0:0:
340,144,24980,1,2,0:0:0:0:
340,144,25130,2,0,P|305:138|272:147,1,70,8|0,0:0|0:0,0:0:0:0:
202,205,25430,1,0,3:0:0:0:
116,175,25580,6,0,L|47:172,1,70,4|0,0:3|0:0,0:0:0:0:
202,205,25880,1,0,0:0:0:0:
133,264,26030,2,0,L|64:261,1,70,2|0,0:0|0:0,0:0:0:0:
219,294,26330,2,0,L|359:288,1,140,8|2,0:0|0:0,0:0:0:0:
423,222,26780,1,0,0:0:0:0:
355,162,26930,6,0,P|331:225|359:288,1,140,2|0,3:0|0:0,0:0:0:0:
447,310,27380,1,2,0:0:0:0:
447,310,27530,2,0,P|380:320|339:376,1,140,8|0,0:0|3:0,0:0:0:0:
258,336,27980,1,4,0:3:0:0:
175,374,28130,6,0,P|140:380|107:371,1,70,0|2,0:0|0:0,0:0:0:0:
114,280,28430,2,0,P|149:274|182:283,1,70,2|0,0:0|0:0,0:0:0:0:
32,320,28730,2,0,P|25:252|69:200,1,140,8|0,0:0|0:0,0:0:0:0:
247,159,29330,6,0,P|314:224|375:153,1,210.000008010865,2|8,0:0|0:0,0:0:0:0:
375,152,30230,2,0,L|427:150,1,52.5000020027161,0|0,0:0|0:0,0:0:0:0:
484,95,30530,6,0,L|488:199,1,105.000004005432,0|0,0:0|0:0,0:0:0:0:
490,279,30980,1,0,0:0:0:0:
490,279,31130,2,0,L|386:283,1,105.000004005432,8|0,0:0|0:0,0:0:0:0:
239,222,31730,6,0,L|235:118,1,105.000004005432,2|0,0:0|0:0,0:0:0:0:
233,38,32180,1,0,0:0:0:0:
233,38,32330,2,0,L|337:34,1,105.000004005432,8|0,3:0|3:0,0:0:0:0:
166,79,32930,6,0,P|116:91|70:68,2,105.000004005432,0|0|8,0:0|3:0|0:0,0:0:0:0:
233,38,33680,2,0,P|244:88|222:134,1,105.000004005432,0|0,3:0|0:0,0:0:0:0:
159,183,34130,6,0,P|253:182|246:276,1,210.000008010865,2|8,0:0|0:0,0:0:0:0:
247,275,35030,2,0,L|299:273,1,52.5000020027161,0|0,0:0|0:0,0:0:0:0:
328,347,35330,6,0,L|224:351,1,105.000004005432,0|0,0:0|0:0,0:0:0:0:
170,292,35780,1,0,0:0:0:0:
170,292,35930,2,0,P|175:240|211:204,1,105.000004005432,8|0,0:0|0:0,0:0:0:0:
356,142,36530,6,0,P|392:178|396:229,1,105.000004005432,2|0,0:0|0:0,0:0:0:0:
373,306,36980,1,0,0:0:0:0:
373,306,37130,2,0,L|321:308,1,52.5000020027161,8|0,3:0|0:0,0:0:0:0:
291,234,37430,2,0,L|395:230,1,105.000004005432,0|0,3:0|0:0,0:0:0:0:
450,289,37880,5,0,0:0:0:0:
450,289,38030,2,0,P|474:244|466:193,2,105.000004005432,0|8|0,3:0|0:0|0:0,0:0:0:0:
302,345,38930,6,0,L|198:341,2,105.000004005432,2|0|8,3:0|0:0|0:0,0:0:0:0:
302,345,39830,2,0,L|304:293,1,52.5000020027161,0|0,3:0|0:0,0:0:0:0:
355,231,40130,6,0,P|305:246|257:227,1,105.000004005432,0|0,0:0|0:0,0:0:0:0:
309,167,40580,1,0,0:0:0:0:
309,167,40730,2,0,P|358:151|406:170,1,105.000004005432,8|0,0:0|0:0,0:0:0:0:
230,152,41330,6,0,L|226:48,2,105.000004005432,2|0|8,3:0|0:0|0:0,0:0:0:0:
230,152,42230,2,0,L|178:154,1,52.5000020027161,0|0,3:0|0:0,0:0:0:0:
116,205,42530,6,0,P|131:155|112:107,1,105.000004005432,0|0,0:0|0:0,0:0:0:0:
52,159,42980,1,0,0:0:0:0:
52,159,43130,2,0,P|36:208|55:256,1,105.000004005432,8|0,0:0|0:0,0:0:0:0:
198,369,43730,6,0,P|224:314|224:253,1,123.200003759766,2|0,3:0|0:0,0:0:0:0:
112,107,44330,1,8,0:0:0:0:
224,253,44630,6,0,P|278:279|339:279,1,123.200003759766,2|0,3:0|0:0,0:0:0:0:
486,167,45230,1,2,0:0:0:0:
495,351,45530,6,0,L|371:346,1,123.200003759766,8|2,0:0|0:0,0:0:0:0:
380,94,46130,6,0,P|411:154|391:222,1,140,2|0,0:0|0:0,0:0:0:0:
322,164,46580,1,2,0:0:0:0:
380,94,46730,2,0,L|449:86,1,70,8|0,0:0|0:0,0:0:0:0:
462,213,47030,2,0,L|392:220,1,70,2|0,0:0|0:0,0:0:0:0:
262,233,47330,5,8,0:0:0:0:
322,164,47480,1,8,0:0:0:0:
331,293,47630,1,2,0:0:0:0:
331,293,47930,6,0,P|304:316|271:325,1,70,8|2,0:0|0:0,0:0:0:0:
187,261,48230,1,0,3:0:0:0:
174,365,48380,1,8,0:0:0:0:
90,302,48530,6,0,P|65:237|70:167,1,140,6|0,0:0|0:0,0:0:0:0:
161,174,48980,1,2,0:0:0:0:
161,174,49130,2,0,L|230:177,1,70,8|0,0:0|0:0,0:0:0:0:
337,97,49430,2,0,L|268:94,1,70,2|4,3:0|0:3,0:0:0:0:
399,164,49730,6,0,P|427:102|404:37,1,140,0|2,0:0|0:0,0:0:0:0:
318,8,50180,1,0,0:0:0:0:
318,8,50330,2,0,L|249:5,1,70,8|0,0:0|0:0,0:0:0:0:
181,67,50630,1,2,0:0:0:0:
103,19,50780,1,0,0:0:0:0:
36,80,50930,6,0,B|18:149|56:149|36:217,1,140,2|0,0:0|0:0,0:0:0:0:
0,301,51380,1,2,0:0:0:0:
0,301,51530,2,0,P|33:311|67:304,1,70,8|0,0:0|0:0,0:0:0:0:
202,245,51830,2,0,P|169:235|135:241,1,70,2|4,3:0|0:3,0:0:0:0:
250,323,52130,6,0,L|319:320,1,70,0|8,0:0|0:0,0:0:0:0:
411,315,52430,1,2,0:0:0:0:
447,137,52730,2,0,L|378:134,1,70,8|2,0:0|0:0,0:0:0:0:
327,210,53030,1,0,0:0:0:0:
286,129,53180,1,0,0:0:0:0:
236,205,53330,6,0,B|197:219|197:219|99:214,1,140,2|0,0:0|0:0,0:0:0:0:
7,210,53780,1,2,0:0:0:0:
7,210,53930,2,0,L|10:141,1,70,8|0,0:0|0:0,0:0:0:0:
49,291,54230,2,0,L|46:360,1,70,2|4,3:0|0:3,0:0:0:0:
131,328,54530,6,0,P|165:322|198:331,1,70,0|0,0:0|0:0,0:0:0:0:
332,265,54830,2,0,P|298:259|265:268,1,70,2|0,0:0|0:0,0:0:0:0:
394,331,55130,2,0,P|422:269|399:205,1,140,8|2,0:0|0:0,0:0:0:0:
275,70,55730,6,0,L|135:76,1,140,2|0,0:0|0:0,0:0:0:0:
66,16,56180,1,2,0:0:0:0:
66,16,56330,2,0,P|95:79|71:143,1,140,8|2,0:0|3:0,0:0:0:0:
3,82,56780,1,4,0:3:0:0:
0,173,56930,6,0,P|-1:207|7:241,1,70,0|8,0:0|0:0,0:0:0:0:
82,293,57230,2,0,L|151:290,1,70,2|0,0:0|0:0,0:0:0:0:
248,200,57530,2,0,L|179:203,2,70,8|2|0,0:0|0:0|0:0,0:0:0:0:
320,254,57980,1,8,0:0:0:0:
388,194,58130,6,0,L|248:200,1,140,2|0,0:0|0:0,0:0:0:0:
222,287,58580,1,2,0:0:0:0:
222,287,58730,2,0,L|82:293,1,140,8|2,0:0|3:0,0:0:0:0:
34,216,59180,1,4,0:3:0:0:
96,149,59330,6,0,P|116:177|123:211,1,70,0|0,0:0|0:0,0:0:0:0:
7,128,59630,2,0,P|45:71|111:57,2,140,2|8|2,0:0|0:0|0:0,0:0:0:0:
34,216,60380,1,0,0:0:0:0:
82,293,60530,6,0,B|150:313|150:275|219:293,1,140,2|0,0:0|0:0,0:0:0:0:
298,338,60980,1,2,0:0:0:0:
298,338,61130,2,0,L|367:335,1,70,8|0,0:0|0:0,0:0:0:0:
454,364,61430,2,0,P|460:330|451:297,1,70,2|4,3:0|0:3,0:0:0:0:
376,244,61730,5,0,0:0:0:0:
368,335,61880,1,8,0:0:0:0:
450,296,62030,2,0,P|467:229|431:171,1,140,2|8,0:0|0:0,0:0:0:0:
345,141,62480,1,2,0:0:0:0:
264,183,62630,2,0,L|195:180,1,70,0|0,0:0|0:0,0:0:0:0:
120,127,62930,6,0,P|155:185|139:251,1,140,2|0,0:0|0:0,0:0:0:0:
82,323,63380,1,2,0:0:0:0:
82,323,63530,2,0,P|113:338|148:343,1,70,8|0,0:0|0:0,0:0:0:0:
287,310,63830,2,0,P|256:294|221:289,1,70,2|4,3:0|0:3,0:0:0:0:
139,252,64130,6,0,L|142:183,1,70,0|0,0:0|0:0,0:0:0:0:
207,118,64430,2,0,L|204:49,1,70,2|0,0:0|0:0,0:0:0:0:
268,185,64730,2,0,P|204:209|141:181,1,140,8|2,0:0|0:0,0:0:0:0:
130,92,65180,1,0,0:0:0:0:
204,48,65330,6,0,P|237:41|272:45,1,70,2|0,3:0|0:0,0:0:0:0:
345,101,65630,2,0,P|379:105|413:98,1,70,0|0,0:0|0:0,0:0:0:0:
486,42,65930,1,8,0:0:0:0:
499,132,66080,1,2,0:0:0:0:
512,222,66230,2,0,L|442:225,1,70,2|0,3:0|0:0,0:0:0:0:
352,207,66530,6,0,P|408:243|413:311,1,140,0|2,0:0|0:0,0:0:0:0:
233,335,67130,2,0,L|163:332,1,70,8|2,0:0|0:0,0:0:0:0:
86,283,67430,1,8,0:0:0:0:
82,374,67580,1,8,0:0:0:0:
167,241,67730,6,0,B|187:173|149:173|167:104,1,140,6|0,0:0|0:0,0:0:0:0:
251,139,68180,1,2,0:0:0:0:
251,139,68330,2,0,P|285:144|318:133,1,70,8|0,0:0|0:0,0:0:0:0:
377,46,68630,2,0,P|355:73|347:107,1,70,2|4,3:0|0:3,0:0:0:0:
394,201,68930,6,0,P|381:168|355:145,1,70,0|0,0:0|0:0,0:0:0:0:
305,221,69230,1,2,0:0:0:0:
167,103,69530,2,0,L|97:106,1,70,8|0,0:0|0:0,0:0:0:0:
20,155,69830,1,2,0:0:0:0:
16,64,69980,1,0,0:0:0:0:
101,197,70130,6,0,L|241:191,1,140,2|0,0:0|0:0,0:0:0:0:
327,221,70580,1,2,0:0:0:0:
327,221,70730,2,0,P|332:186|323:153,1,70,8|0,0:0|0:0,0:0:0:0:
250,100,71030,1,2,3:0:0:0:
176,47,71180,6,0,L|316:41,1,140,4|8,0:3|0:0,0:0:0:0:
406,36,71630,2,0,P|431:61|445:93,1,70,2|0,0:0|0:0,0:0:0:0:
487,174,71930,2,0,P|452:183|418:179,1,70,8|2,0:0|0:0,0:0:0:0:
327,174,72230,2,0,P|336:140|356:112,1,70,0|0,0:0|0:0,0:0:0:0:
406,36,72530,6,0,P|349:74|284:56,1,140,2|0,0:0|0:0,0:0:0:0:
208,5,72980,1,2,0:0:0:0:
208,5,73130,2,0,P|194:37|194:71,1,70,8|0,0:0|0:0,0:0:0:0:
238,208,73430,2,0,P|252:176|252:142,1,70,2|4,3:0|0:3,0:0:0:0:
92,154,73730,6,0,L|162:157,1,70,0|0,0:0|0:0,0:0:0:0:
238,208,74030,2,0,B|336:213|336:213|375:199,1,140,2|8,0:0|0:0,0:0:0:0:
458,160,74480,1,0,0:0:0:0:
509,235,74630,2,0,P|512:269|504:303,1,70,2|0,0:0|0:0,0:0:0:0:
424,348,74930,6,0,P|367:310|302:328,1,140,2|0,0:0|0:0,0:0:0:0:
226,379,75380,1,2,3:0:0:0:
226,379,75530,2,0,P|212:347|212:313,1,70,8|0,0:0|0:0,0:0:0:0:
219,222,75830,1,2,0:0:0:0:
137,261,75980,6,0,B|98:275|98:275|0:270,1,140,4|8,0:3|0:0,0:0:0:0:
32,185,76430,2,0,L|102:188,1,70,2|0,0:0|0:0,0:0:0:0:
134,103,76730,2,0,L|64:100,1,70,8|2,3:0|0:0,0:0:0:0:
96,15,77030,2,0,L|166:18,1,70,0|8,0:0|0:0,0:0:0:0:
225,87,77330,6,0,B|264:101|264:101|362:96,1,140,2|0,0:0|0:0,0:0:0:0:
439,46,77780,1,2,0:0:0:0:
439,46,77930,2,0,P|464:110|453:178,1,140,8|2,0:0|3:0,0:0:0:0:
413,260,78380,1,4,0:3:0:0:
329,224,78530,6,0,P|295:218|262:227,1,70,0|0,0:0|0:0,0:0:0:0:
179,266,78830,2,0,P|169:232|175:198,1,70,2|0,0:0|0:0,0:0:0:0:
244,330,79130,2,0,P|181:358|117:334,1,140,8|2,0:0|0:0,0:0:0:0:
55,267,79580,1,0,0:0:0:0:
17,184,79730,6,0,P|12:114|28:46,1,140,2|0,0:0|0:0,0:0:0:0:
111,85,80180,1,2,0:0:0:0:
111,85,80330,2,0,P|145:91|178:82,1,70,8|0,0:0|0:0,0:0:0:0:
250,24,80630,1,2,3:0:0:0:
320,82,80780,6,0,B|388:102|388:64|457:82,1,140,4|8,0:3|0:0,0:0:0:0:
453,225,81230,2,0,P|429:199|422:165,1,70,2|0,0:0|0:0,0:0:0:0:
458,82,81530,1,8,0:0:0:0:
512,155,81680,1,2,0:0:0:0:
422,166,81830,2,0,L|352:163,1,70,0|0,0:0|0:0,0:0:0:0:
275,212,82130,6,0,L|135:206,1,140,2|0,0:0|0:0,0:0:0:0:
72,140,82580,1,2,0:0:0:0:
72,140,82730,2,0,P|43:203|67:267,1,140,8|2,0:0|3:0,0:0:0:0:
153,295,83180,1,4,0:3:0:0:
221,234,83330,6,0,L|224:165,1,70,0|0,0:0|0:0,0:0:0:0:
307,262,83630,2,0,L|304:331,1,70,2|0,0:0|0:0,0:0:0:0:
389,364,83930,2,0,P|418:301|394:237,1,140,8|2,0:0|0:0,0:0:0:0:
330,174,84380,1,0,0:0:0:0:
261,233,84530,6,0,B|193:253|193:215|124:233,1,140,2|0,0:0|0:0,0:0:0:0:
54,292,84980,1,2,0:0:0:0:
54,292,85130,2,0,P|37:263|34:228,1,70,8|2,0:0|0:0,0:0:0:0:
51,137,85430,1,2,3:0:0:0:
107,65,85580,6,0,P|171:41|233:70,1,140,4|0,0:3|0:0,0:0:0:0:
295,136,86030,1,2,0:0:0:0:
323,222,86180,2,0,P|290:228|256:218,1,70,0|8,0:0|0:0,0:0:0:0:
218,301,86480,2,0,P|284:321|352:309,1,140,0|8,0:0|0:0,0:0:0:0:
412,240,86930,5,2,0:0:0:0:
256,192,87005,12,0,89180,0:0:0:0:
