osu file format v14

[General]
AudioFilename: Mikuni Shimokawa - Sore ga, Ai deshou.mp3
AudioLeadIn: 0
PreviewTime: 47630
Countdown: 0
SampleSet: Soft
StackLeniency: 0.4
Mode: 0
LetterboxInBreaks: 0
WidescreenStoryboard: 0

[Editor]
Bookmarks: 530,5330,10130,14930,19730,24530,29330,34130,38930,43730,48530,53330,58130,62930,67730,72530,77330,82130,86930,89330
DistanceSpacing: 1.4
BeatDivisor: 8
GridSize: 16
TimelineZoom: 1.9

[Metadata]
Title:Sore ga, Ai deshou
TitleUnicode:それが、愛でしょう
Artist:Mikuni Shimokawa
ArtistUnicode:下川みくに
Creator:Kencho
Version:Extra
Source:フルメタル・パニック? ふもっふ
Tags:Full Metal Panic Fumoffu FMP TV Size Sin opening Pata-Mon Sadism-Bread __Ag
BeatmapID:1023307
BeatmapSetID:295946

[Difficulty]
HPDrainRate:6
CircleSize:4
OverallDifficulty:8.5
ApproachRate:9.3
SliderMultiplier:3.2
SliderTickRate:2

[Events]
//Background and Video events
Video,-420,"video.avi"
0,0,"BG.jpg",0,0
//Break Periods
//Storyboard Layer 0 (Background)
//Storyboard Layer 1 (Fail)
//Storyboard Layer 2 (Pass)
//Storyboard Layer 3 (Foreground)
//Storyboard Sound Samples

[TimingPoints]
530,600,4,2,1,50,1,0
530,-133.333333333333,4,2,1,50,0,0
5330,-100,4,2,1,60,0,0
10130,-100,4,2,1,70,0,0
19730,-100,4,2,1,65,0,0
29330,-133.333333333333,4,2,1,50,0,0
38930,-133.333333333333,4,2,1,60,0,0
43730,-100,4,2,1,70,0,0
46130,-71.4285714285714,4,2,1,80,0,0
47030,-100,4,2,1,80,0,0
47330,-100,4,2,1,85,0,0
47480,-100,4,2,1,90,0,0
47630,-100,4,2,1,95,0,0
48530,-83.3333333333333,4,2,1,90,0,1
67580,-83.3333333333333,4,2,1,90,0,0
67730,-83.3333333333333,4,2,1,90,0,1
86930,-100,4,2,1,70,0,0

[Colours]
Combo1 : 255,128,192
Combo2 : 224,176,32
Combo3 : 64,192,64
Combo4 : 255,255,128

[HitObjects]
105,134,530,6,0,L|225:138,1,120.000004577637,0|0,3:0|0:0,0:0:0:0:
292,86,980,1,0,0:0:0:0:
292,86,1130,2,0,L|352:88,1,60.0000022888184,0|0,3:0|0:0,0:0:0:0:
419,36,1430,2,0,P|396:90|413:146,1,120.000004577637,0|0,3:0|3:0,0:0:0:0:
446,215,1880,5,0,0:0:0:0:
446,215,2030,2,0,L|386:217,1,60.0000022888184,0|0,0:0|0:0,0:0:0:0:
326,277,2330,2,0,P|343:221|320:167,1,120.000004577637,0|0,3:0|0:0,0:0:0:0:
258,110,2780,1,0,0:0:0:0:
258,110,2930,6,0,L|138:106,1,120.000004577637,0|0,3:0|0:0,0:0:0:0:
166,186,3380,1,0,0:0:0:0:
166,186,3530,2,0,L|226:188,1,60.0000022888184,0|0,3:0|0:0,0:0:0:0:
253,267,3830,2,0,L|134:264,1,120.000004577637,0|0,3:0|3:0,0:0:0:0:
67,212,4280,5,0,0:0:0:0:
67,212,4430,2,0,P|63:183|69:154,1,60.0000022888184,0|0,0:0|0:0,0:0:0:0:
127,92,4730,2,0,P|71:109|17:86,1,120.000004577637,0|0,3:0|0:0,0:0:0:0:
76,26,5180,1,0,0:0:0:0:
76,26,5330,6,0,P|152:9|206:63,1,160,6|0,0:0|0:0,0:0:0:0:
236,187,5780,1,2,0:0:0:0:
330,100,5930,2,0,L|410:102,1,80,8|0,0:0|0:0,0:0:0:0:
341,225,6230,1,0,0:0:0:0:
259,137,6380,6,0,P|250:98|260:59,1,80,4|0,0:3|0:0,0:0:0:0:
412,24,6680,2,0,P|420:62|410:101,1,80,0|2,3:0|0:0,0:0:0:0:
341,225,6980,1,0,0:0:0:0:
259,137,7130,2,0,L|339:139,1,80,8|0,3:0|0:0,0:0:0:0:
193,219,7430,1,2,0:0:0:0:
194,51,7580,1,0,0:0:0:0:
339,139,7730,6,0,P|367:212|345:288,1,160,2|0,0:0|0:0,0:0:0:0:
193,219,8180,1,2,0:0:0:0:
211,76,8330,2,0,L|291:78,1,80,8|0,0:0|0:0,0:0:0:0:
193,219,8630,1,2,0:0:0:0:
194,51,8780,6,0,L|274:53,1,80,4|0,0:3|0:0,0:0:0:0:
419,141,9080,2,0,L|339:139,1,80,0|2,3:0|0:0,0:0:0:0:
422,46,9380,1,0,0:0:0:0:
499,143,9530,2,0,L|497:223,1,80,8|0,3:0|0:0,0:0:0:0:
376,278,9830,1,2,0:0:0:0:
378,198,9980,1,0,0:0:0:0:
443,344,10130,6,0,P|372:374|303:338,1,160,6|0,0:0|0:0,0:0:0:0:
246,223,10580,1,2,0:0:0:0:
157,291,10730,2,0,L|159:371,1,80,8|0,0:0|0:0,0:0:0:0:
246,223,11030,2,0,L|244:143,1,80,0|4,3:0|0:3,0:0:0:0:
73,190,11330,6,0,L|76:349,1,160,0|2,0:0|0:0,0:0:0:0:
186,267,11780,1,0,0:0:0:0:
254,356,11930,2,0,L|334:354,1,80,8|0,0:0|0:0,0:0:0:0:
186,267,12230,2,0,L|106:269,1,80,2|0,0:0|0:0,0:0:0:0:
271,321,12530,6,0,P|284:284|284:244,1,80,2|0,0:0|0:0,0:0:0:0:
246,105,12830,1,0,3:0:0:0:
198,190,12980,1,2,3:0:0:0:
332,160,13130,2,0,P|345:122|345:82,1,80,8|0,0:0|0:0,0:0:0:0:
171,118,13430,1,0,3:0:0:0:
284,243,13580,1,4,0:3:0:0:
345,83,13730,6,0,L|265:85,1,80,0|2,0:0|0:0,0:0:0:0:
413,189,14030,2,0,L|493:187,1,80,2|0,0:0|0:0,0:0:0:0:
383,9,14330,2,0,L|224:12,1,160,8|2,0:0|0:0,0:0:0:0:
130,88,14780,1,0,0:0:0:0:
226,160,14930,6,0,P|250:85|223:11,1,160,2|0,0:0|0:0,0:0:0:0:
130,88,15380,1,2,0:0:0:0:
170,218,15530,2,0,P|204:238|243:238,1,80,8|0,0:0|0:0,0:0:0:0:
372,208,15830,2,0,L|370:288,1,80,0|4,3:0|0:3,0:0:0:0:
299,183,16130,6,0,P|356:132|428:157,1,160,0|2,0:0|0:0,0:0:0:0:
467,263,16580,1,0,0:0:0:0:
368,331,16730,2,0,P|328:335|289:326,1,80,8|0,0:0|0:0,0:0:0:0:
165,233,17030,2,0,P|204:228|243:237,1,80,2|0,0:0|0:0,0:0:0:0:
124,315,17330,5,2,0:0:0:0:
19,211,17480,1,0,0:0:0:0:
165,233,17630,1,0,3:0:0:0:
33,301,17780,1,2,3:0:0:0:
99,167,17930,2,0,P|131:144|170:138,1,80,8|0,0:0|0:0,0:0:0:0:
89,242,18230,1,0,3:0:0:0:
28,131,18380,1,4,0:3:0:0:
168,61,18530,6,0,P|178:99|170:138,1,80,0|2,0:0|0:0,0:0:0:0:
92,319,18830,2,0,P|81:280|89:241,1,80,2|0,0:0|0:0,0:0:0:0:
285,217,19130,2,0,P|238:278|161:277,1,160,8|2,0:0|0:0,0:0:0:0:
170,138,19580,1,0,0:0:0:0:
343,153,19730,6,0,P|371:224|330:290,1,160,6|0,0:0|0:0,0:0:0:0:
205,209,20180,1,2,0:0:0:0:
311,73,20330,2,0,L|390:80,1,80,8|0,0:0|0:0,0:0:0:0:
285,217,20630,2,0,L|205:209,1,80,0|4,3:0|0:3,0:0:0:0:
76,273,20930,6,0,P|154:268|205:209,1,160,0|2,0:0|0:0,0:0:0:0:
205,87,21380,1,0,0:0:0:0:
75,116,21530,2,0,P|88:154|114:185,1,80,8|0,0:0|0:0,0:0:0:0:
247,285,21830,2,0,P|272:254|285:216,1,80,2|0,0:0|0:0,0:0:0:0:
125,253,22130,5,2,0:0:0:0:
231,355,22280,1,0,0:0:0:0:
205,209,22430,1,0,3:0:0:0:
140,342,22580,1,2,3:0:0:0:
272,273,22730,2,0,P|292:240|297:200,1,80,8|0,0:0|0:0,0:0:0:0:
205,87,23030,1,0,3:0:0:0:
205,209,23180,1,4,0:3:0:0:
296,96,23330,6,0,P|292:57|272:23,1,80,0|2,0:0|0:0,0:0:0:0:
205,87,23630,1,2,0:0:0:0:
297,199,23780,2,0,L|377:197,2,80,0|8|0,0:0|0:0|0:0,0:0:0:0:
238,282,24230,2,0,L|236:362,1,80,2|0,0:0|0:0,0:0:0:0:
156,221,24530,6,0,P|221:179|297:199,1,160,2|0,3:0|0:0,0:0:0:0:
167,326,24980,1,2,0:0:0:0:
58,228,25130,2,0,P|51:188|63:151,1,80,8|0,0:0|0:0,0:0:0:0:
220,166,25430,1,0,3:0:0:0:
86,307,25580,6,0,L|6:305,1,80,4|0,0:3|0:0,0:0:0:0:
156,221,25880,1,0,0:0:0:0:
238,282,26030,2,0,P|250:319|244:358,1,80,2|0,0:0|0:0,0:0:0:0:
156,221,26330,2,0,P|221:179|297:199,1,160,8|2,0:0|0:0,0:0:0:0:
167,326,26780,1,0,0:0:0:0:
58,228,26930,6,0,B|22:168|55:109|55:109|90:100,1,160,2|0,3:0|0:0,0:0:0:0:
220,166,27380,1,2,0:0:0:0:
167,326,27530,2,0,L|87:324,1,80,8|0,0:0|0:0,0:0:0:0:
273,314,27830,1,0,3:0:0:0:
174,298,27980,6,0,L|94:296,1,80,4|0,0:3|0:0,0:0:0:0:
280,286,28280,1,2,0:0:0:0:
181,270,28430,2,0,L|101:268,1,80,2|0,0:0|0:0,0:0:0:0:
98,72,28730,2,0,P|158:119|140:193,1,160,8|0,0:0|0:0,0:0:0:0:
28,255,29180,1,2,0:0:0:0:
167,326,29330,6,0,B|297:364|267:272|399:310,1,240.000009155274,2|8,0:0|0:0,0:0:0:0:
399,310,30230,2,0,L|401:250,1,60.0000022888184,0|0,0:0|0:0,0:0:0:0:
460,190,30530,6,0,P|404:207|350:184,1,120.000004577637
319,105,30980,1,0,0:0:0:0:
319,105,31130,2,0,L|317:45,1,60.0000022888184,8|0,0:0|0:0,0:0:0:0:
267,172,31430,2,0,L|269:232,1,60.0000022888184,0|0,0:0|0:0,0:0:0:0:
319,105,31730,6,0,P|262:88|208:112,1,120.000004577637,2|0,0:0|0:0,0:0:0:0:
129,207,32180,1,0,0:0:0:0:
129,207,32330,2,0,L|189:205,1,60.0000022888184,8|0,3:0|0:0,0:0:0:0:
267,172,32630,2,0,L|387:168,1,120.000004577637,0|0,3:0|0:0,0:0:0:0:
463,132,33080,5,0,0:0:0:0:
463,132,33230,2,0,L|467:252,1,120.000004577637,0|8,3:0|0:0,0:0:0:0:
391,288,33680,2,0,L|387:168,1,120.000004577637,0|0,3:0|0:0,0:0:0:0:
445,359,34130,6,0,B|315:397|345:305|213:343,1,240.000009155274,2|8,0:0|0:0,0:0:0:0:
213,343,35030,2,0,L|211:283,1,60.0000022888184,0|0,0:0|0:0,0:0:0:0:
131,255,35330,6,0,L|135:375,1,120.000004577637,0|0,0:0|0:0,0:0:0:0:
213,343,35780,1,0,0:0:0:0:
213,343,35930,2,0,L|273:341,1,60.0000022888184,8|0,0:0|0:0,0:0:0:0:
397,290,36230,2,0,L|337:292,1,60.0000022888184
458,348,36530,6,0,P|480:294|463:238,1,120.000004577637,2|0,0:0|0:0,0:0:0:0:
402,181,36980,1,0,0:0:0:0:
402,181,37130,2,0,L|342:179,1,60.0000022888184,8|0,3:0|0:0,0:0:0:0:
281,121,37430,2,0,P|298:177|275:231,1,120.000004577637,0|0,3:0|0:0,0:0:0:0:
208,282,37880,5,0,0:0:0:0:
208,282,38030,2,0,P|208:311|218:340,1,60.0000022888184,0|0,3:0|0:0,0:0:0:0:
295,374,38330,2,0,P|320:358|340:335,1,60.0000022888184,8|0,0:0|3:0,0:0:0:0:
330,252,38630,2,0,P|303:237|274:231,1,60.0000022888184,0|0,0:0|0:0,0:0:0:0:
133,321,38930,6,0,L|13:317,2,120.000004577637,2|0|8,3:0|0:0|0:0,0:0:0:0:
133,321,39830,2,0,L|135:261,1,60.0000022888184,0|0,3:0|0:0,0:0:0:0:
83,194,40130,6,0,P|137:217|194:201,1,120.000004577637,0|0,0:0|0:0,0:0:0:0:
249,137,40580,1,0,0:0:0:0:
249,137,40730,2,0,L|309:139,1,60.0000022888184,8|0,0:0|0:0,0:0:0:0:
424,200,41030,2,0,L|364:198,1,60.0000022888184,0|0,0:0|0:0,0:0:0:0:
495,152,41330,6,0,L|499:272,2,120.000004577637,2|0|8,3:0|0:0|0:0,0:0:0:0:
495,152,42230,2,0,L|435:154,1,60.0000022888184,0|0,3:0|0:0,0:0:0:0:
364,198,42530,6,0,L|244:202,1,120.000004577637,0|0,0:0|0:0,0:0:0:0:
159,205,42980,1,0,0:0:0:0:
159,205,43130,2,0,L|161:265,1,60.0000022888184,8|0,0:0|0:0,0:0:0:0:
244,202,43430,2,0,L|242:142,1,60.0000022888184,0|0,0:0|0:0,0:0:0:0:
237,45,43730,6,0,P|264:116|340:123,1,160,2|0,3:0|0:0,0:0:0:0:
449,72,44180,1,2,0:0:0:0:
449,72,44330,2,0,P|459:110|457:150,1,80,8|0,0:0|0:0,0:0:0:0:
349,290,44630,2,0,P|338:251|340:211,1,80,2|4,3:0|0:3,0:0:0:0:
502,238,44930,6,0,L|422:243,1,80,0|0,0:0|0:0,0:0:0:0:
296,124,45230,2,0,L|375:118,1,80,2|0,0:0|0:0,0:0:0:0:
239,199,45530,2,0,P|202:130|228:58,1,160,8|2,0:0|0:0,0:0:0:0:
390,2,45980,1,0,0:0:0:0:
390,2,46130,6,0,L|402:225,1,223.999993164063,2|0,0:0|0:0,0:0:0:0:
296,124,46580,1,2,0:0:0:0:
493,59,46730,2,0,L|499:170,1,111.999996582031,8|0,0:0|0:0,0:0:0:0:
296,124,47030,1,2,0:0:0:0:
390,2,47180,1,0,0:0:0:0:
402,226,47330,1,8,0:0:0:0:
228,57,47480,1,8,0:0:0:0:
499,171,47630,1,2,0:0:0:0:
499,171,47930,5,8,0:0:0:0:
228,57,48080,1,2,0:0:0:0:
331,289,48230,1,0,3:0:0:0:
390,2,48380,1,8,0:0:0:0:
250,307,48530,6,0,P|314:371|398:337,1,191.999994140625,6|0,0:0|0:0,0:0:0:0:
461,230,48980,1,2,0:0:0:0:
323,193,49130,2,0,L|331:289,1,95.9999970703126,8|0,0:0|0:0,0:0:0:0:
398,98,49430,2,0,L|390:2,1,95.9999970703126,2|4,3:0|0:3,0:0:0:0:
212,76,49730,6,0,P|258:84|303:68,1,95.9999970703126,0|0,0:0|0:0,0:0:0:0:
117,46,50030,2,0,L|125:142,1,95.9999970703126,2|0,0:0|0:0,0:0:0:0:
231,300,50330,1,8,0:0:0:0:
212,76,50480,1,0,0:0:0:0:
135,257,50630,1,2,0:0:0:0:
291,149,50780,1,0,0:0:0:0:
45,138,50930,6,0,P|46:233|60:328,1,191.999994140625,2|0,0:0|0:0,0:0:0:0:
231,300,51380,1,2,0:0:0:0:
210,138,51530,2,0,P|163:144|125:172,1,95.9999970703126,8|0,0:0|0:0,0:0:0:0:
276,240,51830,2,0,P|323:234|361:206,1,95.9999970703126,2|4,3:0|0:3,0:0:0:0:
210,138,52130,5,0,0:0:0:0:
231,300,52280,1,8,0:0:0:0:
361,206,52430,2,0,P|378:161|373:114,1,95.9999970703126,2|0,0:0|0:0,0:0:0:0:
221,57,52730,1,8,0:0:0:0:
200,219,52880,1,2,0:0:0:0:
129,128,53030,1,0,0:0:0:0:
291,149,53180,1,0,0:0:0:0:
62,201,53330,6,0,P|30:115|83:39,1,191.999994140625,2|0,0:0|0:0,0:0:0:0:
219,8,53780,1,2,0:0:0:0:
291,149,53930,2,0,P|302:194|293:242,1,95.9999970703126,8|0,0:0|0:0,0:0:0:0:
130,155,54230,2,0,P|163:122|209:105,1,95.9999970703126,2|4,3:0|0:3,0:0:0:0:
211,300,54530,6,0,P|166:287|129:256,1,95.9999970703126,0|0,0:0|0:0,0:0:0:0:
209,105,54830,2,0,P|254:118|291:149,1,95.9999970703126,2|0,0:0|0:0,0:0:0:0:
200,223,55130,1,8,0:0:0:0:
115,92,55280,1,0,0:0:0:0:
291,149,55430,1,2,0:0:0:0:
24,166,55580,1,0,0:0:0:0:
133,9,55730,6,0,P|197:73|167:159,1,191.999994140625,2|0,0:0|0:0,0:0:0:0:
60,36,56180,1,2,0:0:0:0:
222,17,56330,2,0,L|318:25,1,95.9999970703126,8|0,0:0|0:0,0:0:0:0:
412,110,56630,1,2,3:0:0:0:
291,149,56780,1,4,0:3:0:0:
318,25,56930,5,0,0:0:0:0:
368,182,57080,1,8,0:0:0:0:
209,105,57230,1,2,0:0:0:0:
449,132,57380,1,0,0:0:0:0:
244,244,57530,1,8,0:0:0:0:
403,54,57680,1,2,0:0:0:0:
348,297,57830,1,0,0:0:0:0:
286,57,57980,1,8,0:0:0:0:
492,223,58130,6,0,B|399:252|399:182|306:211,1,191.999994140625,2|0,0:0|0:0,0:0:0:0:
348,297,58580,1,2,0:0:0:0:
449,132,58730,2,0,P|456:85|440:41,1,95.9999970703126,8|0,0:0|0:0,0:0:0:0:
281,103,59030,2,0,P|328:110|372:94,1,95.9999970703126,2|4,3:0|0:3,0:0:0:0:
223,8,59330,6,0,L|127:16,1,95.9999970703126,0|0,0:0|0:0,0:0:0:0:
111,208,59630,1,2,0:0:0:0:
182,94,59780,1,0,0:0:0:0:
2,74,59930,2,0,L|10:170,1,95.9999970703126,8|0,0:0|0:0,0:0:0:0:
202,186,60230,1,2,0:0:0:0:
88,115,60380,1,0,0:0:0:0:
31,259,60530,6,0,P|110:303|191:258,1,191.999994140625,2|0,0:0|0:0,0:0:0:0:
284,141,60980,1,2,0:0:0:0:
197,3,61130,2,0,P|177:46|182:93,1,95.9999970703126,8|0,0:0|0:0,0:0:0:0:
367,174,61430,2,0,P|371:126|352:83,1,95.9999970703126,2|4,3:0|0:3,0:0:0:0:
267,257,61730,5,0,0:0:0:0:
403,325,61880,1,8,0:0:0:0:
367,174,62030,2,0,L|271:182,1,95.9999970703126,2|0,0:0|0:0,0:0:0:0:
335,290,62330,1,8,0:0:0:0:
418,118,62480,1,2,0:0:0:0:
200,221,62630,1,0,0:0:0:0:
438,257,62780,1,0,0:0:0:0:
260,94,62930,6,0,B|196:88|196:88|134:107|134:107|71:102,1,191.999994140625,2|0,0:0|0:0,0:0:0:0:
125,29,63380,1,2,0:0:0:0:
301,174,63530,2,0,L|205:166,1,95.9999970703126,8|0,0:0|0:0,0:0:0:0:
219,14,63830,2,0,L|315:22,1,95.9999970703126,2|4,3:0|0:3,0:0:0:0:
141,194,64130,5,0,0:0:0:0:
215,56,64280,1,0,0:0:0:0:
301,174,64430,2,0,P|317:218|312:266,1,95.9999970703126,2|0,0:0|0:0,0:0:0:0:
216,137,64730,2,0,P|246:101|290:81,1,95.9999970703126,8|0,0:0|0:0,0:0:0:0:
227,230,65030,2,0,P|180:221|141:193,1,95.9999970703126,2|0,0:0|0:0,0:0:0:0:
414,141,65330,5,2,3:0:0:0:
385,255,65480,1,0,0:0:0:0:
301,174,65630,2,0,P|285:130|290:82,1,95.9999970703126
487,130,65930,1,8,0:0:0:0:
312,266,66080,1,2,0:0:0:0:
370,81,66230,1,2,3:0:0:0:
429,315,66380,1,0,0:0:0:0:
234,288,66530,6,0,P|261:202|351:194,1,191.999994140625,0|2,0:0|0:0,0:0:0:0:
429,315,66980,1,0,0:0:0:0:
312,266,67130,1,8,0:0:0:0:
414,141,67280,1,2,0:0:0:0:
340,359,67430,1,8,0:0:0:0:
260,92,67580,1,8,0:0:0:0:
495,147,67730,6,0,P|440:218|352:195,1,191.999994140625,6|0,0:0|0:0,0:0:0:0:
260,92,68180,1,2,0:0:0:0:
169,195,68330,2,0,P|158:241|169:287,1,95.9999970703126,8|0,0:0|0:0,0:0:0:0:
352,287,68630,2,0,P|363:241|352:195,1,95.9999970703126,2|4,3:0|0:3,0:0:0:0:
256,237,68930,5,0,0:0:0:0:
304,357,69080,1,0,0:0:0:0:
431,329,69230,2,0,P|438:282|424:236,1,95.9999970703126,2|0,0:0|0:0,0:0:0:0:
333,162,69530,1,8,0:0:0:0:
150,254,69680,1,0,0:0:0:0:
352,287,69830,1,2,0:0:0:0:
207,141,69980,1,0,0:0:0:0:
240,344,70130,6,0,L|432:329,1,191.999994140625,2|0,0:0|0:0,0:0:0:0:
460,232,70580,1,2,0:0:0:0:
346,195,70730,2,0,P|338:242|352:287,1,95.9999970703126,8|0,0:0|0:0,0:0:0:0:
460,232,71030,1,2,3:0:0:0:
388,99,71180,6,0,L|292:107,1,95.9999970703126,4|0,0:3|0:0,0:0:0:0:
441,158,71480,1,8,0:0:0:0:
406,21,71630,2,0,L|310:29,1,95.9999970703126,2|0,0:0|0:0,0:0:0:0:
242,184,71930,1,8,0:0:0:0:
388,99,72080,1,2,0:0:0:0:
220,81,72230,1,0,0:0:0:0:
346,195,72380,1,0,0:0:0:0:
310,29,72530,6,0,B|264:17|264:17|121:29,1,191.999994140625,2|0,0:0|0:0,0:0:0:0:
28,84,72980,1,2,0:0:0:0:
128,121,73130,2,0,P|136:74|120:29,1,95.9999970703126,8|0,0:0|0:0,0:0:0:0:
13,188,73430,2,0,P|4:234|20:279,1,95.9999970703126,2|4,3:0|0:3,0:0:0:0:
185,219,73730,6,0,L|89:227,1,95.9999970703126,0|0,0:0|0:0,0:0:0:0:
32,113,74030,2,0,L|128:121,1,95.9999970703126,2|0,0:0|0:0,0:0:0:0:
13,188,74330,1,8,0:0:0:0:
120,29,74480,1,0,0:0:0:0:
89,227,74630,1,2,0:0:0:0:
36,42,74780,1,0,0:0:0:0:
268,42,74930,6,0,B|297:135|227:135|256:228,1,191.999994140625,2|0,0:0|0:0,0:0:0:0:
302,323,75380,1,2,3:0:0:0:
348,228,75530,2,0,P|302:217|256:228,1,95.9999970703126,8|0,0:0|0:0,0:0:0:0:
178,302,75830,1,2,0:0:0:0:
167,168,75980,6,0,L|159:72,1,95.9999970703126,4|0,0:3|0:0,0:0:0:0:
256,228,76280,1,8,0:0:0:0:
89,242,76430,2,0,L|81:146,1,95.9999970703126,2|0,0:0|0:0,0:0:0:0:
178,302,76730,1,8,3:0:0:0:
11,316,76880,1,2,0:0:0:0:
89,242,77030,1,0,0:0:0:0:
100,376,77180,1,8,0:0:0:0:
0,182,77330,6,0,P|80:135|167:168,1,191.999994140625,2|0,0:0|0:0,0:0:0:0:
255,268,77780,1,2,0:0:0:0:
98,334,77930,2,0,P|82:288|90:241,1,95.9999970703126,8|0,0:0|0:0,0:0:0:0:
158,76,78230,2,0,P|174:122|166:169,1,95.9999970703126,2|4,3:0|0:3,0:0:0:0:
80,130,78530,5,0,0:0:0:0:
261,113,78680,1,0,0:0:0:0:
185,250,78830,2,0,L|89:242,1,95.9999970703126,2|0,0:0|0:0,0:0:0:0:
348,185,79130,1,8,0:0:0:0:
167,168,79280,1,0,0:0:0:0:
243,305,79430,2,0,L|339:297,1,95.9999970703126,2|0,0:0|0:0,0:0:0:0:
459,207,79730,6,0,P|368:212|339:297,1,191.999994140625,2|0,0:0|0:0,0:0:0:0:
490,280,80180,1,2,0:0:0:0:
477,117,80330,2,0,L|469:21,1,95.9999970703126,8|0,0:0|0:0,0:0:0:0:
335,117,80630,1,2,3:0:0:0:
459,207,80780,1,4,0:3:0:0:
405,86,80930,5,0,0:0:0:0:
327,193,81080,1,8,0:0:0:0:
459,207,81230,1,2,0:0:0:0:
273,72,81380,1,0,0:0:0:0:
249,300,81530,1,8,0:0:0:0:
405,86,81680,1,2,0:0:0:0:
195,179,81830,1,0,0:0:0:0:
459,207,81980,1,0,0:0:0:0:
273,72,82130,6,0,B|244:165|314:165|285:258,1,191.999994140625,2|0,0:0|0:0,0:0:0:0:
193,216,82580,1,2,0:0:0:0:
366,115,82730,2,0,P|413:108|457:124,1,95.9999970703126,8|0,0:0|0:0,0:0:0:0:
322,337,83030,2,0,P|274:343|230:326,1,95.9999970703126,2|4,3:0|0:3,0:0:0:0:
296,132,83330,5,0,0:0:0:0:
409,220,83480,1,0,0:0:0:0:
285,258,83630,2,0,L|293:162,1,95.9999970703126,2|0,0:0|0:0,0:0:0:0:
424,29,83930,2,0,L|409:221,1,191.999994140625,8|2,0:0|0:0,0:0:0:0:
322,337,84380,1,0,0:0:0:0:
184,236,84530,6,0,P|244:165|337:166,1,191.999994140625,2|0,0:0|0:0,0:0:0:0:
285,258,84980,1,2,0:0:0:0:
173,132,85130,1,8,0:0:0:0:
337,166,85280,1,2,0:0:0:0:
184,236,85430,1,2,3:0:0:0:
266,90,85580,1,4,0:3:0:0:
285,258,85730,6,0,L|277:354,1,95.9999970703126,0|0,0:0|0:0,0:0:0:0:
249,177,86030,1,2,0:0:0:0:
373,247,86180,2,0,L|365:343,1,95.9999970703126,0|8,0:0|0:0,0:0:0:0:
337,166,86480,2,0,P|427:178|459:264,1,191.999994140625,0|8,0:0|0:0,0:0:0:0:
365,343,86930,5,2,0:0:0:0:
256,192,87005,12,0,89180,0:0:0:0:
