osu file format v14

[General]
AudioFilename: audio.mp3
AudioLeadIn: 0
PreviewTime: 30255
Countdown: 1
SampleSet: None
StackLeniency: 0.7
Mode: 0
LetterboxInBreaks: 0
WidescreenStoryboard: 1

[Editor]
DistanceSpacing: 1.1
BeatDivisor: 3
GridSize: 4
TimelineZoom: 1

[Metadata]
Title:Ergonomic Hero
TitleUnicode:Ergonomic Hero
Artist:Miku-Gumi
ArtistUnicode:Miku-Gumi
Creator:Sakura 03
Version:Sakura´s Normal
Source:
Tags:
BeatmapID:1586914
BeatmapSetID:753761

[Difficulty]
HPDrainRate:5
CircleSize:4
OverallDifficulty:5
ApproachRate:5
SliderMultiplier:1.20000000596046
SliderTickRate:2

[Events]
//Background and Video events
0,0,"maxresdefault.jpg",0,0
//Break Periods
2,88339,91400
2,122031,128169
//Storyboard Layer 0 (Background)
//Storyboard Layer 1 (Fail)
//Storyboard Layer 2 (Pass)
//Storyboard Layer 3 (Foreground)
//Storyboard Sound Samples

[TimingPoints]
293,461.538461538462,4,1,0,100,1,0
29304,-100,4,1,0,100,0,1
44474,-100,4,1,0,100,0,0
51920,-100,4,1,0,100,0,1
66540,-100,4,1,0,100,0,0

[Colours]
Combo1 : 64,0,64
Combo2 : 0,255,64
Combo3 : 0,255,255
Combo4 : 255,0,128

[HitObjects]
256,96,29716,5,0,0:0:0:0:
256,280,30177,1,0,0:0:0:0:
148,192,30639,1,0,0:0:0:0:
344,192,31100,1,0,0:0:0:0:
84,320,31562,2,0,P|224:288|316:228,1,245.00000104308
256,192,32831,5,0,0:0:0:0:
248,104,33216,2,0,P|376:88|492:156,1,240.000001192092
256,52,34908,1,0,0:0:0:0:
256,136,35369,1,0,0:0:0:0:
256,216,35831,1,0,0:0:0:0:
260,304,36293,1,0,0:0:0:0:
72,56,36908,2,0,L|120:56,1,40.000000198682
124,140,37369,2,0,L|172:140,1,40.000000198682
192,224,37831,2,0,L|236:224,1,40.000000198682
264,312,38293,6,0,L|304:312,1,40.000000198682
256,192,38754,1,0,0:0:0:0:
312,128,39216,5,2,0:0:0:0:
184,128,39677,1,2,0:0:0:0:
256,192,40139,1,2,0:0:0:0:
256,192,40600,1,2,0:0:0:0:
76,304,41062,2,2,P|224:304|396:228,1,320.000001589456
256,192,42754,5,0,0:0:0:0:
256,116,43216,1,0,0:0:0:0:
256,36,43677,1,0,0:0:0:0:
256,192,44139,1,0,0:0:0:0:
48,84,44600,2,0,L|408:84,1,360.000001788138
56,160,46446,2,0,L|424:160,1,360.000001788138
60,224,48293,2,0,L|236:224,2,160.000000794728
256,192,49985,5,0,0:0:0:0:
256,192,50446,1,0,0:0:0:0:
256,192,50908,1,0,0:0:0:0:
60,68,51677,2,0,P|312:116|408:312,1,480.000002384184
384,288,53985,1,0,0:0:0:0:
296,292,54446,1,0,0:0:0:0:
208,292,54908,1,0,0:0:0:0:
108,296,55523,1,0,0:0:0:0:
64,184,55985,6,0,L|256:184,2,160.000000794728
256,192,57677,2,0,L|256:104,4,80.000000397364
256,192,59369,1,0,0:0:0:0:
180,144,59831,1,0,0:0:0:0:
40,100,60293,2,0,P|88:72|176:100,1,120.000000596046
192,144,61216,1,0,0:0:0:0:
248,192,61677,1,0,0:0:0:0:
300,144,62139,1,0,0:0:0:0:
368,104,62600,2,0,P|432:80|492:104,1,120.000000596046
256,188,63523,5,0,0:0:0:0:
368,188,63985,1,0,0:0:0:0:
148,188,64446,1,0,0:0:0:0:
64,296,64908,2,0,L|248:292,2,160.000000794728
256,188,66754,5,0,0:0:0:0:
256,188,67216,1,0,0:0:0:0:
256,188,67677,1,0,0:0:0:0:
256,188,68139,1,0,0:0:0:0:
256,188,68600,1,0,0:0:0:0:
256,188,69062,1,0,0:0:0:0:
256,188,69523,1,0,0:0:0:0:
256,180,70600,5,0,0:0:0:0:
332,124,71216,1,0,0:0:0:0:
180,124,71831,1,0,0:0:0:0:
180,224,72446,1,0,0:0:0:0:
308,224,73062,1,0,0:0:0:0:
304,116,73677,1,0,0:0:0:0:
180,116,74293,1,0,0:0:0:0:
176,224,74908,1,0,0:0:0:0:
304,228,75523,1,0,0:0:0:0:
88,152,75985,6,0,L|176:152,8,80.000000397364
256,188,78908,1,0,0:0:0:0:
256,112,79369,1,0,0:0:0:0:
336,112,79831,1,0,0:0:0:0:
336,188,80293,1,0,0:0:0:0:
256,188,80754,1,0,0:0:0:0:
176,188,81216,1,0,0:0:0:0:
120,116,81677,2,0,L|368:116,2,240.000001192092
256,188,83985,5,0,0:0:0:0:
256,112,84446,1,0,0:0:0:0:
256,192,84908,12,0,88139,0:0:0:0:
256,188,92600,5,0,0:0:0:0:
256,152,93062,1,8,0:0:0:0:
256,120,93523,1,8,0:0:0:0:
256,88,93985,1,0,0:0:0:0:
288,68,94446,1,0,0:0:0:0:
328,64,94908,1,0,0:0:0:0:
256,244,96139,5,0,0:0:0:0:
256,196,96600,1,0,0:0:0:0:
256,148,97062,1,0,0:0:0:0:
256,112,97523,1,0,0:0:0:0:
232,84,97985,1,0,0:0:0:0:
188,64,98446,1,0,0:0:0:0:
484,40,99985,6,0,L|80:288,1,440.000002185502
48,56,103677,2,0,L|408:320,1,440.000002185502
256,32,107216,5,0,0:0:0:0:
256,116,107677,1,0,0:0:0:0:
256,344,108139,1,0,0:0:0:0:
256,220,108600,1,0,0:0:0:0:
52,192,109062,1,0,0:0:0:0:
132,196,109523,1,0,0:0:0:0:
452,192,109985,1,0,0:0:0:0:
368,192,110446,1,0,0:0:0:0:
48,88,110908,6,0,L|452:88,1,400.00000198682
56,208,113369,1,0,0:0:0:0:
56,292,113831,2,0,L|456:292,1,400.00000198682
256,56,115985,5,0,0:0:0:0:
256,140,116446,1,0,0:0:0:0:
256,224,116908,1,0,0:0:0:0:
256,332,117369,1,0,0:0:0:0:
56,192,118139,5,0,0:0:0:0:
148,192,118600,1,0,0:0:0:0:
236,192,119062,1,0,0:0:0:0:
328,192,119523,1,0,0:0:0:0:
428,192,119985,1,0,0:0:0:0:
428,192,120293,2,0,L|160:128,1,240.000001192092
256,184,121831,1,0,0:0:0:0:
256,44,129369,5,2,0:0:0:0:
256,136,129831,1,2,0:0:0:0:
256,136,130293,1,2,0:0:0:0:
256,136,130754,1,2,0:0:0:0:
256,136,131216,1,2,0:0:0:0:
256,136,131677,1,2,0:0:0:0:
256,136,132139,1,2,0:0:0:0:
36,184,132754,2,2,L|200:184,1,160.000000794728
208,192,134139,5,2,0:0:0:0:
208,192,134600,1,2,0:0:0:0:
208,192,135062,1,2,0:0:0:0:
208,192,135523,1,2,0:0:0:0:
208,192,135985,1,2,0:0:0:0:
208,192,136446,1,2,0:0:0:0:
56,48,136908,2,2,B|236:108|332:200|424:308,1,440.000002185502
256,192,139523,1,0,0:0:0:0:
256,192,140446,5,0,0:0:0:0:
256,192,140908,1,0,0:0:0:0:
256,192,141369,1,0,0:0:0:0:
256,192,141831,1,0,0:0:0:0:
256,192,142293,1,0,0:0:0:0:
56,336,142754,2,0,L|456:40,1,480.000002384184
256,192,145062,5,0,0:0:0:0:
256,192,145523,1,0,0:0:0:0:
256,192,145985,1,0,0:0:0:0:
256,192,146446,1,0,0:0:0:0:
256,192,146908,1,0,0:0:0:0:
256,192,147369,1,0,0:0:0:0:
256,192,147985,5,0,0:0:0:0:
256,192,148446,1,0,0:0:0:0:
256,192,148908,1,0,0:0:0:0:
256,192,149369,1,0,0:0:0:0:
256,192,149831,1,0,0:0:0:0:
48,80,150754,2,0,L|456:80,1,400.00000198682
256,192,152908,5,0,0:0:0:0:
256,192,153369,1,0,0:0:0:0:
256,192,153831,1,0,0:0:0:0:
256,192,154293,1,0,0:0:0:0:
256,192,154754,1,0,0:0:0:0:
256,188,155985,5,0,0:0:0:0:
256,188,156446,1,0,0:0:0:0:
256,188,156908,1,0,0:0:0:0:
256,188,157369,1,0,0:0:0:0:
256,188,157831,1,0,0:0:0:0:
56,152,158139,2,0,L|276:152,1,200.00000099341
40,92,159216,6,0,L|344:96,2,280.000001390774
256,192,162446,1,0,0:0:0:0:
256,192,162908,1,0,0:0:0:0:
256,192,163369,1,0,0:0:0:0:
256,192,163831,1,0,0:0:0:0:
256,192,164293,1,0,0:0:0:0:
256,192,164754,1,0,0:0:0:0:
256,192,165216,1,0,0:0:0:0:
260,196,165677,1,0,0:0:0:0:
260,196,166139,5,0,0:0:0:0:
