osu file format v14

[General]
AudioFilename: [MAD] Sotsugyou Memories Sayonara Anata - Sawai Miku.mp3
AudioLeadIn: 0
PreviewTime: 117039
Countdown: 0
SampleSet: Soft
StackLeniency: 0.5
Mode: 0
LetterboxInBreaks: 0
EpilepsyWarning: 1
WidescreenStoryboard: 1

[Editor]
Bookmarks: 118572
DistanceSpacing: 1.4
BeatDivisor: 4
GridSize: 4
TimelineZoom: 1.4

[Metadata]
Title:Sotsugyou Memories~Sayonara, Anata.~
TitleUnicode:卒業メモリーズ~サヨナラ、あなた。~
Artist:Miku Sawai
ArtistUnicode:沢井美空
Creator:-Sh1n1-
Version:Farewell
Source:
Tags:graduate Azure Gotou Yuuichirou shini cslm cslmvenezuela
BeatmapID:1019802
BeatmapSetID:477394

[Difficulty]
HPDrainRate:6
CircleSize:4.7
OverallDifficulty:7
ApproachRate:8.5
SliderMultiplier:1.4
SliderTickRate:1

[Events]
//Background and Video events
0,0,"BG.jpg",0,0
//Break Periods
//Storyboard Layer 0 (Background)
//Storyboard Layer 1 (Fail)
//Storyboard Layer 2 (Pass)
//Storyboard Layer 3 (Foreground)
//Storyboard Sound Samples

[TimingPoints]
2295,437.956204379562,4,2,1,30,1,0
30324,-100,4,2,1,45,0,1
57477,-100,4,2,1,55,0,1
57586,-100,4,2,1,45,0,1
58353,-142.857142857143,4,2,1,30,0,0
59667,-142.857142857143,4,3,2,30,0,0
59776,-142.857142857143,4,2,2,30,0,0
61419,-142.857142857143,4,3,2,30,0,0
61528,-142.857142857143,4,2,2,30,0,0
63170,-142.857142857143,4,3,2,30,0,0
63280,-142.857142857143,4,2,2,30,0,0
64922,-142.857142857143,4,3,2,30,0,0
65032,-142.857142857143,4,2,2,30,0,0
66674,-142.857142857143,4,3,2,30,0,0
66784,-142.857142857143,4,2,2,30,0,0
68426,-142.857142857143,4,3,2,30,0,0
68535,-142.857142857143,4,2,2,30,0,0
70178,-142.857142857143,4,3,2,30,0,0
70287,-142.857142857143,4,2,2,30,0,0
71930,-142.857142857143,4,3,2,30,0,0
72039,-142.857142857143,4,2,2,30,0,0
73681,-142.857142857143,4,3,2,30,0,0
73791,-142.857142857143,4,2,2,30,0,0
75433,-142.857142857143,4,3,2,30,0,0
75543,-142.857142857143,4,2,2,30,0,0
77185,-142.857142857143,4,3,2,30,0,0
77294,-142.857142857143,4,2,2,30,0,0
78937,-142.857142857143,4,3,2,30,0,0
79046,-142.857142857143,4,2,2,30,0,0
80689,-142.857142857143,4,3,2,30,0,0
80798,-142.857142857143,4,2,2,30,0,0
82440,-142.857142857143,4,3,2,30,0,0
82550,-142.857142857143,4,2,2,30,0,0
84192,-142.857142857143,4,3,2,30,0,0
84630,-117.647058823529,4,2,2,30,0,0
84849,-117.647058823529,4,2,2,20,0,0
84959,-117.647058823529,4,2,2,25,0,0
85068,-117.647058823529,4,2,2,30,0,0
85287,-117.647058823529,4,2,2,20,0,0
85506,-117.647058823529,4,2,2,30,0,0
86382,-100,4,2,1,40,0,0
117915,-100,4,2,1,45,0,1
145068,-100,4,2,1,55,0,1
145178,-100,4,2,1,45,0,1
145944,-100,4,2,1,40,0,0
159959,-142.857142857143,4,2,1,30,0,0
161273,-142.857142857143,4,3,2,30,0,0
161382,-142.857142857143,4,2,2,30,0,0
163024,-142.857142857143,4,3,2,30,0,0
163134,-142.857142857143,4,2,2,30,0,0
164776,-142.857142857143,4,3,2,30,0,0
164886,-142.857142857143,4,2,1,30,0,0
166528,-142.857142857143,4,3,2,30,0,0
166638,-142.857142857143,4,2,2,30,0,0
168280,-142.857142857143,4,3,2,30,0,0
168389,-142.857142857143,4,2,2,30,0,0
170032,-142.857142857143,4,3,2,30,0,0
170141,-142.857142857143,4,2,2,30,0,0
171784,-142.857142857143,4,3,2,30,0,0
171893,-142.857142857143,4,2,1,30,0,0
173535,-142.857142857143,4,3,2,30,0,0
173645,-142.857142857143,4,2,2,30,0,0
175287,-142.857142857143,4,3,2,30,0,0
175397,-142.857142857143,4,2,2,30,0,0
177039,-142.857142857143,4,3,2,30,0,0
177149,-142.857142857143,4,2,1,30,0,0
178791,-142.857142857143,4,3,2,30,0,0
178900,-142.857142857143,4,2,2,30,0,0
180543,-142.857142857143,4,3,2,30,0,0
180652,-142.857142857143,4,2,1,30,0,0
182294,-142.857142857143,4,3,2,30,0,0
182404,-142.857142857143,4,2,2,30,0,0
184046,-142.857142857143,4,3,2,30,0,0
184156,-142.857142857143,4,2,2,30,0,0
185798,-142.857142857143,4,3,2,30,0,0
186236,-117.647058823529,4,2,2,30,0,0
186455,-117.647058823529,4,2,2,5,0,0
186565,-117.647058823529,4,2,2,30,0,0
186784,-117.647058823529,4,2,2,5,0,0
186893,-117.647058823529,4,2,2,30,0,0
187988,-100,4,2,1,40,0,0
219521,-100,4,2,1,45,0,1
246674,-100,4,2,1,55,0,1
246784,-100,4,2,1,45,0,1
247550,-100,4,2,1,40,0,0
289594,-142.857142857143,4,2,1,40,0,0
303608,-100,4,2,1,45,0,1
316747,-100,4,2,1,55,0,1
316857,-100,4,2,1,45,0,1
317623,-100,4,2,1,40,0,0
330762,-100,4,2,1,30,0,0
331090,-100,4,2,1,5,0,0
331200,-100,4,2,1,30,0,0
331528,-100,4,2,1,5,0,0
331638,-100,4,2,1,30,0,0

[Colours]
Combo1 : 255,159,255
Combo2 : 255,220,185
Combo3 : 200,200,200
Combo4 : 214,139,254

[HitObjects]
232,240,30324,6,0,B|142:231|142:231|94:239,1,140,6|8,0:0|0:0,0:0:0:0:
326,294,30980,1,0,3:0:0:0:
326,294,31090,1,0,0:0:0:0:
326,294,31200,2,0,L|335:224,1,70,0|0,0:0|3:0,0:0:0:0:
192,88,31638,2,0,L|201:158,1,70,8|0,0:0|0:0,0:0:0:0:
434,127,32076,6,0,B|343:135|343:135|295:127,1,140,0|8,3:0|0:0,0:0:0:0:
172,76,32732,1,0,3:0:0:0:
272,224,32951,1,0,0:0:0:0:
260,35,33170,1,0,3:0:0:0:
119,147,33389,2,0,B|116:184|116:184|119:217,1,70,8|0,0:0|0:0,0:0:0:0:
224,314,33827,6,0,B|204:300|196:273|196:273|164:316|120:312,1,140,0|8,3:0|0:0,0:0:0:0:
288,240,34484,1,0,3:0:0:0:
288,240,34594,1,0,0:0:0:0:
288,240,34703,2,0,L|360:224,1,70,0|0,0:0|3:0,0:0:0:0:
500,175,35141,2,0,L|432:160,1,70,8|0,0:0|0:0,0:0:0:0:
253,115,35579,6,0,B|364:92|364:92|344:80|328:84,1,140,0|8,3:0|0:0,0:0:0:0:
168,68,36236,1,0,3:0:0:0:
72,88,36455,2,0,L|60:19,1,70,0|0,0:0|3:0,0:0:0:0:
132,164,36893,2,0,L|124:198,2,35,8|0|0,0:0|3:0|3:0,0:0:0:0:
195,288,37331,6,0,P|243:324|196:362,1,140,0|8,3:0|0:0,0:0:0:0:
332,360,37988,1,0,3:0:0:0:
332,360,38097,1,0,0:0:0:0:
332,360,38207,2,0,P|368:364|404:360,1,70,0|0,0:0|3:0,0:0:0:0:
195,286,38645,2,0,P|161:283|126:285,1,70,8|0,0:0|0:0,0:0:0:0:
292,264,39083,6,0,B|308:192|272:192|291:125,1,140,0|8,3:0|0:0,0:0:0:0:
332,48,39740,1,0,3:0:0:0:
400,156,39959,2,0,P|432:160|472:156,1,70,0|0,0:0|3:0,0:0:0:0:
291,126,40397,2,0,P|283:158|291:195,1,70,8|0,0:0|0:0,0:0:0:0:
332,48,40835,6,0,B|292:40|292:40|192:47,1,140,0|8,3:0|0:0,0:0:0:0:
152,140,41492,1,0,3:0:0:0:
152,140,41601,1,0,0:0:0:0:
151,140,41711,2,0,P|121:121|102:91,1,70,0|0,0:0|3:0,0:0:0:0:
216,220,42149,2,0,P|184:235|149:239,1,70,8|0,0:0|0:0,0:0:0:0:
296,180,42586,6,0,B|300:220|300:220|292:284|292:284|296:320,1,140,0|8,3:0|0:0,0:0:0:0:
388,284,43243,1,0,3:0:0:0:
216,220,43462,2,0,B|180:217|180:217|146:220,1,70,0|0,0:0|3:0,0:0:0:0:
296,180,43900,1,8,0:0:0:0:
296,180,44010,1,0,3:0:0:0:
296,180,44119,1,0,3:0:0:0:
404,240,44338,6,0,P|424:176|392:108,1,140,0|8,3:0|0:0,0:0:0:0:
300,80,44995,1,0,3:0:0:0:
432,16,45214,2,0,B|468:12|468:12|501:15,1,70,0|0,0:0|3:0,0:0:0:0:
300,80,45652,2,0,B|264:84|264:84|228:80,1,70,8|0,0:0|0:0,0:0:0:0:
60,111,46090,6,0,P|90:59|124:108,1,140,0|8,3:0|0:0,0:0:0:0:
140,204,46747,1,0,3:0:0:0:
140,204,46857,1,0,0:0:0:0:
140,204,46966,1,0,0:0:0:0:
60,111,47185,1,0,3:0:0:0:
28,220,47404,2,0,B|24:252|24:252|28:296,1,70,8|0,0:0|0:0,0:0:0:0:
228,353,47842,6,0,P|163:331|100:356,1,140,0|8,3:0|0:0,0:0:0:0:
176,264,48499,1,0,3:0:0:0:
80,372,48718,1,0,0:0:0:0:
28,220,48937,1,0,3:0:0:0:
252,360,49156,2,0,B|285:363|285:363|321:359,1,70,8|0,0:0|0:0,0:0:0:0:
419,237,49594,6,0,B|427:281|427:281|420:376,1,140,0|8,3:0|0:0,0:0:0:0:
320,236,50251,1,0,3:0:0:0:
320,236,50360,1,0,0:0:0:0:
320,236,50470,2,0,B|316:200|316:200|319:166,1,70,0|0,0:0|3:0,0:0:0:0:
448,16,50908,1,8,0:0:0:0:
448,16,51017,1,0,3:0:0:0:
448,16,51127,1,0,3:0:0:0:
320,68,51346,6,0,B|392:68|372:112|447:115,1,140,0|8,3:0|0:0,0:0:0:0:
448,16,52003,1,0,3:0:0:0:
496,200,52222,2,0,L|488:276,1,70,0|0,0:0|3:0,0:0:0:0:
368,376,52659,2,0,L|361:307,1,70,8|0,0:0|0:0,0:0:0:0:
213,199,53097,6,0,B|256:192|256:192|352:200,1,140,0|8,3:0|0:0,0:0:0:0:
260,284,53754,1,0,3:0:0:0:
148,128,53973,2,0,P|140:94|145:59,1,70,0|0,0:0|3:0,0:0:0:0:
240,92,54411,1,8,0:0:0:0:
52,116,54630,1,0,0:0:0:0:
264,88,54849,6,0,L|408:72,1,140,0|8,3:0|0:0,0:0:0:0:
496,208,55506,1,0,0:0:0:0:
496,208,55616,1,0,0:0:0:0:
496,208,55725,2,0,L|427:204,1,70,0|0,0:0|3:0,0:0:0:0:
232,192,56163,1,8,0:0:0:0:
267,301,56382,1,0,0:0:0:0:
299,97,56601,5,0,3:0:0:0:
263,321,56820,1,0,0:0:0:0:
216,180,57039,1,8,0:0:0:0:
380,268,57258,1,0,3:0:0:0:
136,163,57477,2,0,P|149:132|175:109,1,70,2|0,0:0|3:0,0:0:0:0:
80,244,57915,1,8,0:0:0:0:
60,244,58024,1,0,3:0:0:0:
40,244,58134,1,0,3:0:0:0:
140,328,58353,6,0,P|213:315|285:328,2,146.999995513916,0|0|8,3:0|3:0|0:0,0:0:0:0:
288,240,60105,2,0,B|296:176|296:176|288:143,1,97.9999970092774,0|0,3:0|3:0,0:0:0:0:
348,64,60762,2,0,B|381:72|381:72|445:64,1,97.9999970092774,0|0,3:0|3:0,0:0:0:0:
460,156,61419,1,8,0:0:0:0:
460,156,61857,6,0,P|472:228|460:304,2,146.999995513916,0|0|8,3:0|3:0|0:0,0:0:0:0:
276,220,63608,6,0,L|224:220,2,48.9999985046387,0|0|0,3:0|0:0|0:0,0:0:0:0:
208,148,64265,2,0,B|172:140|172:140|108:148,1,97.9999970092774,0|0,3:0|3:0,0:0:0:0:
168,228,64922,1,8,0:0:0:0:
352,296,65360,6,0,B|356:324|356:324|352:348,2,48.9999985046387,0|0|0,3:0|0:0|0:0,0:0:0:0:
292,220,66017,1,0,3:0:0:0:
356,144,66236,2,0,P|376:140|405:144,1,48.9999985046387
292,220,66674,2,0,P|272:224|243:220,1,48.9999985046387,8|0,0:0|0:0,0:0:0:0:
152,180,67112,6,0,B|144:212|144:212|152:276,1,97.9999970092774,0|0,3:0|0:0,0:0:0:0:
184,368,67769,2,0,B|144:360|144:360|84:368,1,97.9999970092774,0|0,3:0|3:0,0:0:0:0:
60,272,68426,1,8,0:0:0:0:
60,272,68864,6,0,B|41:197|80:198|60:126,2,146.999995513916,0|0|8,3:0|3:0|0:0,0:0:0:0:
252,236,70616,6,0,L|300:236,2,48.9999985046387,0|0|0,3:0|0:0|0:0,0:0:0:0:
180,168,71273,1,0,3:0:0:0:
232,84,71492,2,0,P|236:56|232:28,1,48.9999985046387,0|0,0:0|3:0,0:0:0:0:
140,60,71930,1,8,0:0:0:0:
140,60,72367,6,0,B|188:68|188:68|286:60,2,146.999995513916,0|0|8,3:0|3:0|0:0,0:0:0:0:
328,140,74119,6,0,P|364:108|376:58,1,97.9999970092774,0|0,3:0|0:0,0:0:0:0:
286,59,74776,2,0,L|189:76,1,97.9999970092774,0|0,3:0|3:0,0:0:0:0:
80,92,75433,1,8,0:0:0:0:
80,92,75871,6,0,B|60:164|100:164|80:240,2,146.999995513916,0|0|8,3:0|3:0|0:0,0:0:0:0:
96,324,77623,6,0,B|132:332|132:332|192:324,1,97.9999970092774,0|0,3:0|0:0,0:0:0:0:
288,340,78280,2,0,B|348:328|348:328|384:340,1,97.9999970092774,0|0,3:0|3:0,0:0:0:0:
472,376,78937,1,8,0:0:0:0:
332,240,79375,6,0,P|328:216|332:192,2,48.9999985046387,0|0|0,3:0|0:0|0:0,0:0:0:0:
436,212,80032,1,0,3:0:0:0:
408,116,80251,2,0,L|412:68,1,48.9999985046387
308,12,80689,2,0,L|312:60,1,48.9999985046387,8|0,0:0|0:0,0:0:0:0:
240,128,81127,6,0,B|200:132|200:132|140:128,1,97.9999970092774,0|0,3:0|0:0,0:0:0:0:
48,108,81784,2,0,B|40:176|40:176|44:208,1,97.9999970092774,0|0,0:0|3:0,0:0:0:0:
60,304,82440,1,8,0:0:0:0:
60,304,82878,6,0,P|132:292|204:304,2,146.999995513916,0|0|8,3:0|3:0|0:0,0:0:0:0:
296,332,84630,5,2,0:0:0:0:
212,208,84849,1,2,0:0:0:0:
212,208,84959,1,2,0:0:0:0:
212,208,85068,1,2,0:0:0:0:
204,304,85287,1,2,0:0:0:0:
338,246,85506,2,0,B|378:242|378:242|397:244,1,59.5000011348725,0|2,0:0|0:0,0:0:0:0:
496,292,85944,1,8,0:0:0:0:
496,292,86382,6,0,L|488:148,1,140,0|8,0:0|0:0,0:0:0:0:
452,76,87039,1,0,3:0:0:0:
380,116,87258,2,0,P|344:124|312:116,1,70
209,40,87696,1,8,0:0:0:0:
209,40,88134,6,0,B|280:56|280:24|348:40,1,140,0|8,0:0|0:0,0:0:0:0:
404,104,88791,1,0,3:0:0:0:
484,80,89010,2,0,B|488:44|488:44|485:11,1,70,0|0,0:0|3:0,0:0:0:0:
404,104,89448,2,0,B|400:140|400:140|404:173,1,70,8|0,0:0|0:0,0:0:0:0:
488,331,89886,6,0,P|469:267|404:256,1,140,0|8,3:0|0:0,0:0:0:0:
324,288,90543,1,0,3:0:0:0:
280,216,90762,2,0,L|269:146,1,70
404,104,91200,2,0,L|394:174,1,70,8|0,0:0|0:0,0:0:0:0:
180,276,91638,6,0,L|157:138,1,140,0|8,0:0|0:0,0:0:0:0:
140,56,92294,1,0,3:0:0:0:
240,156,92513,2,0,P|274:162|308:156,1,70,0|0,0:0|3:0,0:0:0:0:
411,34,92951,2,0,L|404:104,1,70,8|0,0:0|0:0,0:0:0:0:
399,247,93389,6,0,P|428:200|448:256,1,140,0|8,3:0|0:0,0:0:0:0:
332,176,94046,2,0,B|288:168|288:168|193:176,1,140,0|0,3:0|0:0,0:0:0:0:
28,164,94703,2,0,L|20:94,1,70,8|0,0:0|0:0,0:0:0:0:
108,208,95141,6,0,L|92:347,1,140,0|8,3:0|0:0,0:0:0:0:
323,317,95798,2,0,B|275:309|275:309|185:317,1,140,0|0,3:0|3:0,0:0:0:0:
417,346,96455,2,0,L|426:274,1,70,8|0,0:0|0:0,0:0:0:0:
324,142,96893,6,0,L|332:211,1,70,0|0,3:0|0:0,0:0:0:0:
212,208,97331,2,0,B|178:212|178:212|142:208,1,70,8|0,0:0|3:0,0:0:0:0:
16,288,97769,2,0,B|50:284|50:284|86:288,1,70
180,132,98207,1,8,0:0:0:0:
212,208,98426,1,0,0:0:0:0:
204,52,98645,6,0,P|136:20|56:32,1,140,0|8,3:0|0:0,0:0:0:0:
24,96,99302,1,0,3:0:0:0:
114,180,99521,2,0,L|44:176,1,70,0|0,0:0|3:0,0:0:0:0:
134,260,99959,1,8,0:0:0:0:
134,260,100397,6,0,B|174:268|174:268|274:260,1,140,0|8,3:0|0:0,0:0:0:0:
316,188,101054,1,0,3:0:0:0:
400,280,101273,2,0,L|480:272,1,70
388,368,101711,1,8,0:0:0:0:
388,368,102149,6,0,B|317:352|317:384|249:368,1,140,0|8,0:0|0:0,0:0:0:0:
212,292,102806,1,0,3:0:0:0:
228,208,103025,2,0,B|244:136,1,70,0|0,0:0|3:0,0:0:0:0:
100,108,103462,2,0,B|116:177,1,70,8|0,0:0|0:0,0:0:0:0:
332,256,103900,6,0,L|364:112,1,140,0|8,3:0|0:0,0:0:0:0:
380,36,104558,1,0,3:0:0:0:
432,168,104777,2,0,B|468:172|468:172|501:168,1,70
362,119,105214,2,0,B|326:115|326:115|292:118,1,70,8|0,0:0|0:0,0:0:0:0:
119,131,105652,6,0,P|164:181|231:176,1,140,0|8,3:0|0:0,0:0:0:0:
102,47,106309,2,0,P|46:85|37:152,1,140,0|0,3:0|3:0,0:0:0:0:
184,76,106966,2,0,P|188:28|180:4,1,70,8|0,0:0|0:0,0:0:0:0:
119,131,107404,6,0,B|111:175|111:175|119:270,1,140,0|8,3:0|0:0,0:0:0:0:
144,352,108061,1,0,3:0:0:0:
188,184,108280,1,0,0:0:0:0:
36,124,108499,1,0,0:0:0:0:
196,192,108718,2,0,B|228:196|228:196|268:192,1,70,8|0,0:0|0:0,0:0:0:0:
412,148,109156,5,0,3:0:0:0:
228,92,109375,1,0,0:0:0:0:
308,228,109594,1,8,0:0:0:0:
456,72,109813,2,0,B|416:64|416:64|316:72,1,140,0|0,3:0|3:0,0:0:0:0:
308,228,110470,2,0,L|377:223,1,70,8|0,0:0|0:0,0:0:0:0:
264,148,110908,6,0,P|229:151|194:147,1,70,0|0,3:0|0:0,0:0:0:0:
104,24,111346,2,0,L|115:94,1,70,8|0,0:0|3:0,0:0:0:0:
20,200,111784,2,0,L|31:131,1,70,0|0,3:0|0:0,0:0:0:0:
175,224,112222,1,8,0:0:0:0:
90,266,112441,1,0,0:0:0:0:
260,272,112659,6,0,P|296:312|260:344,1,105,0|0,3:0|0:0,0:0:0:0:
256,360,113097,2,0,L|332:360,1,70,8|0,0:0|3:0,0:0:0:0:
368,236,113535,1,0,0:0:0:0:
208,152,113754,1,0,3:0:0:0:
300,14,113973,2,0,P|275:39|263:71,1,70,8|0,0:0|0:0,0:0:0:0:
208,248,114411,6,0,B|208:280|208:280|256:272|280:216|256:160|208:152|208:152|312:192|312:112|424:152,1,420,2|0,0:0|0:0,0:0:0:0:
256,192,116163,12,2,117696,0:0:0:0:
256,264,117915,6,0,B|264:168|264:168|256:125,1,140,6|8,0:0|0:0,0:0:0:0:
352,240,118572,1,0,3:0:0:0:
352,240,118681,1,0,0:0:0:0:
352,240,118791,2,0,L|421:236,1,70,0|0,0:0|3:0,0:0:0:0:
168,172,119229,2,0,L|98:168,1,70,8|0,0:0|0:0,0:0:0:0:
256,125,119667,6,0,P|305:89|256:54,1,140,0|8,3:0|0:0,0:0:0:0:
80,92,120323,1,0,3:0:0:0:
256,125,120542,1,0,0:0:0:0:
136,12,120761,1,0,3:0:0:0:
108,184,120981,2,0,P|141:191|175:185,1,70,8|0,0:0|0:0,0:0:0:0:
394,126,121419,6,0,B|304:117|304:117|256:125,1,140,0|8,3:0|0:0,0:0:0:0:
452,208,122075,1,0,3:0:0:0:
472,196,122185,1,0,0:0:0:0:
488,180,122294,2,0,L|497:110,1,70,0|0,0:0|3:0,0:0:0:0:
376,252,122732,2,0,L|385:321,1,70,8|0,0:0|0:0,0:0:0:0:
308,172,123170,6,0,P|243:147|179:172,1,140,0|8,3:3|0:0,0:3:0:0:
244,244,123827,1,0,3:0:0:0:
123,90,124046,2,0,B|116:51|116:51|121:21,1,70,0|0,0:0|3:0,0:0:0:0:
73,175,124484,2,0,L|27:162,2,35,8|0|0,0:0|3:0|3:0,0:0:0:0:
244,244,124922,6,0,B|252:156|252:156|244:104,1,140,0|8,3:0|0:0,0:0:0:0:
120,80,125579,1,0,3:0:0:0:
100,76,125688,1,0,0:0:0:0:
80,72,125798,2,0,L|11:58,1,70,0|0,0:0|3:0,0:0:0:0:
184,156,126236,2,0,L|176:225,1,70,8|0,0:0|0:0,0:0:0:0:
260,96,126674,6,0,B|328:72|328:116|397:96,1,140,0|8,3:0|0:0,0:0:0:0:
496,12,127331,2,0,L|472:168,1,140,0|0,3:0|3:0,0:0:0:0:
408,224,127988,2,0,B|368:228|368:228|338:224,1,70,8|0,0:0|0:0,0:0:0:0:
152,288,128426,6,0,P|214:260|275:289,1,140,0|8,3:0|0:0,0:0:0:0:
96,369,129083,1,0,3:0:0:0:
80,357,129192,1,0,0:0:0:0:
68,341,129302,2,0,L|52:269,1,70,0|0,0:0|3:0,0:0:0:0:
232,172,129740,2,0,L|221:241,1,70,8|0,0:0|0:0,0:0:0:0:
96,160,130178,6,0,B|104:60|104:60|96:21,1,140,0|8,3:0|0:0,0:0:0:0:
8,68,130834,1,0,3:0:0:0:
192,144,131054,2,0,P|226:145|258:131,1,70,0|0,0:0|3:0,0:0:0:0:
336,68,131492,1,8,0:0:0:0:
336,48,131601,1,0,3:0:0:0:
336,28,131711,1,0,3:0:0:0:
327,247,131929,6,0,P|355:186|422:179,1,140,0|8,3:0|0:0,0:0:0:0:
324,348,132586,1,0,3:0:0:0:
304,344,132696,1,0,0:0:0:0:
285,340,132805,2,0,P|244:340|216:364,1,70,0|0,0:0|3:0,0:0:0:0:
52,264,133243,2,0,P|86:266|115:247,1,70,8|0,0:0|0:0,0:0:0:0:
212,112,133681,6,0,B|216:144|216:144|208:216|208:216|212:252,1,140,0|8,3:0|0:0,0:0:0:0:
304,212,134338,1,0,3:0:0:0:
304,212,134447,1,0,0:0:0:0:
304,212,134557,1,0,0:0:0:0:
120,148,134776,1,0,3:0:0:0:
308,95,134995,2,0,P|297:62|273:37,1,70,8|0,0:0|0:0,0:0:0:0:
364,160,135433,6,0,B|432:184|432:136|500:160,1,140,0|8,3:0|0:0,0:0:0:0:
396,68,136090,1,0,3:0:0:0:
468,252,136309,1,0,0:0:0:0:
336,152,136528,1,0,3:0:0:0:
436,343,136747,2,0,P|469:352|503:343,1,70,8|0,0:0|0:0,0:0:0:0:
352,304,137185,6,0,B|296:276|248:308|248:308|278:312,1,140,0|8,3:0|0:0,0:0:0:0:
240,216,137842,1,0,3:0:0:0:
144,196,138061,2,0,B|108:192|108:192|72:196,1,70,0|0,0:0|3:0,0:0:0:0:
216,12,138499,1,8,0:0:0:0:
216,12,138608,1,0,3:0:0:0:
216,12,138718,1,0,3:0:0:0:
112,104,138937,6,0,B|148:100|148:100|216:108|216:108|252:104,1,140,0|8,3:0|0:0,0:0:0:0:
332,48,139594,1,0,3:0:0:0:
408,228,139813,2,0,L|477:220,1,70,0|0,0:0|3:0,0:0:0:0:
356,144,140251,2,0,L|286:136,1,70,8|0,0:0|0:0,0:0:0:0:
100,160,140689,6,0,P|145:210|212:200,1,140,0|8,3:0|0:0,0:0:0:0:
264,120,141345,1,0,3:0:0:0:
408,228,141565,2,0,P|442:235|476:228,1,70,0|2,0:0|0:0,0:0:0:0:
356,144,142002,1,8,0:0:0:0:
312,232,142221,1,0,0:0:0:0:
308,60,142440,6,0,B|268:52|268:52|169:62,1,140,0|8,3:0|0:0,0:0:0:0:
36,176,143097,1,0,3:0:0:0:
36,176,143207,1,0,0:0:0:0:
36,176,143316,2,0,B|62:180|62:180|106:176,1,70,0|0,0:0|3:0,0:0:0:0:
201,153,143754,1,8,0:0:0:0:
66,100,143973,1,0,0:0:0:0:
126,260,144192,5,0,3:0:0:0:
190,168,144411,1,0,0:0:0:0:
126,280,144630,1,8,0:0:0:0:
62,84,144849,1,0,0:0:0:0:
290,180,145068,2,0,B|318:184|318:184|362:180,1,70,2|0,0:0|0:0,0:0:0:0:
432,56,145506,2,0,L|472:56,2,35,8|0|0,0:0|3:0|3:0,0:0:0:0:
190,168,145944,6,0,B|182:96,1,70,6|0,0:0|0:0,0:0:0:0:
290,180,146382,2,0,B|318:184|318:184|359:180,1,70,8|0,0:0|3:0,0:0:0:0:
394,174,146711,1,0,0:0:0:0:
394,174,146820,1,0,0:0:0:0:
248,92,147039,1,0,3:0:0:0:
224,259,147258,2,0,P|189:267|155:261,1,70,8|0,0:0|0:0,0:0:0:0:
312,216,147696,6,0,L|296:355,1,140,0|8,3:0|0:0,0:0:0:0:
392,372,148353,1,0,3:0:0:0:
436,283,148572,2,0,P|466:267|501:262,1,70,2|0,0:0|3:0,0:0:0:0:
256,176,149010,2,0,P|238:146|209:126,1,70,8|0,0:0|0:0,0:0:0:0:
336,292,149448,6,0,L|351:152,1,140,0|8,3:0|0:0,0:0:0:0:
240,272,150105,1,0,3:0:0:0:
240,272,150214,1,0,0:0:0:0:
240,272,150324,2,0,P|210:291|176:297,1,70,0|0,0:0|3:0,0:0:0:0:
420,344,150762,2,0,P|454:350|483:369,1,70,8|0,0:0|0:0,0:0:0:0:
336,292,151200,6,0,L|351:152,1,140,0|8,3:0|0:0,0:0:0:0:
280,88,151857,1,0,3:0:0:0:
186,184,152076,2,0,L|256:184,1,70,0|0,0:0|3:0,0:0:0:0:
436,200,152513,1,8,0:0:0:0:
436,200,152623,1,0,3:0:0:0:
436,200,152732,1,0,3:0:0:0:
280,87,152951,6,0,P|299:59|328:40,1,70,2|0,0:0|0:0,0:0:0:0:
199,143,153389,2,0,P|185:112|183:77,1,70,8|0,0:0|3:0,0:0:0:0:
185,55,153718,1,0,0:0:0:0:
191,35,153827,1,0,0:0:0:0:
288,184,154046,1,0,3:0:0:0:
162,264,154265,2,0,L|232:264,1,70,8|0,0:0|0:0,0:0:0:0:
403,347,154703,6,0,P|341:319|280:347,1,140,0|8,3:0|0:0,0:0:0:0:
500,368,155360,1,0,3:0:0:0:
464,276,155579,2,0,L|472:204,1,70,2|0,0:0|3:0,0:0:0:0:
324,112,156017,2,0,L|331:181,1,70,8|0,0:0|0:0,0:0:0:0:
232,72,156455,6,0,B|188:64|188:64|93:71,1,140,0|8,3:0|0:0,0:0:0:0:
311,129,157112,1,0,3:0:0:0:
323,111,157221,1,0,3:0:0:0:
329,90,157331,2,0,L|335:20,1,70,0|0,0:0|3:0,0:0:0:0:
220,172,157769,2,0,L|226:241,1,70,8|0,0:0|0:0,0:0:0:0:
187,75,158207,6,0,P|153:68|120:76,2,70,0|0|8,3:0|0:0|0:0,0:0:0:0:
52,148,158864,1,0,3:0:0:0:
36,132,158973,1,0,0:0:0:0:
26,113,159083,2,0,L|14:41,1,70,0|0,0:0|3:0,0:0:0:0:
116,208,159521,1,8,0:0:0:0:
112,228,159630,1,0,3:0:0:0:
108,248,159740,1,0,3:0:0:0:
173,130,159959,6,0,B|245:106|245:154|316:132,2,146.999995513916,0|0|8,3:0|3:0|0:0,0:0:0:0:
356,220,161711,6,0,P|400:184|412:144,1,97.9999970092774,0|0,3:0|0:0,0:0:0:0:
480,28,162368,2,0,L|487:125,1,97.9999970092774,0|0,3:0|3:0,0:0:0:0:
500,224,163025,1,8,0:0:0:0:
500,224,163463,6,0,B|400:236|400:236|348:224,2,146.999995513916,0|0|8,3:0|3:0|0:0,0:0:0:0:
328,316,165214,6,0,L|279:316,2,48.9999985046387,0|2|2,3:0|0:0|0:0,0:0:0:0:
212,244,165871,2,0,B|172:240|172:240|114:244,1,97.9999970092774,0|0,3:0|3:0,0:0:0:0:
16,260,166528,1,8,0:0:0:0:
88,76,166966,6,0,L|92:24,2,48.9999985046387,0|0|0,3:0|0:0|0:0,0:0:0:0:
164,140,167623,1,0,3:0:0:0:
256,104,167842,2,0,L|300:80,1,48.9999985046387
324,176,168280,2,0,L|376:172,1,48.9999985046387,8|0,0:0|0:0,0:0:0:0:
264,256,168718,6,0,B|224:260|224:260|166:256,1,97.9999970092774,0|0,3:0|0:0,0:0:0:0:
56,200,169375,2,0,L|68:304,1,97.9999970092774,0|0,3:0|3:0,0:0:0:0:
132,372,170032,1,8,0:0:0:0:
132,372,170470,6,0,B|204:388|204:356|280:372,2,146.999995513916,0|0|8,3:0|3:0|0:0,0:0:0:0:
308,284,172222,6,0,L|372:288,2,48.9999985046387,0|2|2,3:0|0:0|0:0,0:0:0:0:
212,272,172879,1,0,3:0:0:0:
268,192,173098,2,0,P|272:160|268:132,1,48.9999985046387,0|0,0:0|3:0,0:0:0:0:
185,45,173536,1,8,0:0:0:0:
185,45,173973,6,0,B|85:41|85:41|37:45,2,146.999995513916,0|0|8,3:0|3:0|0:0,0:0:0:0:
386,159,175725,6,0,P|431:174|477:161,1,97.9999970092774,0|0,3:0|0:0,0:0:0:0:
310,95,176382,2,0,L|302:211,1,97.9999970092774,0|0,3:0|3:0,0:0:0:0:
298,291,177039,1,8,0:0:0:0:
298,291,177477,6,0,L|246:279,1,48.9999985046387,0|2,3:0|0:0,0:0:0:0:
146,210,177915,2,0,L|194:199,1,48.9999985046387,2|0,0:0|3:0,0:0:0:0:
274,95,178353,1,0,0:0:0:0:
218,191,178572,1,0,0:0:0:0:
342,175,178791,2,0,L|390:175,1,48.9999985046387,8|0,0:0|0:0,0:0:0:0:
274,95,179229,6,0,B|246:91|246:91|206:99|206:99|174:95,1,97.9999970092774,0|0,3:0|0:0,0:0:0:0:
86,27,179886,2,0,L|98:125,1,97.9999970092774,0|0,3:0|3:0,0:0:0:0:
114,223,180543,1,8,0:0:0:0:
310,231,180981,6,0,L|358:231,2,48.9999985046387,0|2|2,3:0|0:0|0:0,0:0:0:0:
210,239,181638,1,0,3:0:0:0:
178,147,181857,2,0,L|170:95,1,48.9999985046387
273,34,182294,2,0,L|266:83,1,48.9999985046387,8|0,0:0|0:0,0:0:0:0:
376,159,182733,6,0,L|362:63,1,97.9999970092774,0|0,3:0|0:0,0:0:0:0:
322,231,183389,2,0,P|370:248|415:238,1,97.9999970092774,0|0,3:0|3:0,0:0:0:0:
474,159,184046,1,8,0:0:0:0:
474,159,184484,6,0,L|478:311,2,146.999995513916,0|0|8,3:0|3:0|0:0,0:0:0:0:
306,179,186236,6,0,B|254:179|254:179|258:173,1,59.5000011348725,2|0,0:0|0:0,0:0:0:0:
303,104,186565,2,0,B|355:104|355:104|350:109,1,59.5000011348725,2|0,0:0|0:0,0:0:0:0:
306,179,186893,1,2,0:0:0:0:
228,104,187112,2,0,B|208:100|208:100|164:104,1,59.5000011348725,2|2,0:0|0:0,0:0:0:0:
28,136,187550,1,8,0:0:0:0:
28,136,187988,6,0,B|48:204|16:204|28:276,1,140,0|8,3:0|0:0,0:0:0:0:
96,328,188645,1,0,3:0:0:0:
182,244,188864,2,0,L|112:244,1,70
232,176,189302,1,8,0:0:0:0:
232,176,189740,6,0,B|300:160|300:192|371:177,1,140,0|8,3:0|0:0,0:0:0:0:
268,252,190397,1,0,3:0:0:0:
336,96,190616,2,0,B|328:26,1,70,0|0,0:0|3:0,0:0:0:0:
456,172,191054,2,0,B|448:241,1,70,8|0,0:0|0:0,0:0:0:0:
380,349,191492,6,0,P|331:319|384:296,1,140,0|8,3:0|0:0,0:0:0:0:
248,320,192149,1,0,3:0:0:0:
168,340,192368,2,0,P|132:344|100:364,1,70,0|0,0:0|3:0,0:0:0:0:
248,320,192805,2,0,P|231:287|202:264,1,70,8|0,0:0|0:0,0:0:0:0:
19,217,193244,6,0,B|36:211|51:193|51:193|82:226|144:212,1,140,0|8,3:0|0:0,0:0:0:0:
56,292,193900,1,0,3:0:0:0:
109,135,194119,2,0,L|95:66,1,70,0|0,0:0|3:0,0:0:0:0:
260,16,194557,2,0,L|246:84,1,70,8|0,0:0|0:0,0:0:0:0:
240,240,194995,6,0,P|252:175|317:167,1,140,0|8,3:0|0:0,0:0:0:0:
160,208,195652,2,0,B|108:216|108:216|20:208,1,140,0|0,3:0|0:0,0:0:0:0:
107,75,196309,2,0,P|119:107|108:139,1,70,8|0,0:0|0:0,0:0:0:0:
36,32,196747,6,0,L|176:32,1,140,0|8,3:0|0:0,0:0:0:0:
362,89,197404,2,0,P|300:116|238:89,1,140,0|0,3:0|0:0,0:0:0:0:
437,50,198061,2,0,L|435:132,1,70,8|0,0:0|0:0,0:0:0:0:
311,234,198499,6,0,P|276:233|242:225,1,70,0|0,3:0|0:0,0:0:0:0:
392,328,198937,2,0,P|357:327|323:335,1,70,8|0,0:0|3:0,0:0:0:0:
472,232,199375,2,0,B|481:200|472:162,1,70
352,44,199813,1,8,0:0:0:0:
468,144,200032,1,0,0:0:0:0:
284,136,200251,6,0,B|212:116|212:156|145:136,1,140,0|8,3:0|0:0,0:0:0:0:
248,212,200908,1,0,3:0:0:0:
180,60,201127,2,0,P|146:51|112:59,1,70,0|0,0:0|3:0,0:0:0:0:
68,192,201565,1,8,0:0:0:0:
68,192,202003,6,0,B|60:248|60:248|68:332,1,140,0|8,3:0|0:0,0:0:0:0:
140,372,202660,1,0,3:0:0:0:
250,300,202879,2,0,L|180:300,1,70
320,252,203317,1,8,0:0:0:0:
320,252,203755,6,0,B|336:184|304:184|320:112,1,140,0|8,3:0|0:0,0:0:0:0:
340,32,204412,1,0,3:0:0:0:
396,152,204631,2,0,P|429:159|464:156,1,70,0|0,0:0|3:0,0:0:0:0:
319,113,205068,2,0,P|285:105|250:108,1,70,8|0,0:0|0:0,0:0:0:0:
72,177,205507,6,0,P|134:204|196:175,1,140,0|8,3:0|0:0,0:0:0:0:
134,118,206164,1,0,3:0:0:0:
84,280,206383,2,0,L|14:280,1,70
148,336,206820,2,0,P|166:298|165:260,1,70,8|0,0:0|0:0,0:0:0:0:
220,84,207259,6,0,L|236:224,1,140,0|8,3:0|0:0,0:0:0:0:
248,308,207915,1,0,3:0:0:0:
328,152,208134,2,0,P|356:131|390:125,1,70,0|0,0:0|3:0,0:0:0:0:
220,84,208572,2,0,P|185:77|157:57,1,70,8|0,0:0|0:0,0:0:0:0:
336,12,209010,6,0,L|327:152,1,140,0|8,3:0|0:0,0:0:0:0:
324,236,209667,1,0,3:0:0:0:
220,84,209886,1,0,0:0:0:0:
416,120,210105,1,0,0:0:0:0:
224,192,210324,2,0,B|176:196|176:196|152:192,1,70,8|0,0:0|0:0,0:0:0:0:
320,168,210762,6,0,B|328:268|328:268|320:324,1,140,0|8,3:0|0:0,0:0:0:0:
224,192,211419,2,0,P|226:123|275:76,1,140,0|0,3:0|3:0,0:0:0:0:
440,76,212076,1,8,0:0:0:0:
300,4,212295,1,0,0:0:0:0:
320,168,212514,6,0,L|392:184,1,70,0|0,3:0|0:0,0:0:0:0:
212,123,212951,2,0,L|143:138,1,70,8|0,0:0|3:0,0:0:0:0:
300,80,213390,2,0,B|304:44|304:44|300:8,1,70
214,44,213828,1,8,0:0:0:0:
389,34,214047,1,0,0:0:0:0:
190,48,214265,6,0,B|110:56|110:56|86:56,1,105,0|0,3:0|3:0,0:0:0:0:
66,48,214703,2,0,L|74:133,1,70,8|0,0:0|3:0,0:0:0:0:
88,264,215141,1,0,0:0:0:0:
220,144,215360,1,0,3:0:0:0:
392,244,215579,2,0,P|358:255|324:255,1,70,8|0,0:0|0:0,0:0:0:0:
168,215,216017,6,0,B|128:171|204:79|284:171|248:219|248:219|220:287|272:287|252:367|252:367|228:343|188:351,1,420,2|0,0:0|0:0,0:0:0:0:
256,192,217769,12,2,219302,0:0:0:0:
212,132,219521,6,0,B|302:123|302:123|350:131,1,140,6|8,0:0|0:0,0:0:0:0:
154,214,220177,1,0,3:0:0:0:
134,202,220287,1,0,0:0:0:0:
118,186,220397,2,0,L|109:116,1,70,0|0,0:0|3:0,0:0:0:0:
242,258,220835,2,0,L|233:327,1,70,8|0,0:0|0:0,0:0:0:0:
336,200,221273,6,0,B|376:192|376:192|474:199,1,140,0|8,3:0|0:0,0:0:0:0:
356,104,221929,1,0,3:0:0:0:
384,288,222148,1,0,0:0:0:0:
496,204,222367,1,0,3:0:0:0:
286,280,222586,2,0,B|242:284|242:284|214:280,1,70,8|0,0:0|0:0,0:0:0:0:
281,94,223024,6,0,B|331:83|387:95|387:95|371:103|355:103,1,140,0|8,3:0|0:0,0:0:0:0:
184,84,223681,1,0,3:0:0:0:
164,80,223790,1,0,0:0:0:0:
144,76,223900,2,0,L|75:62,1,70,0|0,0:0|3:0,0:0:0:0:
228,172,224338,2,0,L|220:241,1,70,8|0,0:0|0:0,0:0:0:0:
376,160,224776,6,0,L|360:20,1,140,0|8,3:0|0:0,0:0:0:0:
280,76,225433,1,0,3:0:0:0:
344,244,225652,2,0,P|378:250|411:242,1,70,0|0,0:0|3:0,0:0:0:0:
256,200,226090,1,8,0:0:0:0:
236,204,226200,1,0,3:0:0:0:
216,208,226309,1,0,3:0:0:0:
248,56,226528,6,0,B|136:72|136:72|176:84,1,140,0|8,3:0|0:0,0:0:0:0:
319,126,227184,1,0,3:0:0:0:
336,111,227294,1,0,0:0:0:0:
349,92,227404,2,0,L|345:21,1,70,0|0,0:0|3:0,0:0:0:0:
492,104,227842,2,0,L|488:174,1,70,8|0,0:0|0:0,0:0:0:0:
477,333,228280,6,0,P|428:301|479:271,1,140,0|8,3:0|0:0,0:0:0:0:
336,308,228937,2,0,B|264:324|264:292|196:308,1,140,0|0,3:0|0:0,0:0:0:0:
104,332,229594,2,0,L|88:256,1,70,8|0,0:0|0:0,0:0:0:0:
188,132,230032,6,0,B|196:172|196:172|188:280,1,140,0|8,3:0|0:0,0:0:0:0:
140,48,230689,1,0,3:0:0:0:
160,40,230798,1,0,0:0:0:0:
180,36,230908,2,0,P|212:40|252:36,1,70,0|0,0:0|3:0,0:0:0:0:
424,16,231346,2,0,L|420:88,1,70,8|0,0:0|0:0,0:0:0:0:
328,240,231784,6,0,B|316:200|316:200|323:100,1,140,0|8,3:0|0:0,0:0:0:0:
340,20,232440,1,0,3:0:0:0:
415,191,232659,2,0,P|449:200|483:192,1,70,0|0,0:0|3:0,0:0:0:0:
324,152,233098,2,0,L|289:152,2,35,8|0|0,0:0|3:0|3:0,0:0:0:0:
200,80,233535,6,0,P|172:148|196:216,1,140,0|8,3:0|0:0,0:0:0:0:
338,272,234192,1,0,3:0:0:0:
338,272,234302,1,0,0:0:0:0:
338,272,234411,2,0,B|300:276|300:276|268:272,1,70,0|0,0:0|3:0,0:0:0:0:
124,336,234849,2,0,B|162:332|162:332|194:336,1,70,8|0,0:0|0:0,0:0:0:0:
59,251,235287,6,0,P|22:310|29:379,1,140,0|8,3:0|0:0,0:0:0:0:
156,239,235944,1,0,3:0:0:0:
164,219,236054,1,0,0:0:0:0:
172,199,236163,1,0,0:0:0:0:
124,111,236382,1,0,3:0:0:0:
260,243,236601,2,0,P|294:246|327:234,1,70,8|0,0:0|0:0,0:0:0:0:
427,128,237039,6,0,L|419:268,1,140,2|8,0:0|0:0,0:0:0:0:
330,117,237696,1,0,3:0:0:0:
418,296,237915,1,0,0:0:0:0:
512,181,238134,1,0,3:0:0:0:
302,110,238353,2,0,P|267:104|233:108,1,70,8|0,0:0|0:0,0:0:0:0:
92,24,238791,6,0,L|116:176,1,140,2|8,0:0|0:0,0:0:0:0:
28,116,239448,1,0,3:0:0:0:
192,220,239667,2,0,B|220:224|220:224|261:216,1,70,0|0,0:0|3:0,0:0:0:0:
327,32,240105,1,8,0:0:0:0:
327,32,240214,1,0,3:0:0:0:
327,32,240324,1,0,3:0:0:0:
228,124,240543,6,0,B|296:104|296:144|365:124,1,140,0|8,3:0|0:0,0:0:0:0:
428,48,241200,1,0,3:0:0:0:
468,220,241419,2,0,L|480:288,1,70,2|0,0:0|3:0,0:0:0:0:
316,352,241857,2,0,L|328:284,1,70,8|0,0:0|0:0,0:0:0:0:
365,123,242294,6,0,P|309:147|365:175,1,140,2|8,0:0|0:0,0:0:0:0:
236,60,242951,1,0,3:0:0:0:
148,100,243170,2,0,P|108:100|72:88,1,70,2|0,0:0|3:0,0:0:0:0:
104,188,243608,1,8,0:0:0:0:
8,24,243827,1,0,0:0:0:0:
116,204,244046,6,0,B|212:212|212:212|260:204,1,140,2|8,0:0|0:0,0:0:0:0:
389,64,244703,1,0,3:0:0:0:
389,64,244813,1,0,0:0:0:0:
389,64,244922,2,0,B|358:62|358:62|320:66,1,70,2|0,0:0|3:0,0:0:0:0:
364,160,245360,1,8,0:0:0:0:
476,20,245579,1,0,0:0:0:0:
364,180,245798,5,2,0:0:0:0:
216,76,246017,1,0,0:0:0:0:
364,200,246236,1,8,0:0:0:0:
476,40,246455,1,0,3:0:0:0:
364,219,246674,2,0,P|329:223|294:220,1,70,2|0,0:0|0:0,0:0:0:0:
432,148,247112,2,0,L|468:152,2,35,8|0|0,0:0|3:0|3:0,0:0:0:0:
236,155,247550,6,0,P|215:184|208:218,1,70,6|0,0:0|0:0,0:0:0:0:
328,124,247988,2,0,L|324:52,1,70,8|0,0:0|3:0,0:0:0:0:
321,33,248317,1,0,0:0:0:0:
320,12,248426,1,0,0:0:0:0:
416,40,248645,1,0,3:0:0:0:
232,72,248864,2,0,P|197:74|165:60,1,70,8|0,0:0|0:0,0:0:0:0:
328,28,249302,6,0,L|312:172,1,140,0|8,3:0|0:0,0:0:0:0:
304,264,249959,1,0,3:0:0:0:
136,200,250178,2,0,P|104:184|70:181,1,70,2|0,0:0|3:0,0:0:0:0:
232,200,250616,2,0,P|227:165|209:135,1,70,8|0,0:0|0:0,0:0:0:0:
192,292,251054,6,0,B|232:300|232:300|332:292,1,140,0|8,3:0|0:0,0:0:0:0:
480,200,251711,1,0,3:0:0:0:
480,200,251820,1,0,0:0:0:0:
480,200,251930,2,0,L|410:192,1,70,0|0,0:0|3:0,0:0:0:0:
260,108,252367,2,0,L|329:100,1,70,8|0,0:0|0:0,0:0:0:0:
172,156,252805,6,0,B|164:110|164:110|171:17,1,140,0|8,3:0|0:0,0:0:0:0:
80,148,253463,1,0,3:0:0:0:
80,147,253682,2,0,P|45:152|11:144,1,70
160,240,254119,1,8,0:0:0:0:
156,260,254229,1,0,3:0:0:0:
152,280,254338,1,0,3:0:0:0:
320,180,254557,6,0,L|337:95,1,70,0|0,3:0|0:0,0:0:0:0:
190,32,254995,2,0,L|203:99,1,70,8|0,0:0|3:0,0:0:0:0:
208,120,255324,1,0,0:0:0:0:
213,140,255433,1,0,0:0:0:0:
116,124,255652,1,0,3:0:0:0:
283,28,255871,2,0,P|318:24|353:27,1,70,8|0,0:0|0:0,0:0:0:0:
475,157,256309,6,0,L|452:20,1,140,0|8,3:0|0:0,0:0:0:0:
367,71,256966,1,0,3:0:0:0:
439,247,257185,2,0,P|473:256|507:249,1,70,2|0,0:0|3:0,0:0:0:0:
364,188,257623,2,0,P|346:221|343:254,1,70,8|0,0:0|0:0,0:0:0:0:
474,366,258061,6,0,P|413:336|345:351,1,140,2|8,0:0|0:0,0:0:0:0:
160,291,258718,1,0,3:0:0:0:
140,279,258828,1,0,0:0:0:0:
124,263,258937,2,0,L|115:193,1,70,0|0,0:0|3:0,0:0:0:0:
258,303,259375,2,0,L|246:372,1,70,8|0,0:0|0:0,0:0:0:0:
376,252,259813,6,0,L|367:182,2,70,2|0|8,0:0|0:0|0:0,0:0:0:0:
416,100,260470,1,0,3:0:0:0:
396,86,260580,1,0,0:0:0:0:
376,76,260689,2,0,L|307:92,1,70
132,108,261127,1,8,0:0:0:0:
132,108,261236,1,0,3:0:0:0:
132,108,261346,1,0,3:0:0:0:
337,186,261565,6,0,L|348:256,1,70,6|0,0:0|0:0,0:0:0:0:
224,144,262003,2,0,L|213:213,1,70,8|0,0:0|3:0,0:0:0:0:
208,232,262331,1,0,0:0:0:0:
204,252,262440,1,0,0:0:0:0:
216,336,262659,1,0,3:0:0:0:
124,224,262878,2,0,L|60:196,1,70,8|0,0:0|0:0,0:0:0:0:
116,132,263316,5,0,3:0:0:0:
36,276,263535,1,0,0:0:0:0:
124,112,263754,2,0,L|120:36,1,70,8|0,0:0|3:0,0:0:0:0:
200,64,264083,1,0,0:0:0:0:
214,78,264192,2,0,P|250:82|290:78,1,70,0|0,0:0|3:0,0:0:0:0:
424,20,264630,2,0,L|408:88,1,70,8|0,0:0|0:0,0:0:0:0:
384,168,265068,5,0,3:0:0:0:
300,72,265287,1,0,0:0:0:0:
348,244,265506,2,0,P|384:252|420:244,1,70,8|0,0:0|3:0,0:0:0:0:
492,208,265835,1,0,0:0:0:0:
500,228,265944,2,0,L|496:304,1,70,0|0,0:0|3:0,0:0:0:0:
384,168,266382,2,0,L|380:92,1,70,8|0,0:0|0:0,0:0:0:0:
320,20,266820,5,0,0:0:0:0:
388,192,267039,1,0,3:0:0:0:
277,122,267258,1,8,0:0:0:0:
456,56,267477,1,0,0:0:0:0:
456,56,267586,1,0,0:0:0:0:
456,56,267696,1,0,0:0:0:0:
392,216,267915,1,0,3:0:0:0:
260,120,268134,1,8,0:0:0:0:
260,120,268243,1,0,3:0:0:0:
260,120,268353,1,0,3:0:0:0:
116,56,268572,6,0,B|108:108|108:108|112:204,1,140,0|8,3:0|0:0,0:0:0:0:
237,328,269229,1,0,3:0:0:0:
237,328,269338,1,0,0:0:0:0:
237,328,269448,2,0,L|248:258,1,70,0|0,0:0|3:0,0:0:0:0:
338,276,269886,1,8,0:0:0:0:
156,264,270105,1,0,0:0:0:0:
358,280,270324,6,0,L|430:284,1,70,0|0,3:0|0:0,0:0:0:0:
300,148,270762,2,0,L|228:144,1,70,8|0,0:0|3:0,0:0:0:0:
64,132,271200,1,0,0:0:0:0:
116,66,271419,1,0,3:0:0:0:
100,207,271638,2,0,P|66:215|31:210,1,70,8|0,0:0|0:0,0:0:0:0:
148,140,272076,6,0,B|192:132|192:132|241:160|286:137,1,140,0|8,3:0|0:0,0:0:0:0:
440,120,272732,1,0,3:0:0:0:
440,120,272842,1,0,3:0:0:0:
440,120,272951,2,0,P|469:101|503:94,1,70,0|0,0:0|3:0,0:0:0:0:
295,48,273389,2,0,P|260:41|231:22,1,70,8|0,0:0|0:0,0:0:0:0:
371,12,273827,6,0,L|363:152,1,140,0|8,3:0|0:0,0:0:0:0:
360,236,274484,1,0,3:0:0:0:
196,176,274703,2,0,P|162:168|127:174,1,70,0|0,0:0|3:0,0:0:0:0:
280,184,275141,2,0,L|296:136,2,35,8|0|0,0:0|3:0|3:0,0:0:0:0:
176,328,275579,5,2,0:0:0:0:
276,328,275798,1,2,0:0:0:0:
156,344,276017,2,0,L|76:356,1,70,8|0,0:0|3:0,0:0:0:0:
200,228,276455,1,2,0:0:0:0:
296,253,276674,1,2,0:0:0:0:
172,240,276893,2,0,L|91:230,1,70,8|0,0:0|3:0,0:0:0:0:
264,148,277331,5,2,0:0:0:0:
350,196,277550,1,2,0:0:0:0:
228,148,277769,2,0,L|152:118,1,70,8|0,0:0|3:0,0:0:0:0:
367,57,278207,2,0,L|350:196,1,140,0|8,0:0|0:0,0:0:0:0:
436,196,278864,1,0,0:0:0:0:
272,160,279083,6,0,B|220:152|220:152|132:160,1,140,0|8,3:0|0:0,0:0:0:0:
156,80,279740,1,0,3:0:0:0:
227,231,279959,2,0,P|295:240|347:195,1,140,0|8,0:0|0:0,0:0:0:0:
352,112,280616,1,0,0:0:0:0:
420,236,280835,6,0,P|454:239|489:237,1,70,0|0,3:0|0:0,0:0:0:0:
347,195,281273,1,8,0:0:0:0:
319,330,281492,2,0,P|370:304|320:276,1,140,0|0,3:0|0:0,0:0:0:0:
204,352,282149,2,0,L|168:360,2,35,8|0|0,0:0|3:0|3:0,0:0:0:0:
180,180,282586,6,0,B|90:171|90:171|42:179,1,140,0|8,3:0|0:0,0:0:0:0:
238,255,283242,1,0,3:0:0:0:
255,242,283352,1,0,0:0:0:0:
271,228,283462,2,0,L|282:158,1,70,0|0,0:0|3:0,0:0:0:0:
120,88,283900,2,0,L|130:158,1,70,8|0,0:0|0:0,0:0:0:0:
349,259,284338,6,0,L|372:121,1,140,0|8,3:0|0:0,0:0:0:0:
432,244,284995,1,0,0:0:0:0:
432,244,285105,1,0,0:0:0:0:
432,244,285214,2,0,P|466:255|501:257,1,70,0|0,3:0|0:0,0:0:0:0:
288,136,285652,2,0,P|253:137|219:148,1,70,8|0,0:0|0:0,0:0:0:0:
96,208,286090,5,0,3:0:0:0:
304,140,286309,1,2,0:0:0:0:
244,300,286528,1,10,0:0:0:0:
196,160,286747,1,0,3:0:0:0:
244,320,286966,1,2,0:0:0:0:
308,124,287185,1,2,0:0:0:0:
94,206,287404,6,0,B|66:210|66:210|22:206,1,70,8|0,0:0|0:0,0:0:0:0:
148,67,287842,1,0,3:0:0:0:
94,206,288060,1,0,0:0:0:0:
240,100,288280,1,8,0:0:0:0:
66,119,288499,1,0,3:0:0:0:
240,100,288718,2,0,B|244:64|244:64|240:30,1,70
224,184,289156,1,8,0:0:0:0:
244,188,289265,1,0,3:0:0:0:
264,184,289375,1,0,3:0:0:0:
367,94,289594,6,0,L|360:192,1,97.9999970092774,4|2,0:0|0:0,0:0:0:0:
180,116,290470,2,0,L|172:18,1,97.9999970092774,2|2,0:0|0:0,0:0:0:0:
252,215,291346,5,2,0:0:0:0:
184,227,291565,1,0,0:0:0:0:
116,223,291784,1,2,0:0:0:0:
52,243,292003,1,0,0:0:0:0:
180,116,292222,2,0,L|172:18,1,97.9999970092774,2|2,0:0|0:0,0:0:0:0:
336,172,293097,6,0,B|384:184|384:160|436:172,1,97.9999970092774,2|2,0:0|0:0,0:0:0:0:
240,204,293973,2,0,L|232:100,1,97.9999970092774,2|2,0:0|0:0,0:0:0:0:
160,292,294849,5,2,0:0:0:0:
224,320,295068,1,0,0:0:0:0:
292,304,295287,1,2,0:0:0:0:
345,259,295506,1,2,0:0:0:0:
400,156,295725,2,0,L|352:164,1,48.9999985046387
264,68,296163,2,0,L|312:76,1,48.9999985046387
172,108,296601,6,0,B|168:72|168:72|172:8,1,97.9999970092774,2|2,0:0|0:0,0:0:0:0:
208,204,297258,2,0,B|168:208|168:208|108:204,1,97.9999970092774
16,176,297915,1,2,0:0:0:0:
200,108,298353,5,2,0:0:0:0:
268,96,298572,1,0,0:0:0:0:
336,108,298791,1,2,0:0:0:0:
404,116,299010,2,0,B|464:124|464:124|504:116,1,97.9999970092774
464,24,299667,1,2,0:0:0:0:
400,208,300105,5,2,0:0:0:0:
384,276,300324,1,2,0:0:0:0:
408,342,300543,2,0,P|432:346|455:341,1,48.9999985046387,2|0,0:0|0:0,0:0:0:0:
291,244,300981,2,0,P|263:240|235:248,1,48.9999985046387
424,164,301419,2,0,P|428:136|420:108,1,48.9999985046387
386,249,301857,1,2,0:0:0:0:
256,192,302076,12,2,303389,0:0:0:0:
188,192,303608,6,0,B|256:172|256:208|326:192,1,140,6|8,0:0|0:0,0:0:0:0:
224,268,304265,1,0,3:0:0:0:
224,268,304375,1,0,0:0:0:0:
224,268,304484,2,0,P|190:276|156:268,1,70,0|0,0:0|3:0,0:0:0:0:
291,116,304922,2,0,P|325:107|359:116,1,70,8|0,0:0|0:0,0:0:0:0:
464,224,305360,6,0,L|490:86,1,140,0|8,3:0|0:0,0:0:0:0:
312,16,306016,1,0,3:0:0:0:
368,240,306235,1,2,0:0:0:0:
496,68,306454,1,0,3:0:0:0:
352,252,306674,2,0,B|308:256|308:256|280:252,1,70,8|0,0:0|0:0,0:0:0:0:
106,331,307112,6,0,P|165:299|224:332,1,140,2|8,0:0|0:0,0:0:0:0:
32,268,307768,1,0,0:0:0:0:
28,248,307878,1,0,0:0:0:0:
24,228,307988,2,0,L|12:144,1,70,2|0,0:0|0:0,0:0:0:0:
184,108,308426,2,0,L|174:177,1,70,8|0,0:0|0:0,0:0:0:0:
88,21,308864,6,0,B|190:15|190:15|227:22,1,140,0|8,3:0|0:0,0:0:0:0:
184,108,309520,1,0,3:0:0:0:
315,84,309740,2,0,P|329:51|334:17,1,70,0|0,0:0|3:0,0:0:0:0:
399,148,310178,2,0,L|396:99,2,35,8|0|0,0:0|3:0|3:0,0:0:0:0:
415,308,310616,6,0,P|363:281|412:248,1,140,0|8,3:0|0:0,0:0:0:0:
272,240,311272,1,0,3:0:0:0:
252,236,311381,1,0,0:0:0:0:
232,232,311492,2,0,L|160:216,1,70,0|0,0:0|3:0,0:0:0:0:
80,368,311930,2,0,L|148:352,1,70,8|0,0:0|0:0,0:0:0:0:
292,150,312367,6,0,L|156:120,1,140,0|8,3:0|0:0,0:0:0:0:
60,100,313024,1,0,3:0:0:0:
251,100,313243,2,0,P|259:66|254:31,1,70,0|0,0:0|3:0,0:0:0:0:
152,176,313681,2,0,L|220:191,1,70,8|0,0:0|0:0,0:0:0:0:
371,283,314119,6,0,P|309:254|247:284,1,140,2|8,0:0|0:0,0:0:0:0:
428,364,314776,1,0,3:0:0:0:
448,352,314886,1,0,0:0:0:0:
464,336,314995,2,0,L|473:266,1,70,2|0,0:0|3:0,0:0:0:0:
324,168,315433,2,0,L|315:98,1,70,8|0,0:0|0:0,0:0:0:0:
372,252,315871,6,0,B|324:260|324:260|220:252,1,140,2|8,0:0|0:0,0:0:0:0:
324,168,316527,1,0,3:0:0:0:
268,352,316747,2,0,L|184:344,1,70,2|0,0:0|0:0,0:0:0:0:
102,322,317185,1,8,0:0:0:0:
102,322,317294,1,0,3:0:0:0:
102,322,317403,1,0,3:0:0:0:
243,160,317623,6,0,P|251:126|246:91,1,70,6|0,0:0|0:0,0:0:0:0:
208,252,318061,2,0,P|244:260|276:252,1,70,8|0,0:0|3:0,0:0:0:0:
296,244,318390,1,0,0:0:0:0:
312,232,318499,1,0,0:0:0:0:
324,44,318718,1,0,3:0:0:0:
376,144,318937,2,0,P|412:148|446:143,1,70,8|0,0:0|0:0,0:0:0:0:
324,44,319375,6,0,B|252:28|252:60|184:44,1,140,0|8,3:0|0:0,0:0:0:0:
92,12,320032,1,0,3:0:0:0:
220,136,320251,2,0,L|232:212,1,70,2|0,0:0|0:0,0:0:0:0:
64,260,320689,2,0,L|74:190,1,70,8|0,0:0|0:0,0:0:0:0:
132,331,321127,6,0,P|69:360|4:339,1,140,0|8,3:0|0:0,0:0:0:0:
172,240,321784,1,0,3:0:0:0:
193,247,321894,1,0,0:0:0:0:
212,260,322003,2,0,L|234:326,1,70,0|0,0:0|3:0,0:0:0:0:
244,168,322440,2,0,L|287:223,1,70,8|0,0:0|0:0,0:0:0:0:
408,312,322879,6,0,B|415:217|415:217|407:173,1,140,0|8,3:0|0:0,0:0:0:0:
332,16,323536,1,0,0:0:0:0:
328,112,323755,2,0,P|290:104|264:84,1,70,2|0,0:0|0:0,0:0:0:0:
420,76,324192,2,0,L|464:68,2,35,8|0|0,0:0|3:0|3:0,0:0:0:0:
332,224,324630,6,0,P|297:227|263:219,1,70,2|0,0:0|0:0,0:0:0:0:
132,120,325068,2,0,L|144:204,1,70,8|0,0:0|3:0,0:0:0:0:
148,209,325397,1,0,0:0:0:0:
152,229,325506,1,0,0:0:0:0:
177,326,325725,1,0,3:0:0:0:
284,148,325944,2,0,L|293:78,1,70,8|0,0:0|0:0,0:0:0:0:
236,236,326382,6,0,B|280:244|280:244|374:236,1,140,0|8,3:0|0:0,0:0:0:0:
180,156,327039,1,0,3:0:0:0:
160,168,327149,1,0,0:0:0:0:
144,184,327258,2,0,L|135:254,1,70,2|0,0:0|3:0,0:0:0:0:
284,148,327696,2,0,L|293:78,1,70,8|0,0:0|0:0,0:0:0:0:
81,42,328134,6,0,P|128:90|196:84,1,140,2|0,0:0|0:0,0:0:0:0:
292,56,328790,1,0,0:0:0:0:
376,108,329010,2,0,L|444:92,1,70
356,204,329447,1,2,0:0:0:0:
352,224,329886,5,2,0:0:0:0:
386,315,330105,1,0,0:0:0:0:
267,273,330324,1,0,0:0:0:0:
406,323,330543,1,0,0:0:0:0:
247,265,330762,6,0,B|169:238|169:238|206:224,1,105,2|0,0:0|0:0,0:0:0:0:
308,160,331200,2,0,B|385:133|385:133|348:119,1,105,2|0,0:0|0:0,0:0:0:0:
230,92,331638,1,2,0:0:0:0:
