osu file format v14

[General]
AudioFilename: audio.mp3
AudioLeadIn: 0
PreviewTime: 55574
Countdown: 0
SampleSet: None
StackLeniency: 0.7
Mode: 3
LetterboxInBreaks: 0
SpecialStyle: 0
WidescreenStoryboard: 0

[Editor]
DistanceSpacing: 0.5
BeatDivisor: 4
GridSize: 4
TimelineZoom: 1

[Metadata]
Title:Konna Sekai, Shiritakunakatta. (Anime Ver.)
TitleUnicode:こんな世界、知りたくなかった。 (Anime Ver.)
Artist:Miku Sawai
ArtistUnicode:沢井美空
Creator:Raveille
Version:Easy
Source:アカメが斬る!
Tags:Akame ga Kill! tv size ending takahiro tetsuya square enix white fox gangan comic joker black red eye girl anigi king blood ice zan slash sword cut head kill death die night raid dudehacker
BeatmapID:1170102
BeatmapSetID:552521

[Difficulty]
HPDrainRate:7
CircleSize:4
OverallDifficulty:7
ApproachRate:5
SliderMultiplier:1.4
SliderTickRate:1

[Events]
//Background and Video events
0,0,"akamegakill.jpg",0,0
Video,0,"akamegakill.avi"
//Break Periods
//Storyboard Layer 0 (Background)
//Storyboard Layer 1 (Fail)
//Storyboard Layer 2 (Pass)
//Storyboard Layer 3 (Foreground)
//Storyboard Sound Samples
Sample,347,0,"G6S_s.wav",59
Sample,517,0,"A#5S_Bb5S_s.wav",45
Sample,687,0,"G4S_s.wav",71
Sample,687,0,"C6S_s.wav",70
Sample,858,0,"F6S_s.wav",81
Sample,1028,0,"A#5S_Bb5S_s.wav",59
Sample,1199,0,"C6S_s.wav",60
Sample,1369,0,"D5S_s.wav",72
Sample,1369,0,"D#6S_Eb6S_s.wav",73
Sample,1540,0,"A#5S_Bb5S_s.wav",68
Sample,1710,0,"C6S_s.wav",70
Sample,1881,0,"D6S_s.wav",75
Sample,2051,0,"A#5S_Bb5S_s.wav",59
Sample,2222,0,"C6S_s.wav",62
Sample,2562,0,"D6S_s.wav",72
Sample,2733,0,"D#6S_Eb6S_s.wav",70
Sample,2903,0,"F6S_s.wav",77
Sample,3074,0,"G6S_s.wav",70
Sample,3244,0,"A#6S_Bb6S_s.wav",75
Sample,3415,0,"D#4S_Eb4S_s.wav",72
Sample,3415,0,"F6S_s.wav",59
Sample,3585,0,"G6S_s.wav",61
Sample,3756,0,"D#6S_Eb6S_s.wav",59
Sample,3926,0,"F6S_s.wav",60
Sample,4097,0,"A#4S_Bb4S_s.wav",68
Sample,4097,0,"D6S_s.wav",64
Sample,4267,0,"D#6S_Eb6S_s.wav",66
Sample,4437,0,"G5S.wav",55
Sample,5574,0,"C5S_s.wav",59
Sample,5687,0,"A#4S_Bb4S_s.wav",65
Sample,5801,0,"C4S.wav",59
Sample,5801,0,"F4S.wav",59
Sample,5801,0,"A4S.wav",62
Sample,6824,0,"G4S_s.wav",79
Sample,6824,0,"B4S_s.wav",81
Sample,6824,0,"D4S_s.wav",79
Sample,7165,0,"D#4S_Eb4S.wav",58
Sample,7165,0,"G#4S_Ab4S.wav",58
Sample,7165,0,"C5S.wav",61
Sample,8528,0,"F4S.wav",59
Sample,8528,0,"G4S.wav",64
Sample,8528,0,"D4S.wav",59
Sample,8528,0,"C5S.wav",64
Sample,11256,0,"D#6S_Eb6S.wav",78
Sample,11597,0,"D5S_s.wav",50
Sample,11937,0,"D#5S_Eb5S_s.wav",48
Sample,12278,0,"G6S_s.wav",62
Sample,12619,0,"D6S.wav",55
Sample,13301,0,"D5S_s.wav",52
Sample,13983,0,"C6S.wav",52
Sample,14324,0,"D5S_s.wav",53
Sample,14665,0,"D#5S_Eb5S_s.wav",55
Sample,14665,0,"C6S_s.wav",53
Sample,15006,0,"D#6S_Eb6S_s.wav",55
Sample,15347,0,"G5S_s.wav",62
Sample,15347,0,"A#5S_Bb5S.wav",46
Sample,15687,0,"D#5S_Eb5S_s.wav",49
Sample,16028,0,"D#5S_Eb5S_s.wav",54
Sample,16710,0,"D#5S_Eb5S_s.wav",52
Sample,16710,0,"G#5S_Ab5S_s.wav",52
Sample,17051,0,"G5S_s.wav",56
Sample,17733,0,"G6S_s.wav",68
Sample,18074,0,"G#5S_Ab5S_s.wav",53
Sample,18074,0,"F6S_s.wav",53
Sample,18415,0,"F4S_s.wav",59
Sample,18415,0,"D#6S_Eb6S_s.wav",52
Sample,18756,0,"D#6S_Eb6S_s.wav",52
Sample,19437,0,"A#4S_Bb4S.wav",61
Sample,19437,0,"D#5S_Eb5S.wav",61
Sample,19437,0,"G4S.wav",61
Sample,20801,0,"B4S.wav",55
Sample,20801,0,"D5S.wav",55
Sample,20801,0,"F5S.wav",55
Sample,22165,0,"D#6S_Eb6S_s.wav",47
Sample,22506,0,"D5S_s.wav",67
Sample,22506,0,"D6S_s.wav",51
Sample,22847,0,"D#5S_Eb5S_s.wav",62
Sample,23528,0,"G6S.wav",61
Sample,24210,0,"D5S_s.wav",45
Sample,24892,0,"C6S_s.wav",68
Sample,25233,0,"D5S_s.wav",54
Sample,25233,0,"A#5S_Bb5S_s.wav",53
Sample,25574,0,"D#5S_Eb5S_s.wav",56
Sample,26256,0,"A#5S_Bb5S.wav",50
Sample,26256,0,"D#6S_Eb6S_s.wav",48
Sample,26597,0,"A#5S_Bb5S.wav",46
Sample,26937,0,"G5S_s.wav",48
Sample,27278,0,"G5S_s.wav",41
Sample,27619,0,"G#5S_Ab5S_s.wav",52
Sample,27619,0,"G#4S_Ab4S.wav",47
Sample,27619,0,"D#5S_Eb5S.wav",47
Sample,27619,0,"C5S.wav",47
Sample,27960,0,"C6S_s.wav",59
Sample,28301,0,"G6S_s.wav",68
Sample,28642,0,"F6S.wav",55
Sample,28983,0,"D5S.wav",59
Sample,28983,0,"F5S.wav",59
Sample,28983,0,"A#4S_Bb4S.wav",59
Sample,29324,0,"D4S_s.wav",57
Sample,29665,0,"D5S.wav",53
Sample,29665,0,"D6S.wav",51
Sample,30347,0,"D#5S_Eb5S.wav",56
Sample,30347,0,"D#6S_Eb6S.wav",60
Sample,30347,0,"C5S.wav",56
Sample,30687,0,"G4S.wav",55
Sample,31327,0,"D6S_s.wav",73
Sample,32392,0,"A#6S_Bb6S.wav",67
Sample,52506,0,"LR_Drum Kick Low.wav",70
Sample,52676,0,"LR_Drum Kick Low.wav",70
Sample,53358,0,"LR_Drum Kick Low.wav",70
Sample,55403,0,"LR_Drum Click.wav",70
Sample,55489,0,"LR_Drum Click.wav",70
Sample,55744,0,"LR_Drum Click.wav",70
Sample,55915,0,"LR_Drum Click.wav",70
Sample,56085,0,"LR_Drum Click.wav",70
Sample,56256,0,"LR_Drum Finish.wav",70
Sample,56596,0,"hat light.wav",70
Sample,57619,0,"LR_Drum Kick Low.wav",70
Sample,57960,0,"LR_Drum Kick Low.wav",70
Sample,58983,0,"LR_Drum Kick Low.wav",70
Sample,59324,0,"LR_Drum Kick Low.wav",70
Sample,60517,0,"LR_Drum Click.wav",70
Sample,60687,0,"hat light.wav",70
Sample,60858,0,"LR_Drum Kick Low.wav",70
Sample,62051,0,"LR_Drum Kick Low.wav",70
Sample,63074,0,"LR_Drum Kick Low.wav",70
Sample,63415,0,"LR_Drum Kick Low.wav",70
Sample,64778,0,"LR_Drum Kick Low.wav",70
Sample,64778,0,"hat light.wav",70
Sample,65460,0,"hat light.wav",70
Sample,65971,0,"LR_Drum Click.wav",70
Sample,66142,0,"hat light.wav",70
Sample,66312,0,"LR_Drum Kick Low.wav",70
Sample,66483,0,"hat light.wav",70
Sample,66653,0,"LR_Tom Hit.wav",70
Sample,66824,0,"LR_Tom Hit 2.wav",70
Sample,66994,0,"LR_Tom Hit 3.wav",70
Sample,67506,0,"LR_Drum Kick Low.wav",70
Sample,68528,0,"LR_Drum Kick Low.wav",70
Sample,68869,0,"LR_Drum Kick Low.wav",70
Sample,69892,0,"LR_Drum Kick Low.wav",70
Sample,70233,0,"LR_Drum Kick Low.wav",70
Sample,71256,0,"hat light.wav",70
Sample,71426,0,"LR_Drum Click.wav",70
Sample,71596,0,"hat light.wav",70
Sample,71767,0,"LR_Drum Kick Low.wav",70
Sample,72619,0,"LR_Drum Kick Low.wav",70
Sample,72960,0,"LR_Drum Kick Low.wav",70
Sample,73983,0,"LR_Drum Kick Low.wav",70
Sample,74324,0,"LR_Drum Kick Low.wav",70
Sample,75687,0,"hat light.wav",70
Sample,77051,0,"LR_CymbalSSD.wav",70
Sample,77562,0,"LR_Drum Kick Low.wav",70
Sample,77903,0,"LR_Drum Kick Low.wav",70
Sample,78074,0,"LR_Drum Hit Echo.wav",70
Sample,78415,0,"hat light.wav",70
Sample,79437,0,"hat light.wav",70
Sample,79608,0,"LR_Drum Hit Echo.wav",70
Sample,79778,0,"hat light.wav",70
Sample,81312,0,"LR_Drum Kick Low.wav",70
Sample,81824,0,"hat light.wav",70
Sample,85233,0,"LR_Drum Kick Low.wav",70

[TimingPoints]
347,681.818181818182,4,2,1,5,1,0
32392,-100,4,2,1,50,0,0
55233,-100,4,2,1,75,0,0
56256,681.818181818182,4,3,1,50,1,1
78074,-100,4,3,1,50,0,0

[HitObjects]
64,192,347,5,0,0:0:0:60:C4S_s.wav
320,192,1028,1,0,0:0:0:72:C5S_s.wav
192,192,1710,1,0,0:0:0:69:D#5S_Eb5S.wav
448,192,2392,1,0,0:0:0:73:D#6S_Eb6S_s.wav
320,192,3074,1,0,0:0:0:60:G#3S_Ab3S_s.wav
192,192,3756,1,0,0:0:0:69:G#4S_Ab4S_s.wav
64,192,4437,1,0,0:0:0:67:C5S.wav
448,192,5460,128,0,5801:0:0:0:55:D5S_s.wav
64,192,5801,128,0,6824:0:0:0:59:F3S.wav
192,192,6824,1,0,0:0:0:79:G3S_s.wav
448,192,7165,128,0,8528:0:0:0:58:G#3S_Ab3S.wav
320,192,8528,128,0,9892:0:0:0:59:G3S.wav
192,192,9892,128,0,10915:0:0:0:62:B4S.wav
448,192,10915,128,0,11256:0:0:0:72:D6S_s.wav
64,192,11256,1,0,0:0:0:48:C4S_s.wav
192,192,11597,1,0,0:0:0:51:G4S_s.wav
320,192,11937,1,0,0:0:0:59:A#4S_Bb4S_s.wav
448,192,12278,1,0,0:0:0:65:A#5S_Bb5S.wav
64,192,12619,1,0,0:0:0:51:A#3S_Bb3S_s.wav
192,192,12960,1,0,0:0:0:59:G4S_s.wav
320,192,13301,1,0,0:0:0:56:A#4S_Bb4S.wav
192,192,13642,1,0,0:0:0:57:D#5S_Eb5S_s.wav
448,192,13983,1,0,0:0:0:48:G#3S_Ab3S_s.wav
320,192,14324,1,0,0:0:0:60:D#4S_Eb4S_s.wav
192,192,14665,1,0,0:0:0:64:G#4S_Ab4S.wav
320,192,15006,1,0,0:0:0:66:A#5S_Bb5S_s.wav
64,192,15347,1,0,0:0:0:48:G3S_s.wav
192,192,15687,1,0,0:0:0:59:D#4S_Eb4S_s.wav
448,192,16028,1,0,0:0:0:57:G4S.wav
320,192,16369,1,0,0:0:0:54:A#4S_Bb4S_s.wav
192,192,16710,1,0,0:0:0:48:F3S_s.wav
64,192,17051,1,0,0:0:0:57:C4S_s.wav
320,192,17392,1,0,0:0:0:59:G4S_s.wav
448,192,17733,1,0,0:0:0:59:G#4S_Ab4S_s.wav
64,192,18074,1,0,0:0:0:47:A#3S_Bb3S_s.wav
192,192,18415,1,0,0:0:0:0:
320,192,18756,1,0,0:0:0:59:G#4S_Ab4S.wav
448,192,19437,1,0,0:0:0:48:D#3S_Eb3S_s.wav
64,192,19778,1,0,0:0:0:56:A#3S_Bb3S_s.wav
192,192,20119,1,0,0:0:0:59:D#4S_Eb4S_s.wav
448,192,20460,1,0,0:0:0:57:G4S_s.wav
320,192,20801,1,0,0:0:0:48:G3S_s.wav
64,192,21142,1,0,0:0:0:61:D4S_s.wav
192,192,21483,1,0,0:0:0:59:G4S.wav
448,192,22165,1,0,0:0:0:52:C4S_s.wav
192,192,22506,1,0,0:0:0:62:G4S_s.wav
320,192,22847,1,0,0:0:0:56:A#4S_Bb4S.wav
448,192,23187,1,0,0:0:0:69:A#5S_Bb5S_s.wav
64,192,23528,1,0,0:0:0:50:A#3S_Bb3S_s.wav
320,192,23869,1,0,0:0:0:59:G4S_s.wav
192,192,24210,1,0,0:0:0:59:A#4S_Bb4S.wav
64,192,24551,1,0,0:0:0:53:D#5S_Eb5S_s.wav
320,192,24892,1,0,0:0:0:48:G#3S_Ab3S_s.wav
64,192,25233,1,0,0:0:0:61:D#4S_Eb4S_s.wav
192,192,25574,1,0,0:0:0:59:G#4S_Ab4S.wav
320,192,25915,1,0,0:0:0:67:A#5S_Bb5S_s.wav
64,192,26256,1,0,0:0:0:46:G3S_s.wav
448,192,26597,1,0,0:0:0:62:D#4S_Eb4S_s.wav
320,192,26937,1,0,0:0:0:61:G4S.wav
192,192,27278,1,0,0:0:0:47:A#4S_Bb4S_s.wav
64,192,27619,1,0,0:0:0:50:F3S_s.wav
448,192,27960,1,0,0:0:0:60:C4S_s.wav
192,192,28301,1,0,0:0:0:63:F4S_s.wav
320,192,28642,1,0,0:0:0:60:G#4S_Ab4S_s.wav
64,192,28983,1,0,0:0:0:48:G3S_s.wav
320,192,29324,1,0,0:0:0:0:
448,192,29665,1,0,0:0:0:60:A#4S_Bb4S.wav
64,192,30347,128,0,31028:0:0:0:49:C4S_s.wav
448,192,31369,1,0,0:0:0:73:D7S.wav
192,192,32051,1,0,0:0:0:59:A#4S_Bb4S.wav
64,192,32392,1,0,0:0:0:67:A#5S_Bb5S_s.wav
320,192,32733,1,0,0:0:0:70:LR_CymbalSSD.wav
448,192,33074,1,0,0:0:0:70:LR_Drum Kick Low.wav
192,192,33074,1,0,0:0:0:70:LR_Drum Click.wav
64,192,33756,1,0,0:0:0:70:LR_CymbalSSD.wav
448,192,35119,1,0,0:0:0:70:LR_Drum Click.wav
320,192,35460,1,0,0:0:0:70:LR_Drum Kick Low.wav
192,192,35801,1,0,0:0:0:70:LR_Drum Kick Low.wav
64,192,36483,1,0,0:0:0:70:LR_Drum Click.wav
192,192,37847,1,0,0:0:0:70:LR_Drum Click.wav
448,192,38528,1,0,0:0:0:70:LR_Drum Kick Low.wav
64,192,39210,1,0,0:0:0:70:LR_Drum Click.wav
192,192,39892,1,0,0:0:0:0:
448,192,40574,1,0,0:0:0:70:LR_Drum Click.wav
320,192,40915,1,0,0:0:0:70:LR_Drum Kick Low.wav
192,192,41256,1,0,0:0:0:70:LR_Drum Kick Low.wav
64,192,41937,1,0,0:0:0:70:LR_Drum Click.wav
192,192,42619,1,0,0:0:0:0:
448,192,42960,1,0,0:0:0:100:LR_Tom Hit.wav
64,192,43301,1,0,0:0:0:70:LR_Drum Click.wav
192,192,43642,1,0,0:0:0:70:LR_CymbalSSD.wav
320,192,43983,1,0,0:0:0:70:LR_Drum Finish.wav
448,192,43983,1,0,0:0:0:70:LR_Drum Kick Low.wav
64,192,44665,1,0,0:0:0:70:LR_Drum Click.wav
64,192,46028,1,0,0:0:0:70:LR_Drum Kick Low.wav
192,192,46028,1,0,0:0:0:70:LR_Drum Click.wav
448,192,46369,1,0,0:0:0:70:LR_Drum Kick Low.wav
320,192,46710,1,0,0:0:0:70:LR_Drum Kick Low.wav
64,192,47392,1,0,0:0:0:70:LR_Drum Click.wav
320,192,48074,1,0,0:0:0:100:LR3_Ride SS.wav
64,192,48756,1,0,0:0:0:70:LR_Drum Click.wav
448,192,48756,1,0,0:0:0:70:LR_Drum Kick Low.wav
320,192,49437,1,0,0:0:0:70:LR_Drum Kick Low.wav
192,192,49437,1,0,0:0:0:70:LR_Drum Finish.wav
64,192,50119,1,0,0:0:0:70:LR_Drum Click.wav
320,192,50801,1,0,0:0:0:0:
64,192,51483,1,0,0:0:0:70:LR_Drum Click.wav
192,192,51483,1,0,0:0:0:70:LR_Drum Kick Low.wav
448,192,51824,1,0,0:0:0:70:LR_Drum Kick Low.wav
64,192,52165,1,0,0:0:0:70:LR_Drum Kick Low.wav
320,192,52165,1,0,0:0:0:70:LR_Drum Finish.wav
448,192,52847,1,0,0:0:0:70:LR_Drum Click.wav
320,192,53187,1,0,0:0:0:70:LR_Drum Kick Low.wav
64,192,53528,1,0,0:0:0:70:LR_Drum Click.wav
192,192,53528,1,0,0:0:0:0:
320,192,53869,1,0,0:0:0:70:LR_Drum Kick Low.wav
448,192,53869,128,0,56256:0:0:0:0:
192,192,54892,1,0,0:0:0:0:
64,192,55574,128,0,56256:0:0:0:70:LR_Drum Click.wav
192,192,56256,1,0,0:0:0:70:LR_Drum Kick Low.wav
320,192,56596,1,0,0:0:0:70:LR_Drum Kick Low.wav
448,192,56937,1,0,0:0:0:70:LR_Drum Hit Echo.wav
64,192,56937,1,0,0:0:0:70:hat light.wav
192,192,57278,1,0,0:0:0:70:hat light.wav
320,192,57619,1,0,0:0:0:70:hat light.wav
448,192,57960,1,0,0:0:0:70:hat light.wav
64,192,58301,1,0,0:0:0:70:hat light.wav
192,192,58301,1,0,0:0:0:70:LR_Drum Hit Echo.wav
320,192,58642,1,0,0:0:0:70:hat light.wav
448,192,58983,1,0,0:0:0:70:hat light.wav
192,192,59324,1,0,0:0:0:70:hat light.wav
448,192,59665,1,0,0:0:0:70:hat light.wav
320,192,59665,1,0,0:0:0:70:LR_Drum Hit Echo.wav
64,192,60006,1,0,0:0:0:70:hat light.wav
192,192,60346,1,0,0:0:0:70:LR_Drum Kick Low.wav
320,192,60346,1,0,0:0:0:70:hat light.wav
448,192,60687,1,0,0:0:0:70:LR_Drum Kick Low.wav
64,192,61028,1,0,0:0:0:70:LR_Drum Hit Echo.wav
320,192,61028,1,0,0:0:0:70:hat light.wav
192,192,61369,1,0,0:0:0:70:hat light.wav
320,192,61710,1,0,0:0:0:70:hat light.wav
448,192,61710,1,0,0:0:0:70:LR_Drum Kick Low.wav
192,192,62051,1,0,0:0:0:70:hat light.wav
64,192,62392,1,0,0:0:0:70:hat light.wav
448,192,62392,1,0,0:0:0:70:LR_Drum Hit Echo.wav
320,192,62733,1,0,0:0:0:70:hat light.wav
192,192,63074,1,0,0:0:0:70:hat light.wav
448,192,63415,1,0,0:0:0:70:hat light.wav
64,192,63756,1,0,0:0:0:70:hat light.wav
192,192,63756,1,0,0:0:0:70:LR_Drum Hit Echo.wav
320,192,64096,1,0,0:0:0:70:hat light.wav
448,192,64437,1,0,0:0:0:70:LR_Drum Kick Low.wav
192,192,64437,1,0,0:0:0:70:hat light.wav
64,192,65119,1,0,0:0:0:70:hat light.wav
448,192,65119,1,0,0:0:0:70:LR_Drum Hit Echo.wav
64,192,65801,1,0,0:0:0:70:LR_Drum Kick Low.wav
192,192,65801,1,0,0:0:0:70:hat light.wav
448,192,66142,1,0,0:0:0:70:LR_Drum Kick Low.wav
320,192,66483,1,0,0:0:0:70:LR_Drum Hit Echo.wav
192,192,66824,1,0,0:0:0:70:hat light.wav
64,192,67165,1,0,0:0:0:70:hat light.wav
448,192,67165,1,0,0:0:0:70:LR_Drum Kick Low.wav
192,192,67506,1,0,0:0:0:70:hat light.wav
320,192,67846,1,0,0:0:0:70:hat light.wav
448,192,67846,1,0,0:0:0:70:LR_Drum Hit Echo.wav
64,192,68187,1,0,0:0:0:70:hat light.wav
320,192,68528,1,0,0:0:0:70:hat light.wav
192,192,68869,1,0,0:0:0:70:hat light.wav
64,192,69210,1,0,0:0:0:70:hat light.wav
448,192,69210,1,0,0:0:0:70:LR_Drum Hit Echo.wav
192,192,69551,1,0,0:0:0:70:hat light.wav
320,192,69892,1,0,0:0:0:70:hat light.wav
448,192,70233,1,0,0:0:0:70:hat light.wav
64,192,70574,1,0,0:0:0:70:hat light.wav
192,192,70574,1,0,0:0:0:70:LR_Drum Hit Echo.wav
320,192,70915,1,0,0:0:0:70:hat light.wav
192,192,71256,1,0,0:0:0:70:LR_Drum Kick Low.wav
64,192,71596,1,0,0:0:0:70:LR_Drum Kick Low.wav
448,192,71937,1,0,0:0:0:70:LR_Drum Hit Echo.wav
320,192,71937,1,0,0:0:0:70:hat light.wav
192,192,72278,128,0,72619:0:0:0:70:hat light.wav
64,192,72619,1,0,0:0:0:70:hat light.wav
448,192,72960,1,0,0:0:0:70:hat light.wav
64,192,73301,1,0,0:0:0:70:hat light.wav
320,192,73301,1,0,0:0:0:70:LR_Drum Hit Echo.wav
192,192,73642,1,0,0:0:0:70:hat light.wav
448,192,73983,1,0,0:0:0:70:hat light.wav
320,192,74324,1,0,0:0:0:70:hat light.wav
192,192,74665,1,0,0:0:0:70:hat light.wav
64,192,74665,1,0,0:0:0:70:LR_Drum Hit Echo.wav
320,192,75006,1,0,0:0:0:70:hat light.wav
64,192,75346,1,0,0:0:0:70:LR_Drum Kick Low.wav
448,192,75346,1,0,0:0:0:70:hat light.wav
192,192,75687,1,0,0:0:0:70:LR_Drum Kick Low.wav
320,192,76028,1,0,0:0:0:70:hat light.wav
448,192,76028,1,0,0:0:0:70:LR_Drum Hit Echo.wav
64,192,76369,1,0,0:0:0:70:hat light.wav
448,192,76710,1,0,0:0:0:70:LR_Drum Kick Low.wav
192,192,76710,1,0,0:0:0:70:LR_CymbalSSD.wav
320,192,77051,1,0,0:0:0:70:LR_Drum Kick Low.wav
448,192,77392,1,0,0:0:0:70:LR_Drum Click.wav
64,192,77392,1,0,0:0:0:0:
192,192,77733,1,0,0:0:0:70:LR_Drum Click.wav
320,192,78074,1,0,0:0:0:70:LR_Drum Kick Low.wav
448,192,78074,1,0,0:0:0:70:hat light.wav
192,192,78415,1,0,0:0:0:70:LR_Drum Kick Low.wav
64,192,78756,1,0,0:0:0:70:hat light.wav
448,192,78756,1,0,0:0:0:70:LR_Drum Hit Echo.wav
192,192,79096,1,0,0:0:0:70:hat light.wav
320,192,79437,1,0,0:0:0:70:LR_Drum Kick Low.wav
64,192,79778,1,0,0:0:0:70:LR_Drum Kick Low.wav
192,192,80119,1,0,0:0:0:70:hat light.wav
448,192,80119,1,0,0:0:0:70:LR_Drum Hit Echo.wav
320,192,80460,1,0,0:0:0:70:hat light.wav
64,192,80801,1,0,0:0:0:70:LR_Drum Kick Low.wav
448,192,80801,1,0,0:0:0:70:LR_Drum Finish.wav
192,192,81483,1,0,0:0:0:70:LR_Drum Hit Echo.wav
320,192,81483,1,0,0:0:0:0:
64,192,82165,128,0,82846:0:0:0:70:LR3_Ride SS.wav
448,192,82846,1,0,0:0:0:0:
64,192,83528,1,0,0:0:0:70:LR_CymbalSSD.wav
448,192,83528,1,0,0:0:0:70:LR_Drum Kick Low.wav
192,192,83869,1,0,0:0:0:70:hat light.wav
320,192,84210,1,0,0:0:0:70:LR_Drum Hit Echo.wav
448,192,84210,1,0,0:0:0:0:
64,192,84551,1,0,0:0:0:70:hat light.wav
192,192,84892,1,0,0:0:0:70:LR_Drum Kick Low.wav
320,192,85233,1,0,0:0:0:70:hat light.wav
64,192,85574,1,0,0:0:0:70:LR_Drum Hit Echo.wav
448,192,85574,1,0,0:0:0:0:
448,192,86256,1,0,0:0:0:70:LR_Drum Kick Low.wav
320,192,86256,128,0,88983:0:0:0:100:LR3_Ride SS.wav
192,192,87278,1,0,0:0:0:70:LR_Drum Kick Low.wav
64,192,87619,1,0,0:0:0:70:LR_Drum Kick Low.wav
