osu file format v14

[General]
AudioFilename: audio.ogg
AudioLeadIn: 0
PreviewTime: 55214
Countdown: 0
SampleSet: Normal
StackLeniency: 0.7
Mode: 1
LetterboxInBreaks: 0
WidescreenStoryboard: 1

[Editor]
Bookmarks: 10726
DistanceSpacing: 0.5
BeatDivisor: 4
GridSize: 4
TimelineZoom: 1.9

[Metadata]
Title:Konna Sekai, Shiritakunakatta. (TV Size)
TitleUnicode:こんな世界、知りたくなかった。 (TV Size)
Artist:Miku Sawai
ArtistUnicode:沢井美空
Creator:J a c k y
Version:Muzukashii
Source:アカメが斬る!
Tags:雨宮天 雨宮 天 Amemiya Sora Akame Ga Kill! Kiru! ed ending 1 anime japanese j-pop pop jpop 憂鬱日和。 Yuuutsubiyori. Yuu'utsubiyori. jacky j_a_c_k_y Nardoxyribonucleic
BeatmapID:3134307
BeatmapSetID:1528876

[Difficulty]
HPDrainRate:6.5
CircleSize:5
OverallDifficulty:4.5
ApproachRate:5
SliderMultiplier:1.4
SliderTickRate:1

[Events]
//Background and Video events
Video,-450,"video.mp4"
0,0,"BG.jpg",0,-40
//Break Periods
//Storyboard Layer 0 (Background)
//Storyboard Layer 1 (Fail)
//Storyboard Layer 2 (Pass)
//Storyboard Layer 3 (Foreground)
//Storyboard Layer 4 (Overlay)
//Storyboard Sound Samples

[TimingPoints]
158,681.818181818182,4,1,0,40,1,0
158,-100,4,1,0,40,0,0
4930,-100,4,1,0,40,0,0
32714,-100,4,1,0,60,0,0
54703,681.818181818182,4,1,0,60,1,8
54703,-100,4,1,0,60,0,0
55981,-100,4,1,0,80,0,0
56066,681.818181818182,4,1,0,80,1,1
56066,-100,4,1,0,80,0,1
81975,-100,4,1,0,80,0,0
83338,-100,4,1,0,80,0,1
86066,-100,4,1,0,70,0,0
86236,-100,4,1,0,40,0,0

[HitObjects]
118,125,158,5,0,0:0:0:0:
114,107,498,1,0,0:0:0:0:
114,107,669,1,8,0:0:0:0:
114,107,1180,1,8,0:0:0:0:
114,107,1521,1,0,0:0:0:0:
114,107,1862,1,8,0:0:0:0:
114,107,2033,1,8,0:0:0:0:
114,107,2544,1,0,0:0:0:0:
114,107,2885,1,8,0:0:0:0:
114,107,3226,1,0,0:0:0:0:
114,107,3396,1,8,0:0:0:0:
114,107,3908,1,8,0:0:0:0:
114,107,4248,1,0,0:0:0:0:
118,125,5271,1,8,0:0:0:0:
118,125,5612,1,0,0:0:0:0:
118,125,6635,1,0,0:0:0:0:
118,125,6976,1,0,0:0:0:0:
118,125,8339,1,0,0:0:0:0:
118,125,9703,1,0,0:0:0:0:
118,125,10726,1,0,0:0:0:0:
118,125,11067,1,8,0:0:0:0:
118,125,12089,1,8,0:0:0:0:
118,125,12430,1,8,0:0:0:0:
118,125,13794,1,0,0:0:0:0:
118,125,14476,1,8,0:0:0:0:
118,125,14817,1,8,0:0:0:0:
118,125,15158,1,0,0:0:0:0:
118,125,16521,1,8,0:0:0:0:
118,125,16862,1,0,0:0:0:0:
118,125,17033,1,0,0:0:0:0:
118,125,17544,1,8,0:0:0:0:
118,125,17885,1,8,0:0:0:0:
118,125,18226,1,0,0:0:0:0:
118,125,18567,1,8,0:0:0:0:
118,125,18737,1,0,0:0:0:0:
118,125,19248,1,8,0:0:0:0:
118,125,21976,1,0,0:0:0:0:
152,133,22317,1,8,0:0:0:0:
152,133,22658,1,0,0:0:0:0:
152,133,22828,1,8,0:0:0:0:
152,133,23339,1,8,0:0:0:0:
152,133,24703,1,0,0:0:0:0:
183,147,25044,1,0,0:0:0:0:
183,147,25214,1,8,0:0:0:0:
183,147,25555,1,8,0:0:0:0:
183,147,26067,1,0,0:0:0:0:
183,147,27089,1,8,0:0:0:0:
183,147,27430,1,0,0:0:0:0:
183,147,28112,1,8,0:0:0:0:
183,147,28453,1,8,0:0:0:0:
183,147,29476,1,8,0:0:0:0:
183,147,30158,1,0,0:0:0:0:
183,147,32885,1,4,0:0:0:0:
183,147,33226,1,0,0:0:0:0:
183,147,33567,1,0,0:0:0:0:
183,147,33737,1,8,0:0:0:0:
183,147,34248,1,8,0:0:0:0:
183,147,34760,1,0,0:0:0:0:
183,147,34930,1,8,0:0:0:0:
183,147,35271,1,0,0:0:0:0:
183,147,35612,1,0,0:0:0:0:
183,147,35953,1,8,0:0:0:0:
183,147,36294,1,0,0:0:0:0:
183,147,36464,1,8,0:0:0:0:
183,147,36976,1,0,0:0:0:0:
183,147,37998,1,0,0:0:0:0:
183,147,38339,1,8,0:0:0:0:
183,147,39021,1,8,0:0:0:0:
183,147,39362,1,8,0:0:0:0:
183,147,39533,1,8,0:0:0:0:
183,147,40044,1,0,0:0:0:0:
183,147,40385,1,8,0:0:0:0:
183,147,40726,1,8,0:0:0:0:
183,147,41067,1,0,0:0:0:0:
183,147,41408,1,8,0:0:0:0:
183,147,41578,1,0,0:0:0:0:
183,147,42430,1,0,0:0:0:0:
183,147,42771,1,0,0:0:0:0:
183,147,43112,1,8,0:0:0:0:
183,147,43794,1,4,0:0:0:0:
183,147,44135,1,8,0:0:0:0:
183,147,44476,1,8,0:0:0:0:
183,147,44646,1,0,0:0:0:0:
183,147,45158,1,8,0:0:0:0:
183,147,45839,1,8,0:0:0:0:
183,147,46180,1,0,0:0:0:0:
183,147,46521,1,8,0:0:0:0:
183,147,46862,1,8,0:0:0:0:
183,147,47033,1,0,0:0:0:0:
183,147,47373,1,0,0:0:0:0:
183,147,47885,1,8,0:0:0:0:
183,147,48567,1,8,0:0:0:0:
183,147,48908,1,8,0:0:0:0:
183,147,49248,1,4,0:0:0:0:
183,147,49930,1,8,0:0:0:0:
183,147,50271,1,0,0:0:0:0:
183,147,50612,1,8,0:0:0:0:
183,147,51294,1,8,0:0:0:0:
183,147,51976,1,4,0:0:0:0:
183,147,52317,1,0,0:0:0:0:
183,147,52658,1,8,0:0:0:0:
183,147,53339,1,12,0:0:0:0:
184,181,53680,1,4,0:0:0:0:
184,181,54703,1,12,0:0:0:0:
184,181,55384,1,0,0:0:0:0:
184,181,55555,1,0,0:0:0:0:
184,181,55896,1,8,0:0:0:0:
184,181,56066,1,0,0:0:0:0:
184,181,56406,1,0,0:0:0:0:
184,181,56747,1,8,0:0:0:0:
197,148,57088,1,0,0:0:0:0:
197,148,57259,1,0,0:0:0:0:
197,148,57770,1,0,0:0:0:0:
197,148,58111,1,8,0:0:0:0:
187,181,58452,1,0,0:0:0:0:
187,181,58622,1,0,0:0:0:0:
187,181,58793,1,0,0:0:0:0:
187,181,59134,1,0,0:0:0:0:
187,181,59475,1,8,0:0:0:0:
187,181,59986,1,8,0:0:0:0:
187,181,60156,1,0,0:0:0:0:
187,181,60327,1,8,0:0:0:0:
187,181,60838,1,8,0:0:0:0:
187,181,61520,1,0,0:0:0:0:
187,181,61861,1,0,0:0:0:0:
187,181,62202,1,8,0:0:0:0:
187,181,62543,1,0,0:0:0:0:
187,181,63225,1,0,0:0:0:0:
187,181,63566,1,8,0:0:0:0:
187,181,63906,1,0,0:0:0:0:
187,181,64247,1,8,0:0:0:0:
187,181,64929,1,8,0:0:0:0:
187,181,65270,1,8,0:0:0:0:
187,181,65441,1,0,0:0:0:0:
187,181,65781,1,8,0:0:0:0:
187,181,65952,1,8,0:0:0:0:
170,174,66293,1,0,0:0:0:0:
184,163,66634,1,8,0:0:0:0:
170,174,66804,1,8,0:0:0:0:
184,163,66975,1,0,0:0:0:0:
184,163,67656,1,8,0:0:0:0:
184,163,67997,1,8,0:0:0:0:
184,163,68168,1,8,0:0:0:0:
184,163,68679,1,0,0:0:0:0:
184,163,69020,1,8,0:0:0:0:
184,163,69361,1,8,0:0:0:0:
184,163,69702,1,0,0:0:0:0:
184,163,70043,1,0,0:0:0:0:
184,163,70384,1,8,0:0:0:0:
175,178,70895,1,8,0:0:0:0:
175,178,71066,1,0,0:0:0:0:
184,163,71236,1,8,0:0:0:0:
175,178,71747,1,8,0:0:0:0:
175,178,72088,1,8,0:0:0:0:
175,178,72429,1,0,0:0:0:0:
175,178,73111,1,8,0:0:0:0:
175,178,73452,1,0,0:0:0:0:
175,178,73622,1,0,0:0:0:0:
175,178,73793,1,0,0:0:0:0:
175,178,74134,1,0,0:0:0:0:
175,178,74475,1,8,0:0:0:0:
175,178,75156,1,0,0:0:0:0:
175,178,75327,1,0,0:0:0:0:
175,178,75497,1,0,0:0:0:0:
175,178,75838,1,8,0:0:0:0:
175,178,76520,1,8,0:0:0:0:
175,178,76691,1,8,0:0:0:0:
175,178,76861,1,8,0:0:0:0:
175,178,77202,1,0,0:0:0:0:
175,178,77884,1,8,0:0:0:0:
161,188,78054,1,8,0:0:0:0:
161,188,78225,1,8,0:0:0:0:
161,188,78566,1,8,0:0:0:0:
161,188,78906,1,0,0:0:0:0:
161,188,79077,1,8,0:0:0:0:
161,188,79588,1,8,0:0:0:0:
161,188,79929,1,8,0:0:0:0:
161,188,80270,1,0,0:0:0:0:
161,188,80441,1,8,0:0:0:0:
161,188,80952,1,8,0:0:0:0:
161,188,81293,1,8,0:0:0:0:
161,188,81634,1,0,0:0:0:0:
161,188,81804,1,8,0:0:0:0:
161,188,81975,1,0,0:0:0:0:
161,188,83338,1,4,0:0:0:0:
161,188,83679,1,0,0:0:0:0:
161,188,84020,1,8,0:0:0:0:
161,188,84361,1,0,0:0:0:0:
161,188,84531,1,0,0:0:0:0:
161,188,84702,1,0,0:0:0:0:
161,188,85043,1,8,0:0:0:0:
161,188,85725,1,8,0:0:0:0:
161,188,86066,1,0,0:0:0:0:
256,192,86406,12,0,88622,0:0:0:0:
