osu file format v14

[General]
AudioFilename: audio.ogg
AudioLeadIn: 0
PreviewTime: 55214
Countdown: 0
SampleSet: Normal
StackLeniency: 0.7
Mode: 1
LetterboxInBreaks: 0
WidescreenStoryboard: 1

[Editor]
Bookmarks: 10726
DistanceSpacing: 0.5
BeatDivisor: 4
GridSize: 4
TimelineZoom: 0.9

[Metadata]
Title:Konna Sekai, Shiritakunakatta. (TV Size)
TitleUnicode:こんな世界、知りたくなかった。 (TV Size)
Artist:Miku Sawai
ArtistUnicode:沢井美空
Creator:J a c k y
Version:Kantan
Source:アカメが斬る!
Tags:雨宮天 雨宮 天 Amemiya Sora Akame Ga Kill! Kiru! ed ending 1 anime japanese j-pop pop jpop 憂鬱日和。 Yuuutsubiyori. Yuu'utsubiyori. jacky j_a_c_k_y Nardoxyribonucleic
BeatmapID:3134437
BeatmapSetID:1528876

[Difficulty]
HPDrainRate:8.5
CircleSize:5
OverallDifficulty:2.5
ApproachRate:5
SliderMultiplier:1.4
SliderTickRate:1

[Events]
//Background and Video events
Video,-450,"video.mp4"
0,0,"BG.jpg",0,-40
//Break Periods
//Storyboard Layer 0 (Background)
//Storyboard Layer 1 (Fail)
//Storyboard Layer 2 (Pass)
//Storyboard Layer 3 (Foreground)
//Storyboard Layer 4 (Overlay)
//Storyboard Sound Samples

[TimingPoints]
158,681.818181818182,4,1,0,40,1,0
158,-100,4,1,0,40,0,0
4930,-100,4,1,0,40,0,0
32714,-100,4,1,0,60,0,0
54703,681.818181818182,4,1,0,60,1,8
54703,-100,4,1,0,60,0,0
55981,-100,4,1,0,80,0,0
56066,681.818181818182,4,1,0,80,1,1
56066,-100,4,1,0,80,0,1
81975,-100,4,1,0,80,0,0
83338,-100,4,1,0,80,0,1
85895,-100,4,1,0,40,0,1
86066,-100,4,1,0,40,0,0

[HitObjects]
118,125,157,5,0,0:0:0:0:
114,107,839,1,8,0:0:0:0:
114,107,1521,1,0,0:0:0:0:
114,107,2885,1,8,0:0:0:0:
114,107,3567,1,8,0:0:0:0:
114,107,4248,1,0,0:0:0:0:
118,125,5612,1,0,0:0:0:0:
118,125,6976,1,0,0:0:0:0:
118,125,8339,1,0,0:0:0:0:
118,125,11067,1,8,0:0:0:0:
118,125,12430,1,8,0:0:0:0:
118,125,13794,1,0,0:0:0:0:
118,125,14476,1,8,0:0:0:0:
118,125,15158,1,0,0:0:0:0:
118,125,16521,1,0,0:0:0:0:
118,125,17885,1,8,0:0:0:0:
118,125,18567,1,0,0:0:0:0:
118,125,19248,1,8,0:0:0:0:
118,125,21976,1,0,0:0:0:0:
152,133,23339,1,8,0:0:0:0:
152,133,24703,1,0,0:0:0:0:
183,147,25385,1,8,0:0:0:0:
183,147,26067,1,0,0:0:0:0:
183,147,27430,1,0,0:0:0:0:
183,147,28112,1,8,0:0:0:0:
183,147,29476,1,8,0:0:0:0:
183,147,30158,1,0,0:0:0:0:
183,147,32885,1,4,0:0:0:0:
183,147,33567,1,8,0:0:0:0:
183,147,34248,1,8,0:0:0:0:
183,147,35612,1,0,0:0:0:0:
183,147,36294,1,0,0:0:0:0:
183,147,36976,1,8,0:0:0:0:
183,147,38339,1,8,0:0:0:0:
183,147,39703,1,0,0:0:0:0:
183,147,40385,1,8,0:0:0:0:
183,147,41067,1,0,0:0:0:0:
183,147,43794,1,4,0:0:0:0:
183,147,44476,1,8,0:0:0:0:
183,147,45158,1,8,0:0:0:0:
183,147,46521,1,8,0:0:0:0:
183,147,47203,1,0,0:0:0:0:
183,147,47885,1,8,0:0:0:0:
183,147,49248,1,4,0:0:0:0:
183,147,50612,1,8,0:0:0:0:
183,147,51294,1,8,0:0:0:0:
183,147,51976,1,4,0:0:0:0:
183,147,53339,1,12,0:0:0:0:
184,181,56066,1,4,0:0:0:0:
197,148,56747,1,8,0:0:0:0:
197,148,57429,1,0,0:0:0:0:
187,181,58793,1,0,0:0:0:0:
187,181,59475,1,8,0:0:0:0:
187,181,60156,1,8,0:0:0:0:
187,181,61520,1,0,0:0:0:0:
187,181,62202,1,8,0:0:0:0:
187,181,63566,1,0,0:0:0:0:
187,181,64247,1,8,0:0:0:0:
187,181,64929,1,8,0:0:0:0:
187,181,65611,1,0,0:0:0:0:
184,163,66975,1,4,0:0:0:0:
184,163,67656,1,8,0:0:0:0:
184,163,69020,1,8,0:0:0:0:
184,163,69702,1,0,0:0:0:0:
184,163,70384,1,8,0:0:0:0:
175,178,71066,1,0,0:0:0:0:
175,178,72429,1,0,0:0:0:0:
175,178,73111,1,8,0:0:0:0:
175,178,73793,1,0,0:0:0:0:
175,178,74475,1,8,0:0:0:0:
175,178,75156,1,0,0:0:0:0:
175,178,77884,1,12,0:0:0:0:
161,188,78566,1,8,0:0:0:0:
161,188,79247,1,0,0:0:0:0:
161,188,80611,1,8,0:0:0:0:
161,188,81293,1,8,0:0:0:0:
161,188,81975,1,0,0:0:0:0:
161,188,83338,1,4,0:0:0:0:
161,188,84020,1,8,0:0:0:0:
161,188,84702,1,0,0:0:0:0:
161,188,85384,1,8,0:0:0:0:
256,192,86066,12,0,88622,0:0:0:0:
