osu file format v14

[General]
AudioFilename: audio.mp3
AudioLeadIn: 0
PreviewTime: 59967
Countdown: 0
SampleSet: Soft
StackLeniency: 0.7
Mode: 0
LetterboxInBreaks: 0
WidescreenStoryboard: 1

[Editor]
Bookmarks: 2870
DistanceSpacing: 1.2
BeatDivisor: 4
GridSize: 4
TimelineZoom: 1

[Metadata]
Title:Gomen ne, Iiko ja Irarenai. (Anime ver.)
TitleUnicode:Gomen ne, Iiko ja Irarenai. (Anime ver.)
Artist:Miku Sawai
ArtistUnicode:Miku Sawai
Creator:CaffeAmericano
Version:I1
Source:
Tags:キルラキル aniplex trigger ending lanturn akiyuki tateyama tv size
BeatmapID:1175827
BeatmapSetID:554544

[Difficulty]
HPDrainRate:6.5
CircleSize:4
OverallDifficulty:7
ApproachRate:7
SliderMultiplier:1.55
SliderTickRate:1

[Events]
//Background and Video events
0,0,"3 (110).jpg",0,0
//Break Periods
//Storyboard Layer 0 (Background)
//Storyboard Layer 1 (Fail)
//Storyboard Layer 2 (Pass)
//Storyboard Layer 3 (Foreground)
//Storyboard Sound Samples

[TimingPoints]
548,387.096774193548,4,2,1,70,1,0
14483,-111.111111111111,4,2,1,70,0,0
37709,-100,4,2,1,70,0,0
60935,-83.3333333333333,4,2,1,70,0,0

[Colours]
Combo1 : 102,102,102
Combo2 : 249,0,0
Combo3 : 209,209,209
Combo4 : 179,145,26

[HitObjects]
184,40,6741,6,0,L|204:140,1,77.5
344,136,7128,2,0,P|304:96|264:88,1,77.5
252,260,7515,2,0,P|286:243|310:213,1,77.5
172,200,7902,2,0,L|152:292,1,77.5
296,344,8289,6,0,P|364:296|396:216,1,155
336,144,8870,1,0,0:0:0:0:
392,64,9064,2,0,L|472:56,1,77.5
336,144,9451,2,0,L|256:136,1,77.5
172,144,9838,5,0,0:0:0:0:
104,96,10031,1,0,0:0:0:0:
132,232,10225,2,0,L|228:212,1,77.5
308,72,10612,1,0,0:0:0:0:
256,140,10806,1,0,0:0:0:0:
312,220,10999,1,0,0:0:0:0:
220,44,11193,6,0,P|152:96|152:144,1,116.25
160,164,11580,2,0,L|60:148,1,77.5
256,124,11967,1,0,0:0:0:0:
388,240,12160,2,0,L|260:224,1,116.25
240,252,12547,2,0,L|164:236,1,77.5
384,136,12935,5,0,0:0:0:0:
476,332,13515,1,0,0:0:0:0:
88,304,14483,6,0,L|101:225,1,69.749997871399
212,176,14870,2,0,L|225:254,1,69.749997871399
176,312,15257,1,0,0:0:0:0:
176,312,15451,1,0,0:0:0:0:
260,324,15644,1,0,0:0:0:0:
260,324,15838,1,0,0:0:0:0:
307,255,16031,6,0,P|342:262|374:276,1,69.749997871399
436,207,16418,2,0,P|401:214|369:228,1,69.749997871399
307,159,16806,2,0,P|342:166|374:180,2,69.749997871399
240,208,17386,1,0,0:0:0:0:
168,164,17580,6,0,P|192:84|312:72,1,209.249993614197
240,208,18354,2,0,B|160:192|160:192|80:204,1,139.499995742798
40,256,18935,1,0,0:0:0:0:
40,256,19031,1,0,0:0:0:0:
40,256,19128,5,0,0:0:0:0:
216,320,19902,1,0,0:0:0:0:
300,294,20096,1,0,0:0:0:0:
152,261,20289,1,0,0:0:0:0:
132,346,20483,1,0,0:0:0:0:
236,235,20677,6,0,P|184:184|108:192,1,139.499995742798
232,56,21257,2,0,L|248:150,1,69.749997871399
48,148,21644,2,0,L|64:53,1,69.749997871399
136,316,22225,6,0,B|212:300|212:300|276:312,1,139.499995742798
388,208,22806,2,0,L|374:133,1,69.749997871399
232,188,23193,2,0,L|218:262,1,69.749997871399
476,316,23773,5,0,0:0:0:0:
401,242,23967,1,0,0:0:0:0:
374,343,24160,1,0,0:0:0:0:
503,215,24354,2,0,L|464:68,1,139.499995742798
349,153,24935,1,0,0:0:0:0:
349,153,25322,6,0,L|362:74,1,69.749997871399
204,28,25709,2,0,L|216:96,1,69.749997871399
264,168,26096,1,0,0:0:0:0:
264,168,26289,1,0,0:0:0:0:
180,176,26483,1,0,0:0:0:0:
180,176,26677,1,0,0:0:0:0:
144,252,26870,6,0,P|109:259|77:273,1,69.749997871399
15,204,27257,2,0,P|50:211|82:225,1,69.749997871399
144,156,27645,2,0,P|109:163|77:177,2,69.749997871399
211,205,28225,1,0,0:0:0:0:
212,288,28418,6,0,P|264:224|388:256,1,209.249993614197
280,352,29193,2,0,B|216:328|216:328|120:332,1,139.499995742798
80,280,29773,1,0,0:0:0:0:
80,280,29870,1,0,0:0:0:0:
80,280,29967,1,0,0:0:0:0:
196,184,30741,6,0,P|183:216|161:243,2,69.749997871399
128,136,31322,1,0,0:0:0:0:
240,44,31515,6,0,L|314:57,1,69.749997871399
392,120,31902,1,0,0:0:0:0:
244,240,32096,2,0,P|188:160|188:116,1,139.499995742798
308,56,32677,1,0,0:0:0:0:
308,56,33064,6,0,L|323:146,1,69.749997871399
343,268,33451,1,0,0:0:0:0:
456,176,33644,1,0,0:0:0:0:
456,176,34031,1,0,0:0:0:0:
373,190,34225,1,0,0:0:0:0:
290,205,34418,1,0,0:0:0:0:
426,254,34612,5,0,0:0:0:0:
401,111,34806,1,0,0:0:0:0:
343,268,34999,2,0,P|355:300|380:324,1,69.749997871399
373,190,35386,1,0,0:0:0:0:
290,205,35580,1,0,0:0:0:0:
262,284,35773,1,0,0:0:0:0:
373,190,35967,6,0,P|336:133|269:122,1,139.499995742798
196,236,36547,2,0,P|230:225|256:205,1,69.749997871399
192,24,36935,2,0,P|165:88|189:152,1,139.499995742798
432,332,37709,6,0,L|445:255,1,77.5
332,172,38096,2,0,L|345:248,1,77.5
232,320,38483,2,0,L|245:243,1,77.5
188,150,38870,1,0,0:0:0:0:
68,204,39064,1,0,0:0:0:0:
132,64,39257,6,0,L|208:50,2,77.5
68,204,39838,1,0,0:0:0:0:
188,150,40031,1,0,0:0:0:0:
32,116,40225,1,0,0:0:0:0:
8,280,40418,1,0,0:0:0:0:
232,320,40806,6,0,P|284:248|288:168,1,155
408,120,41386,1,0,0:0:0:0:
408,120,41483,1,0,0:0:0:0:
408,120,41580,2,0,L|422:202,1,77.5
272,96,41967,1,0,0:0:0:0:
364,16,42160,1,0,0:0:0:0:
180,62,42354,6,0,P|176:110|188:150,2,77.5
364,16,42935,1,0,0:0:0:0:
272,96,43128,1,0,0:0:0:0:
408,120,43322,1,0,0:0:0:0:
260,0,43515,1,0,0:0:0:0:
100,224,43902,6,0,P|144:244|184:244,1,77.5
272,96,44289,2,0,P|232:124|212:158,1,77.5
320,224,44677,2,0,P|358:227|392:245,1,77.5
252,288,45064,1,0,0:0:0:0:
136,148,45257,1,0,0:0:0:0:
340,144,45451,6,0,P|354:95|353:67,2,77.5
136,148,46031,1,0,0:0:0:0:
272,96,46225,1,0,0:0:0:0:
196,228,46418,1,0,0:0:0:0:
40,192,46612,1,0,0:0:0:0:
136,148,46806,1,0,0:0:0:0:
196,228,46999,5,0,0:0:0:0:
132,292,47193,2,0,P|204:256|288:276,1,155
143,112,47773,2,0,L|129:188,1,77.5
280,136,48160,2,0,L|266:59,1,77.5
188,8,48547,6,0,P|260:36|344:24,1,155
463,143,49128,2,0,P|392:116|316:124,1,155
184,180,49709,2,0,L|168:93,1,77.5
28,232,50096,6,0,P|99:204|175:212,1,155
227,383,50677,2,0,P|153:382|112:320,1,155
268,272,51257,2,0,L|354:287,1,77.5
428,160,51644,6,0,L|341:175,2,77.5
268,56,52225,2,0,P|232:120|256:200,1,155
432,252,52806,1,0,0:0:0:0:
372,80,52999,1,0,0:0:0:0:
276,208,53193,6,0,P|196:184|120:192,1,155
256,44,53773,2,0,L|272:138,1,77.5
104,172,54160,2,0,L|119:81,1,77.5
276,208,54547,5,0,0:0:0:0:
64,280,54741,1,0,0:0:0:0:
348,164,55128,5,0,0:0:0:0:
232,272,55322,1,0,0:0:0:0:
444,344,55516,1,0,0:0:0:0:
220,156,55902,5,0,0:0:0:0:
