osu file format v14

[General]
AudioFilename: optc.mp3
AudioLeadIn: 0
PreviewTime: 0
Countdown: 0
SampleSet: Soft
StackLeniency: 0.7
Mode: 0
LetterboxInBreaks: 0
WidescreenStoryboard: 0

[Editor]
DistanceSpacing: 1
BeatDivisor: 4
GridSize: 32
TimelineZoom: 1.1

[Metadata]
Title:Colorful. (AnimeVer.)
TitleUnicode:カラフル。(AnimeVer.)
Artist:Miku Sawai
ArtistUnicode:沢井美空
Creator:Shad0w1and
Version:imoutosan's Normal
Source:冴えない彼女の育てかた
Tags:Saenai Heroine no Sodatekata Saekano TV Size PinkHeart imoutosan Nichiyouki nich95 Muu-chan Ascendance
BeatmapID:1241712
BeatmapSetID:586296

[Difficulty]
HPDrainRate:3
CircleSize:3.5
OverallDifficulty:3
ApproachRate:4.5
SliderMultiplier:0.899999999999999
SliderTickRate:1

[Events]
//Background and Video events
0,0,"BG1.jpg",0,0
Video,0,"optc.flv"
//Break Periods
//Storyboard Layer 0 (Background)
//Storyboard Layer 1 (Fail)
//Storyboard Layer 2 (Pass)
//Storyboard Layer 3 (Foreground)
//Storyboard Sound Samples

[TimingPoints]
784,392.156862745098,4,3,0,60,1,0
10195,-100,4,3,0,45,0,0
61960,-100,4,3,0,60,0,1
72940,-100,4,3,0,60,0,0
74509,-100,4,3,0,60,0,1
85489,-100,4,2,1,40,0,0

[Colours]
Combo1 : 255,255,142
Combo2 : 255,134,255
Combo3 : 254,184,167
Combo4 : 117,186,255
SliderTrackOverride : 60,45,80
SliderBorder : 220,185,235

[HitObjects]
88,240,0,6,0,B|124:268|180:256|180:256|204:288,1,135,0|0,1:0|0:0,0:0:0:0:
228,324,784,22,0,P|288:308|296:200,1,180,4|0,0:2|0:0,0:0:0:0:
232,144,1961,1,0,1:0:0:0:
316,112,2353,2,0,B|364:92|364:92|488:132,1,180,2|0,0:2|0:0,0:0:0:0:
480,220,3529,2,0,L|476:268,1,45,0|0,1:0|0:0,0:0:0:0:
472,308,3921,6,0,B|424:320|388:288|388:288|356:324|304:324,1,180,4|2,0:2|0:2,0:0:0:0:
312,232,5098,1,0,1:0:0:0:
276,148,5490,2,0,P|236:132|188:140,2,89.9999999999999,2|0|0,0:2|1:0|0:0,0:0:0:0:
312,232,6666,1,0,1:0:0:0:
224,228,7059,6,0,L|149:283,1,89.9999999999999,2|0,0:2|1:0,0:0:0:0:
96,209,7843,2,0,L|167:154,1,89.9999999999999,0|0,0:0|1:0,0:0:0:0:
205,126,8431,1,4,1:1:0:0:
278,74,8823,1,4,0:2:0:0:
352,284,9804,1,4,0:0:0:0:
420,228,10196,5,4,0:2:0:0:
336,196,10588,2,0,P|280:228|267:251,2,89.9999999999999,0|0|0,1:0|3:0|1:0,3:0:0:0:
420,228,11765,1,2,0:2:0:0:
404,140,12157,2,0,P|436:84|459:71,2,89.9999999999999,0|0|0,1:0|3:0|1:0,3:0:0:0:
420,228,13333,6,0,B|428:272|472:300|472:300|424:312|396:344,1,180,2|0,0:2|0:0,0:0:0:0:
344,272,14510,1,0,1:0:0:0:
308,356,14902,2,0,P|264:316|260:240,2,135,2|2|0,2:0|0:2|1:0,0:0:0:0:
344,272,16470,6,0,L|407:124,2,135,4|2|0,0:2|0:2|1:0,0:0:0:0:
258,243,18039,2,0,P|200:213|136:230,2,135,2|2|0,0:2|0:2|1:0,0:0:0:0:
190,303,19608,6,0,L|114:375,1,89.9999999999999,0|0,0:0|1:0,0:0:0:0:
72,292,20392,2,0,L|-4:364,2,89.9999999999999,0|0|4,0:0|1:0|0:2,0:0:0:0:
52,116,21960,2,0,L|72:68,2,45,4|0|0,0:0|1:0|1:0,1:0:0:0:
20,200,22745,6,0,B|70:215|108:184|108:184|208:184,1,180,4|0,0:2|0:0,0:0:0:0:
280,212,23921,1,0,1:0:0:0:
218,276,24314,2,0,L|128:276,2,89.9999999999999,0|0|0,0:0|1:0|0:0,0:0:0:0:
280,212,25490,1,0,1:0:0:0:
322,134,25882,6,0,B|360:156|367:205|367:205|396:164|446:160,1,180,2|0,0:2|0:0,0:0:0:0:
400,80,27059,1,0,1:0:0:0:
320,44,27451,2,0,P|260:68|236:132,2,135,2|2|0,2:0|0:2|1:0,0:0:0:0:
400,80,29019,6,0,P|464:72|503:16,2,135,4|2|0,0:2|0:2|1:0,0:0:0:0:
324,132,30588,2,0,L|324:296,2,135,2|2|0,2:0|0:2|1:0,0:0:0:0:
320,44,32157,6,0,P|260:68|240:128,1,89.9999999999999,0|0,0:0|1:0,0:0:0:0:
200,164,32941,2,0,P|167:134|157:91,2,89.9999999999999,0|0|4,0:0|1:0|0:2,0:0:0:0:
356,256,34510,1,0,1:0:0:0:
441,228,34902,1,4,1:3:0:0:
424,316,35294,6,0,B|388:356|328:344|328:344|281:332|248:348,1,180,4|0,0:2|1:0,0:0:0:0:
356,256,36666,2,0,L|384:148,2,89.9999999999999,0|0|0,0:0|1:0|0:0,0:0:0:0:
360,260,37647,2,0,L|274:289,1,89.9999999999999,0|0,1:0|0:0,0:0:0:0:
200,336,38431,6,0,P|188:264|224:220,1,89.9999999999999
222,217,39019,1,0,1:0:0:0:
239,128,39412,1,0,0:0:0:0:
308,184,39804,2,0,L|404:184,1,89.9999999999999,2|0,0:2|1:0,0:0:0:0:
428,96,40587,1,2,0:2:0:0:
428,95,40784,2,0,P|395:65|351:59,1,89.9999999999999,0|0,1:0|0:0,0:0:0:0:
355,151,41568,6,0,B|307:151|279:119|279:119|151:119,1,180,4|0,0:2|1:0,0:0:0:0:
168,256,42941,2,0,L|245:211,2,89.9999999999999,0|0|0,0:0|1:0|0:0,0:0:0:0:
164,260,43921,2,0,L|102:225,2,67.4999999999999,0|0|0,1:0|1:0|1:0,0:0:0:0:
204,280,44706,5,0,0:0:0:0:
244,304,44902,2,0,B|264:336|264:336|300:372|360:356,1,135,0|0,0:0|1:0,0:0:0:0:
396,336,45686,1,0,0:2:0:0:
330,273,46078,2,0,L|341:183,1,89.9999999999999,2|0,0:2|0:0,0:0:0:0:
429,202,46863,1,0,0:0:0:0:
429,202,47059,2,0,L|440:112,1,89.9999999999999,0|0,1:0|0:0,0:0:0:0:
502,47,47843,6,0,B|454:11|402:31|402:31|366:-1,1,135,4|2,0:2|0:2,0:0:0:0:
291,27,48823,1,0,1:0:0:0:
288,120,49215,1,0,1:0:0:0:
288,120,49412,2,0,P|236:160|168:164,2,135,0|0|0,0:0|1:0|0:0,0:0:0:0:
264,32,50980,6,0,B|253:35|301:15|345:47|345:47|393:35,1,135,2|2,0:2|0:2,0:0:0:0:
476,12,51961,1,0,1:0:0:0:
456,100,52353,2,0,L|432:200,1,89.9999999999999
424,232,52941,2,0,L|400:332,2,89.9999999999999,0|0|0,1:0|0:0|1:0,0:0:0:0:
338,260,54117,6,0,P|258:272|202:244,2,135,4|2|0,0:2|2:0|1:0,0:0:0:0:
355,171,55686,2,0,P|420:156|459:167,2,89.9999999999999,0|0|0,3:0|1:0|3:0,3:0:0:0:
334,83,56863,1,0,1:0:0:0:
251,113,57255,6,0,P|251:47|297:0,2,135,4|2|0,0:2|2:0|1:0,0:0:0:0:
334,83,58823,2,0,L|371:36,2,45,0|0|0,0:0|0:0|1:0,0:0:0:0:
411,128,59608,2,0,L|448:80,2,45,0|0|0,0:0|0:0|1:0,0:0:0:0:
383,163,60196,1,0,1:0:0:0:
353,196,60391,5,0,1:0:0:0:
360,284,60783,1,0,0:0:0:0:
288,339,61176,1,4,1:3:0:0:
277,249,61568,1,4,0:0:0:0:
360,284,61961,6,0,P|416:284|456:260,1,89.9999999999999,4|0,0:2|1:0,0:0:0:0:
472,184,62745,2,0,P|416:183|376:208,2,89.9999999999999,0|0|0,3:0|1:0|3:0,3:0:0:0:
500,100,63921,1,0,1:0:0:0:
488,12,64314,1,2,0:2:0:0:
416,68,64706,6,0,L|328:32,1,89.9999999999999,0|0,1:0|0:0,0:0:0:0:
248,68,65490,2,0,L|160:32,1,89.9999999999999,0|0,1:0|0:0,0:0:0:0:
80,68,66274,1,2,2:0:0:0:
80,68,66470,2,0,B|60:100|60:100|88:144|64:212,1,135,0|0,0:0|1:0,0:0:0:0:
12,264,67451,2,0,P|60:284|114:273,1,89.9999999999999,0|0,0:0|1:0,0:0:0:0:
160,212,68235,6,0,B|168:176|168:176|212:200|212:200|312:200,1,180,4|0,0:2|0:0,0:0:0:0:
322,112,69412,2,0,L|232:112,2,89.9999999999999,0|0|0,1:0|0:0|1:0,0:0:0:0:
368,32,70588,1,0,0:0:0:0:
412,112,70980,1,0,1:0:0:0:
460,188,71372,6,0,B|508:264|508:264|508:316,2,135,2|2|0,2:0|2:0|1:0,0:0:0:0:
411,263,72941,1,4,0:2:0:0:
323,263,73333,1,0,1:0:0:0:
235,263,73725,1,4,1:3:0:0:
190,184,74117,1,0,1:0:0:0:
279,188,74510,6,0,P|311:220|323:272,2,89.9999999999999,4|0|0,0:2|1:0|0:0,0:0:0:0:
190,184,75686,1,0,1:0:0:0:
236,106,76078,2,0,P|236:60|207:15,2,89.9999999999999,0|0|2,0:2|1:0|2:2,0:0:0:0:
190,184,77255,6,0,L|146:267,1,89.9999999999999,0|0,1:0|0:0,0:0:0:0:
61,289,78039,2,0,L|17:372,2,89.9999999999999,0|0|2,1:0|0:0|0:2,0:0:0:0:
35,251,79019,2,0,B|31:219|43:186|43:186|43:110,1,135,0|0,0:0|1:0,0:0:0:0:
109,55,80000,2,0,B|131:88|131:88|131:139,1,89.9999999999999,0|0,0:0|1:0,0:0:0:0:
127,228,80784,5,4,0:2:0:0:
199,281,81176,2,0,P|218:238|212:194,2,89.9999999999999,0|0|2,1:0|0:0|0:2,0:0:0:0:
271,334,82353,2,0,P|299:294|347:278,2,89.9999999999999,0|0|2,0:0|1:0|0:2,0:0:0:0:
354,366,83529,1,0,1:0:0:0:
426,313,83921,6,0,B|437:268|416:231|416:231|448:192|429:135,1,180,2|0,0:2|0:0,0:0:0:0:
346,171,85097,2,0,P|304:155|261:162,1,89.9999999999999,0|0,1:0|0:0,0:0:0:0:
300,245,85882,5,2,0:0:0:0:
300,245,86274,2,0,L|200:245,1,89.9999999999999
138,189,87059,6,0,B|98:209|98:209|-3:189,2,135,2|0|0,2:0|0:0|0:0,0:0:0:0:
175,163,88431,1,0,0:0:0:0:
