osu file format v14

[General]
AudioFilename: optc.mp3
AudioLeadIn: 0
PreviewTime: 0
Countdown: 0
SampleSet: Soft
StackLeniency: 0.5
Mode: 3
LetterboxInBreaks: 0
SpecialStyle: 0
WidescreenStoryboard: 0

[Editor]
Bookmarks: 784,10195,22744,35293,47842,61960,74509
DistanceSpacing: 1.6
BeatDivisor: 4
GridSize: 32
TimelineZoom: 2.3

[Metadata]
Title:Colorful. (AnimeVer.)
TitleUnicode:カラフル。(AnimeVer.)
Artist:Miku Sawai
ArtistUnicode:沢井美空
Creator:Shad0w1and
Version:HD
Source:冴えない彼女の育てかた
Tags:Saenai Heroine no Sodatekata Saekano TV Size PinkHeart imoutosan Nichiyouki nich95 Muu-chan Ascendance
BeatmapID:1247086
BeatmapSetID:586296

[Difficulty]
HPDrainRate:7
CircleSize:4
OverallDifficulty:7.5
ApproachRate:9.2
SliderMultiplier:1.4
SliderTickRate:1

[Events]
//Background and Video events
0,0,"BG2.jpg",0,0
Video,0,"optc.flv"
//Break Periods
//Storyboard Layer 0 (Background)
//Storyboard Layer 1 (Fail)
//Storyboard Layer 2 (Pass)
//Storyboard Layer 3 (Foreground)
//Storyboard Sound Samples

[TimingPoints]
784,392.156862745098,4,2,33,50,1,0
10195,-100,4,2,33,30,0,0
35293,-100,4,2,33,35,0,0
54117,-100,4,2,33,40,0,0
61960,-100,4,2,33,50,0,1
72940,-100,4,2,33,50,0,0
74509,-100,4,2,33,50,0,1
85489,-100,4,2,33,40,0,0
87058,-100,4,2,33,30,0,0

[Colours]
Combo1 : 255,255,142
Combo2 : 255,134,255
Combo3 : 254,184,167
Combo4 : 117,186,255
SliderTrackOverride : 60,45,80
SliderBorder : 220,185,235

[HitObjects]
192,192,0,5,8,0:0:0:0:
64,192,97,1,8,0:0:0:0:
448,192,195,1,2,0:0:0:0:
320,192,293,1,2,0:0:0:0:
64,192,391,1,8,0:0:0:0:
192,192,489,1,0,0:0:0:0:
448,192,587,1,8,0:0:0:0:
320,192,685,1,0,0:0:0:0:
64,192,784,1,2,0:0:0:0:
192,192,784,1,4,0:0:0:0:
448,192,980,1,2,0:0:0:0:
192,192,1176,1,8,0:0:0:0:
320,192,1176,1,0,0:0:0:0:
64,192,1568,1,2,0:0:0:0:
192,192,1764,1,2,0:0:0:0:
320,192,1960,1,8,0:0:0:0:
448,192,1960,1,0,0:0:0:0:
192,192,2352,1,2,0:0:0:0:
320,192,2548,1,2,0:0:0:0:
448,192,2744,1,8,0:0:0:0:
64,192,2744,1,0,0:0:0:0:
320,192,3038,1,8,0:0:0:0:
192,192,3038,1,0,0:0:0:0:
448,192,3136,1,2,0:0:0:0:
64,192,3234,1,0,0:0:0:0:
192,192,3333,1,2,0:0:0:0:
448,192,3431,1,0,0:0:0:0:
64,192,3529,1,8,0:0:0:0:
320,192,3529,1,0,0:0:0:0:
192,192,3627,1,0,0:0:0:0:
448,192,3725,1,0,0:0:0:0:
320,192,3823,1,0,0:0:0:0:
64,192,3921,1,2,0:0:0:0:
192,192,4117,1,2,0:0:0:0:
320,192,4313,1,8,0:0:0:0:
448,192,4313,1,0,0:0:0:0:
192,192,4705,1,2,0:0:0:0:
320,192,4901,1,2,0:0:0:0:
448,192,5097,1,8,0:0:0:0:
64,192,5097,1,0,0:0:0:0:
320,192,5489,1,2,0:0:0:0:
448,192,5685,1,2,0:0:0:0:
64,192,5882,1,8,0:0:0:0:
192,192,5882,1,0,0:0:0:0:
320,192,6274,1,2,0:0:0:0:
448,192,6372,1,0,0:0:0:0:
64,192,6470,1,2,0:0:0:0:
192,192,6568,1,0,0:0:0:0:
320,192,6666,1,8,0:0:0:0:
448,192,6666,1,0,0:0:0:0:
192,192,6764,1,0,0:0:0:0:
64,192,6862,1,2,0:0:0:0:
448,192,6960,1,8,0:0:0:0:
320,192,7058,1,2,0:0:0:0:
192,192,7254,1,2,0:0:0:0:
448,192,7450,1,8,0:0:0:0:
64,192,7450,1,0,0:0:0:0:
320,192,7646,1,2,0:0:0:0:
192,192,7842,1,8,0:0:0:0:
64,192,7842,1,0,0:0:0:0:
320,192,8038,1,2,0:0:0:0:
192,192,8104,1,2,0:0:0:0:
64,192,8169,1,2,0:0:0:0:
448,192,8234,1,2,0:0:0:0:
192,192,8431,1,4,0:0:0:0:
64,192,8431,1,2,0:0:0:0:
448,192,8823,1,4,0:0:0:0:
320,192,8823,1,2,0:0:0:0:
64,192,9803,1,2,0:0:0:0:
448,192,9803,1,0,0:0:0:0:
192,192,10195,1,4,0:0:0:0:
320,192,10195,1,2,0:0:0:0:
64,192,10587,1,8,0:0:0:0:
448,192,10587,1,0,0:0:0:0:
320,192,10784,1,2,0:0:0:0:
192,192,11176,1,2,0:0:0:0:
64,192,11372,1,8,0:0:0:0:
320,192,11372,1,0,0:0:0:0:
448,192,11568,1,0,0:0:0:0:
64,192,11764,1,2,0:0:0:0:
192,192,11960,1,0,0:0:0:0:
320,192,12156,1,8,0:0:0:0:
448,192,12156,1,0,0:0:0:0:
192,192,12352,1,2,0:0:0:0:
320,192,12744,1,2,0:0:0:0:
192,192,12940,1,8,0:0:0:0:
64,192,12940,1,0,0:0:0:0:
320,192,13136,1,2,0:0:0:0:
448,192,13333,1,2,0:0:0:0:
192,192,13529,1,0,0:0:0:0:
448,192,13725,1,8,0:0:0:0:
64,192,13725,1,0,0:0:0:0:
192,192,13921,1,2,0:0:0:0:
320,192,14117,1,0,0:0:0:0:
64,192,14313,1,2,0:0:0:0:
192,192,14509,1,8,0:0:0:0:
320,192,14509,1,0,0:0:0:0:
448,192,14705,1,0,0:0:0:0:
64,192,14901,1,2,0:0:0:0:
192,192,15097,1,0,0:0:0:0:
320,192,15293,1,8,0:0:0:0:
448,192,15293,1,0,0:0:0:0:
192,192,15489,1,2,0:0:0:0:
64,192,15882,1,2,0:0:0:0:
320,192,16078,1,8,0:0:0:0:
448,192,16078,1,0,0:0:0:0:
192,192,16176,1,8,0:0:0:0:
64,192,16274,1,2,0:0:0:0:
448,192,16470,1,4,0:0:0:0:
320,192,16470,1,2,0:0:0:0:
192,192,16862,1,8,0:0:0:0:
64,192,16862,1,0,0:0:0:0:
320,192,17058,1,2,0:0:0:0:
448,192,17450,1,2,0:0:0:0:
320,192,17646,1,8,0:0:0:0:
64,192,17646,1,0,0:0:0:0:
192,192,17842,1,2,0:0:0:0:
320,192,18038,1,2,0:0:0:0:
64,192,18431,1,8,0:0:0:0:
448,192,18431,1,0,0:0:0:0:
320,192,18627,1,2,0:0:0:0:
192,192,19019,1,2,0:0:0:0:
64,192,19215,1,8,0:0:0:0:
448,192,19215,1,0,0:0:0:0:
192,192,19411,1,2,0:0:0:0:
320,192,19607,1,2,0:0:0:0:
192,192,19999,1,8,0:0:0:0:
64,192,19999,1,0,0:0:0:0:
320,192,20195,1,2,0:0:0:0:
448,192,20587,1,2,0:0:0:0:
192,192,20784,1,8,0:0:0:0:
320,192,20784,1,0,0:0:0:0:
64,192,20980,1,2,0:0:0:0:
320,192,21176,1,4,0:0:0:0:
448,192,21176,1,2,0:0:0:0:
64,192,21372,1,8,0:0:0:0:
192,192,21372,1,0,0:0:0:0:
448,192,21568,1,8,0:0:0:0:
320,192,21568,1,0,0:0:0:0:
192,192,21666,1,2,0:0:0:0:
64,192,21764,1,2,0:0:0:0:
448,192,21960,1,2,0:0:0:0:
320,192,22058,1,2,0:0:0:0:
64,192,22156,1,2,0:0:0:0:
192,192,22156,1,4,0:0:0:0:
320,192,22352,1,8,0:0:0:0:
448,192,22352,1,0,0:0:0:0:
64,192,22548,1,8,0:0:0:0:
192,192,22548,1,0,0:0:0:0:
448,192,22646,1,8,0:0:0:0:
320,192,22646,1,0,0:0:0:0:
64,192,22744,1,4,0:0:0:0:
192,192,22744,1,2,0:0:0:0:
320,192,22940,1,0,0:0:0:0:
64,192,23136,1,8,0:0:0:0:
448,192,23136,1,0,0:0:0:0:
192,192,23333,1,2,0:0:0:0:
320,192,23725,1,2,0:0:0:0:
64,192,23921,1,8,0:0:0:0:
448,192,23921,1,0,0:0:0:0:
320,192,24117,1,0,0:0:0:0:
192,192,24313,1,2,0:0:0:0:
320,192,24705,1,8,0:0:0:0:
448,192,24705,1,0,0:0:0:0:
64,192,24901,1,2,0:0:0:0:
64,192,25293,1,2,0:0:0:0:
192,192,25489,1,8,0:0:0:0:
320,192,25489,1,0,0:0:0:0:
448,192,25685,1,2,0:0:0:0:
64,192,25882,1,2,0:0:0:0:
192,192,26078,1,0,0:0:0:0:
448,192,26274,1,8,0:0:0:0:
320,192,26274,1,0,0:0:0:0:
64,192,26470,1,2,0:0:0:0:
448,192,26862,1,2,0:0:0:0:
192,192,27058,1,8,0:0:0:0:
320,192,27058,1,0,0:0:0:0:
64,192,27254,1,2,0:0:0:0:
448,192,27450,1,2,0:0:0:0:
320,192,27646,1,0,0:0:0:0:
192,192,27842,1,8,0:0:0:0:
64,192,27842,1,0,0:0:0:0:
320,192,28038,1,2,0:0:0:0:
192,192,28431,1,2,0:0:0:0:
64,192,28627,1,8,0:0:0:0:
448,192,28627,1,0,0:0:0:0:
320,192,28725,1,2,0:0:0:0:
192,192,28823,1,2,0:0:0:0:
64,192,28921,1,2,0:0:0:0:
320,192,29019,1,2,0:0:0:0:
448,192,29019,1,4,0:0:0:0:
64,192,29411,1,8,0:0:0:0:
192,192,29411,1,0,0:0:0:0:
320,192,29607,1,2,0:0:0:0:
64,192,29999,1,2,0:0:0:0:
320,192,30195,1,8,0:0:0:0:
192,192,30195,1,0,0:0:0:0:
448,192,30391,1,2,0:0:0:0:
64,192,30587,1,2,0:0:0:0:
192,192,30980,1,8,0:0:0:0:
320,192,30980,1,0,0:0:0:0:
64,192,31176,1,2,0:0:0:0:
448,192,31568,1,2,0:0:0:0:
192,192,31764,1,8,0:0:0:0:
64,192,31764,1,0,0:0:0:0:
320,192,31960,1,0,0:0:0:0:
192,192,32156,1,2,0:0:0:0:
64,192,32548,1,8,0:0:0:0:
448,192,32548,1,0,0:0:0:0:
320,192,32744,1,2,0:0:0:0:
448,192,33136,1,2,0:0:0:0:
192,192,33333,1,8,0:0:0:0:
64,192,33333,1,0,0:0:0:0:
320,192,33529,1,4,0:0:0:0:
448,192,33529,1,2,0:0:0:0:
64,192,33725,1,2,0:0:0:0:
320,192,33921,1,0,0:0:0:0:
192,192,34019,1,8,0:0:0:0:
64,192,34019,1,0,0:0:0:0:
448,192,34117,1,8,0:0:0:0:
320,192,34117,1,0,0:0:0:0:
192,192,34313,1,2,0:0:0:0:
320,192,34411,1,8,0:0:0:0:
448,192,34411,1,0,0:0:0:0:
64,192,34509,1,8,0:0:0:0:
192,192,34509,1,0,0:0:0:0:
320,192,34705,1,0,0:0:0:0:
192,192,34803,1,2,0:0:0:0:
64,192,34901,1,2,0:0:0:0:
320,192,35097,1,2,0:0:0:0:
448,192,35293,128,4,35685:0:0:0:0:
64,192,35293,1,2,0:0:0:0:
192,192,35882,1,2,0:0:0:0:
448,192,36078,1,8,0:0:0:0:
64,192,36078,128,0,36470:0:0:0:0:
320,192,36470,1,0,0:0:0:0:
192,192,36666,1,2,0:0:0:0:
448,192,36862,1,2,0:0:0:0:
64,192,37058,1,8,0:0:0:0:
192,192,37058,128,0,37450:0:0:0:0:
320,192,37254,1,0,0:0:0:0:
448,192,37450,1,2,0:0:0:0:
64,192,37646,1,8,0:0:0:0:
320,192,37646,1,0,0:0:0:0:
448,192,37842,1,0,0:0:0:0:
192,192,38038,1,0,0:0:0:0:
448,192,38234,1,2,0:0:0:0:
320,192,38333,1,2,0:0:0:0:
64,192,38431,128,2,38823:0:0:0:0:
448,192,38823,1,0,0:0:0:0:
320,192,39019,1,2,0:0:0:0:
64,192,39215,1,8,0:0:0:0:
192,192,39215,1,0,0:0:0:0:
448,192,39411,1,0,0:0:0:0:
64,192,39607,1,0,0:0:0:0:
320,192,39803,1,2,0:0:0:0:
192,192,39999,1,2,0:0:0:0:
64,192,40195,1,8,0:0:0:0:
320,192,40195,1,0,0:0:0:0:
448,192,40391,1,0,0:0:0:0:
192,192,40587,1,2,0:0:0:0:
448,192,40784,1,8,0:0:0:0:
64,192,40784,1,0,0:0:0:0:
320,192,40882,1,0,0:0:0:0:
192,192,40980,1,0,0:0:0:0:
64,192,41078,1,2,0:0:0:0:
448,192,41176,1,0,0:0:0:0:
320,192,41274,1,0,0:0:0:0:
64,192,41372,1,2,0:0:0:0:
192,192,41470,1,0,0:0:0:0:
448,192,41568,128,2,41960:0:0:0:0:
320,192,41568,1,4,0:0:0:0:
64,192,42156,1,2,0:0:0:0:
192,192,42352,1,8,0:0:0:0:
448,192,42352,128,0,42744:0:0:0:0:
320,192,42744,1,0,0:0:0:0:
64,192,42940,1,2,0:0:0:0:
192,192,43038,1,2,0:0:0:0:
320,192,43136,1,2,0:0:0:0:
192,192,43333,1,8,0:0:0:0:
64,192,43333,1,0,0:0:0:0:
448,192,43529,1,2,0:0:0:0:
320,192,43725,1,2,0:0:0:0:
64,192,43921,1,8,0:0:0:0:
192,192,43921,1,0,0:0:0:0:
448,192,44215,1,8,0:0:0:0:
320,192,44215,1,0,0:0:0:0:
192,192,44509,1,2,0:0:0:0:
320,192,44607,1,0,0:0:0:0:
448,192,44705,1,2,0:0:0:0:
64,192,45097,1,0,0:0:0:0:
192,192,45293,1,2,0:0:0:0:
448,192,45489,1,8,0:0:0:0:
320,192,45489,1,0,0:0:0:0:
192,192,45882,1,0,0:0:0:0:
320,192,46078,1,2,0:0:0:0:
192,192,46176,1,2,0:0:0:0:
64,192,46274,1,2,0:0:0:0:
448,192,46470,1,8,0:0:0:0:
320,192,46470,1,0,0:0:0:0:
192,192,46666,1,2,0:0:0:0:
320,192,46862,1,2,0:0:0:0:
64,192,47058,1,8,0:0:0:0:
448,192,47058,1,0,0:0:0:0:
192,192,47156,1,8,0:0:0:0:
320,192,47254,1,2,0:0:0:0:
448,192,47352,1,2,0:0:0:0:
64,192,47450,1,2,0:0:0:0:
192,192,47548,1,2,0:0:0:0:
448,192,47646,1,2,0:0:0:0:
320,192,47744,1,2,0:0:0:0:
192,192,47842,1,4,0:0:0:0:
64,192,47842,1,2,0:0:0:0:
448,192,48038,1,0,0:0:0:0:
320,192,48234,1,2,0:0:0:0:
192,192,48431,1,8,0:0:0:0:
64,192,48431,1,0,0:0:0:0:
320,192,48823,1,2,0:0:0:0:
448,192,49019,1,8,0:0:0:0:
64,192,49019,1,0,0:0:0:0:
192,192,49215,1,2,0:0:0:0:
320,192,49411,1,2,0:0:0:0:
64,192,49607,1,0,0:0:0:0:
192,192,49803,1,0,0:0:0:0:
320,192,49999,1,8,0:0:0:0:
448,192,49999,1,0,0:0:0:0:
64,192,50391,1,2,0:0:0:0:
320,192,50587,1,8,0:0:0:0:
448,192,50587,1,0,0:0:0:0:
192,192,50784,1,0,0:0:0:0:
64,192,50980,1,2,0:0:0:0:
448,192,51176,1,0,0:0:0:0:
320,192,51372,1,2,0:0:0:0:
64,192,51568,1,8,0:0:0:0:
192,192,51568,1,0,0:0:0:0:
320,192,51960,1,2,0:0:0:0:
448,192,52156,1,8,0:0:0:0:
64,192,52156,1,0,0:0:0:0:
192,192,52352,1,0,0:0:0:0:
320,192,52548,1,2,0:0:0:0:
64,192,52744,1,0,0:0:0:0:
192,192,52940,1,0,0:0:0:0:
320,192,53136,1,8,0:0:0:0:
448,192,53136,1,0,0:0:0:0:
192,192,53529,1,2,0:0:0:0:
448,192,53725,1,8,0:0:0:0:
64,192,53725,1,0,0:0:0:0:
320,192,53921,1,8,0:0:0:0:
192,192,54019,1,8,0:0:0:0:
64,192,54117,1,2,0:0:0:0:
448,192,54117,128,4,54509:0:0:0:0:
192,192,54509,1,8,0:0:0:0:
320,192,54509,1,0,0:0:0:0:
448,192,54705,1,8,0:0:0:0:
64,192,54705,128,0,55097:0:0:0:0:
320,192,55097,1,2,0:0:0:0:
192,192,55293,1,8,0:0:0:0:
64,192,55293,1,0,0:0:0:0:
320,192,55685,1,2,0:0:0:0:
448,192,56078,1,8,0:0:0:0:
64,192,56078,1,0,0:0:0:0:
192,192,56470,1,2,0:0:0:0:
320,192,56666,1,2,0:0:0:0:
64,192,56862,1,8,0:0:0:0:
448,192,56862,1,0,0:0:0:0:
192,192,57058,1,2,0:0:0:0:
448,192,57254,1,2,0:0:0:0:
320,192,57254,128,4,57646:0:0:0:0:
192,192,57646,1,8,0:0:0:0:
448,192,57646,1,0,0:0:0:0:
320,192,57842,1,8,0:0:0:0:
64,192,57842,128,0,58234:0:0:0:0:
448,192,58234,1,2,0:0:0:0:
192,192,58431,1,8,0:0:0:0:
64,192,58431,1,0,0:0:0:0:
320,192,58627,1,0,0:0:0:0:
64,192,58823,1,2,0:0:0:0:
192,192,59019,1,0,0:0:0:0:
320,192,59215,1,8,0:0:0:0:
448,192,59215,1,0,0:0:0:0:
64,192,59411,1,0,0:0:0:0:
192,192,59607,1,2,0:0:0:0:
448,192,59803,1,2,0:0:0:0:
192,192,59999,1,2,0:0:0:0:
320,192,59999,1,0,0:0:0:0:
448,192,60195,1,8,0:0:0:0:
64,192,60195,1,0,0:0:0:0:
320,192,60293,1,8,0:0:0:0:
64,192,60391,1,2,0:0:0:0:
192,192,60391,1,4,0:0:0:0:
320,192,60783,128,0,61176:0:0:0:0:
64,192,61176,128,0,61568:0:0:0:0:
448,192,61437,1,2,0:0:0:0:
320,192,61502,1,2,0:0:0:0:
192,192,61568,128,8,61960:0:0:0:0:
64,192,61960,1,2,0:0:0:0:
448,192,61960,1,4,0:0:0:0:
320,192,62156,1,0,0:0:0:0:
64,192,62352,1,8,0:0:0:0:
192,192,62352,1,0,0:0:0:0:
320,192,62548,1,0,0:0:0:0:
448,192,62744,1,2,0:0:0:0:
64,192,62744,1,0,0:0:0:0:
192,192,62940,1,2,0:0:0:0:
64,192,63136,1,8,0:0:0:0:
320,192,63136,1,0,0:0:0:0:
448,192,63333,1,0,0:0:0:0:
64,192,63529,1,2,0:0:0:0:
192,192,63529,1,0,0:0:0:0:
448,192,63725,1,0,0:0:0:0:
64,192,63921,1,8,0:0:0:0:
320,192,63921,1,0,0:0:0:0:
192,192,64117,1,0,0:0:0:0:
320,192,64215,1,8,0:0:0:0:
448,192,64313,1,2,0:0:0:0:
64,192,64313,1,0,0:0:0:0:
192,192,64509,1,2,0:0:0:0:
320,192,64705,1,8,0:0:0:0:
448,192,64705,1,0,0:0:0:0:
192,192,64901,1,0,0:0:0:0:
64,192,65097,1,2,0:0:0:0:
448,192,65097,1,0,0:0:0:0:
320,192,65293,1,0,0:0:0:0:
64,192,65489,1,8,0:0:0:0:
192,192,65489,1,0,0:0:0:0:
320,192,65685,1,0,0:0:0:0:
64,192,65882,1,2,0:0:0:0:
448,192,65882,1,0,0:0:0:0:
192,192,66078,1,2,0:0:0:0:
320,192,66274,1,8,0:0:0:0:
448,192,66274,1,0,0:0:0:0:
192,192,66470,1,0,0:0:0:0:
448,192,66666,1,2,0:0:0:0:
64,192,66666,1,0,0:0:0:0:
320,192,66862,1,0,0:0:0:0:
64,192,67058,1,8,0:0:0:0:
192,192,67058,1,0,0:0:0:0:
448,192,67254,1,0,0:0:0:0:
64,192,67450,1,2,0:0:0:0:
320,192,67450,1,0,0:0:0:0:
192,192,67646,1,2,0:0:0:0:
448,192,67842,1,8,0:0:0:0:
320,192,67842,1,0,0:0:0:0:
64,192,68038,1,0,0:0:0:0:
192,192,68136,1,8,0:0:0:0:
320,192,68234,1,2,0:0:0:0:
448,192,68234,1,0,0:0:0:0:
192,192,68431,1,0,0:0:0:0:
64,192,68627,1,8,0:0:0:0:
320,192,68627,1,0,0:0:0:0:
448,192,68823,1,0,0:0:0:0:
192,192,69019,1,2,0:0:0:0:
64,192,69019,1,0,0:0:0:0:
320,192,69215,1,2,0:0:0:0:
64,192,69411,1,8,0:0:0:0:
448,192,69411,1,0,0:0:0:0:
320,192,69607,1,0,0:0:0:0:
192,192,69705,1,0,0:0:0:0:
448,192,69803,1,2,0:0:0:0:
64,192,69803,1,0,0:0:0:0:
320,192,69999,1,0,0:0:0:0:
64,192,70195,1,8,0:0:0:0:
192,192,70195,1,0,0:0:0:0:
320,192,70391,1,0,0:0:0:0:
64,192,70587,1,2,0:0:0:0:
448,192,70587,1,0,0:0:0:0:
192,192,70784,1,2,0:0:0:0:
320,192,70980,1,8,0:0:0:0:
448,192,70980,1,0,0:0:0:0:
64,192,71176,1,0,0:0:0:0:
192,192,71372,1,2,0:0:0:0:
448,192,71372,1,0,0:0:0:0:
320,192,71568,1,0,0:0:0:0:
64,192,71764,1,8,0:0:0:0:
192,192,71764,1,0,0:0:0:0:
448,192,71960,1,0,0:0:0:0:
64,192,72156,1,2,0:0:0:0:
320,192,72156,1,0,0:0:0:0:
192,192,72352,1,2,0:0:0:0:
448,192,72548,1,8,0:0:0:0:
320,192,72548,1,0,0:0:0:0:
64,192,72744,1,0,0:0:0:0:
192,192,72842,1,8,0:0:0:0:
320,192,72940,1,4,0:0:0:0:
448,192,72940,1,2,0:0:0:0:
64,192,73136,1,8,0:0:0:0:
192,192,73136,1,0,0:0:0:0:
448,192,73333,1,2,0:0:0:0:
320,192,73431,1,8,0:0:0:0:
192,192,73529,1,0,0:0:0:0:
64,192,73725,1,8,0:0:0:0:
192,192,73823,1,8,0:0:0:0:
320,192,73921,1,2,0:0:0:0:
64,192,74117,1,8,0:0:0:0:
192,192,74215,1,8,0:0:0:0:
320,192,74313,1,2,0:0:0:0:
448,192,74411,1,2,0:0:0:0:
192,192,74509,1,2,0:0:0:0:
64,192,74509,1,4,0:0:0:0:
320,192,74705,1,0,0:0:0:0:
64,192,74901,1,8,0:0:0:0:
448,192,74901,1,0,0:0:0:0:
192,192,75097,1,0,0:0:0:0:
320,192,75293,1,2,0:0:0:0:
448,192,75293,1,0,0:0:0:0:
192,192,75489,1,2,0:0:0:0:
64,192,75685,1,8,0:0:0:0:
448,192,75685,1,0,0:0:0:0:
320,192,75882,1,0,0:0:0:0:
192,192,76078,1,2,0:0:0:0:
64,192,76078,1,0,0:0:0:0:
448,192,76274,1,0,0:0:0:0:
320,192,76470,1,8,0:0:0:0:
192,192,76470,1,0,0:0:0:0:
64,192,76666,1,0,0:0:0:0:
448,192,76862,1,2,0:0:0:0:
320,192,76862,1,0,0:0:0:0:
192,192,77058,1,2,0:0:0:0:
448,192,77254,1,8,0:0:0:0:
64,192,77254,1,0,0:0:0:0:
320,192,77450,1,0,0:0:0:0:
192,192,77646,1,2,0:0:0:0:
64,192,77646,1,0,0:0:0:0:
320,192,77842,1,0,0:0:0:0:
64,192,78038,1,8,0:0:0:0:
448,192,78038,1,0,0:0:0:0:
192,192,78234,1,0,0:0:0:0:
320,192,78431,1,2,0:0:0:0:
448,192,78431,1,0,0:0:0:0:
192,192,78627,1,2,0:0:0:0:
64,192,78823,1,8,0:0:0:0:
448,192,78823,1,0,0:0:0:0:
320,192,79019,1,0,0:0:0:0:
192,192,79215,1,2,0:0:0:0:
64,192,79215,1,0,0:0:0:0:
448,192,79411,1,0,0:0:0:0:
320,192,79607,1,8,0:0:0:0:
64,192,79607,1,0,0:0:0:0:
192,192,79803,1,0,0:0:0:0:
320,192,79999,1,2,0:0:0:0:
448,192,79999,1,0,0:0:0:0:
64,192,80195,1,2,0:0:0:0:
320,192,80391,1,8,0:0:0:0:
192,192,80391,1,0,0:0:0:0:
448,192,80587,1,8,0:0:0:0:
320,192,80685,1,8,0:0:0:0:
192,192,80784,1,2,0:0:0:0:
64,192,80784,1,0,0:0:0:0:
320,192,80980,1,0,0:0:0:0:
448,192,81176,1,8,0:0:0:0:
64,192,81176,1,0,0:0:0:0:
192,192,81372,1,0,0:0:0:0:
320,192,81568,1,2,0:0:0:0:
448,192,81568,1,0,0:0:0:0:
64,192,81764,1,2,0:0:0:0:
192,192,81960,1,8,0:0:0:0:
320,192,81960,1,0,0:0:0:0:
448,192,82156,1,0,0:0:0:0:
64,192,82352,1,2,0:0:0:0:
192,192,82352,1,0,0:0:0:0:
448,192,82548,1,0,0:0:0:0:
192,192,82744,1,8,0:0:0:0:
320,192,82744,1,0,0:0:0:0:
64,192,82940,1,0,0:0:0:0:
320,192,83136,1,2,0:0:0:0:
448,192,83136,1,0,0:0:0:0:
192,192,83333,1,2,0:0:0:0:
64,192,83529,1,8,0:0:0:0:
448,192,83529,1,0,0:0:0:0:
320,192,83725,1,8,0:0:0:0:
192,192,83823,1,8,0:0:0:0:
64,192,83921,1,2,0:0:0:0:
448,192,83921,1,0,0:0:0:0:
320,192,84117,1,0,0:0:0:0:
192,192,84313,1,8,0:0:0:0:
64,192,84313,1,0,0:0:0:0:
320,192,84509,1,2,0:0:0:0:
448,192,84705,1,8,0:0:0:0:
64,192,84705,1,0,0:0:0:0:
192,192,84803,1,8,0:0:0:0:
320,192,84901,1,2,0:0:0:0:
448,192,84999,1,2,0:0:0:0:
64,192,85097,1,2,0:0:0:0:
192,192,85195,1,2,0:0:0:0:
448,192,85293,1,2,0:0:0:0:
320,192,85391,1,2,0:0:0:0:
192,192,85489,1,2,0:0:0:0:
64,192,85489,128,0,85882:0:0:0:0:
320,192,85882,1,0,0:0:0:0:
448,192,86274,1,0,0:0:0:0:
320,192,86470,1,0,0:0:0:0:
192,192,86666,1,0,0:0:0:0:
64,192,86862,1,0,0:0:0:0:
448,192,87058,1,0,0:0:0:0:
320,192,87254,1,0,0:0:0:0:
192,192,87450,1,0,0:0:0:0:
64,192,87646,128,0,88038:0:0:0:0:
320,192,88038,1,0,0:0:0:0:
192,192,88234,1,0,0:0:0:0:
320,192,88431,1,0,0:0:0:0:
