osu file format v14

[General]
AudioFilename: audio.MP3
AudioLeadIn: 0
PreviewTime: 60572
Countdown: 1
SampleSet: Soft
StackLeniency: 0.4
Mode: 0
LetterboxInBreaks: 0
WidescreenStoryboard: 1

[Editor]
DistanceSpacing: 1.4
BeatDivisor: 4
GridSize: 4
TimelineZoom: 1.5

[Metadata]
Title:Colorful. (AnimeVer.)
TitleUnicode:カラフル。(AnimeVer.)
Artist:Miku Sawai
ArtistUnicode:沢井美空
Creator:Neoskylove
Version:Insane
Source:冴えない彼女の育てかた
Tags:Saenai Heroine no Sodatekata tv size ending ed
BeatmapID:1180108
BeatmapSetID:529594

[Difficulty]
HPDrainRate:6
CircleSize:4
OverallDifficulty:7
ApproachRate:9
SliderMultiplier:1.6
SliderTickRate:1

[Events]
//Background and Video events
0,0,"BG.jpg",0,0
//Break Periods
//Storyboard Layer 0 (Background)
//Storyboard Layer 1 (Fail)
//Storyboard Layer 2 (Pass)
//Storyboard Layer 3 (Foreground)
//Storyboard Sound Samples

[TimingPoints]
-604,392.156862745098,4,2,0,40,1,0
180,-125,4,2,0,40,0,0
964,-111.111111111111,4,2,0,50,0,0
10376,-117.647058823529,4,2,0,45,0,0
22925,-111.111111111111,4,2,0,50,0,0
35474,-125,4,2,0,35,0,0
48023,-117.647058823529,4,2,0,35,0,0
54297,-111.111111111111,4,2,0,40,0,0
60964,-125,4,2,0,35,0,0
61258,-125,4,2,0,5,0,0
61356,-166.666666666667,4,2,0,35,0,0
61650,-166.666666666667,4,2,0,5,0,0
61748,-66.6666666666667,4,2,0,30,0,0
62043,-66.6666666666667,4,2,0,5,0,0
62141,-83.3333333333333,4,2,0,70,0,1
73513,-83.3333333333333,4,2,0,70,0,0
74690,-83.3333333333333,4,2,0,70,0,1
85670,-133.333333333333,4,2,0,35,0,0
87239,-133.333333333333,4,2,0,30,0,0

[Colours]
Combo1 : 210,164,253
Combo2 : 255,134,134
Combo3 : 169,255,98
Combo4 : 118,220,254

[HitObjects]
99,168,180,5,8,3:0:0:0:
121,175,278,1,8,3:0:0:0:
145,177,376,1,8,3:0:0:0:
169,175,474,1,8,3:0:0:0:
191,167,572,2,0,L|189:135,1,32,8|0,3:0|0:0,0:0:0:0:
277,166,768,2,0,L|274:197,1,32,8|0,3:0|0:0,0:0:0:0:
236,293,964,6,0,P|271:287|307:287,1,71.9999978027344,6|0,0:0|0:0,0:0:0:0:
399,302,1356,1,0,1:0:0:0:
340,375,1552,1,0,0:0:0:0:
340,375,1650,1,0,0:0:0:0:
340,375,1748,1,2,0:0:0:0:
366,214,1945,1,0,0:0:0:0:
470,296,2141,2,0,P|434:301|398:301,1,71.9999978027344,0|0,1:0|0:0,0:0:0:0:
275,127,2533,6,0,L|273:199,1,71.9999978027344,2|0,0:0|0:0,0:0:0:0:
212,57,2925,1,0,1:0:0:0:
304,38,3121,1,0,0:0:0:0:
304,38,3219,1,0,0:0:0:0:
304,38,3317,2,0,L|337:52,3,35.9999989013672,2|0|0|0,0:0|0:0|0:0|0:0,0:0:0:0:
388,124,3709,2,0,L|354:138,3,35.9999989013672,2|0|0|0,1:2|0:0|0:0|0:0,0:0:0:0:
304,210,4101,6,0,L|306:281,1,71.9999978027344,2|0,0:0|0:0,0:0:0:0:
232,149,4494,1,0,1:0:0:0:
215,241,4690,1,0,0:0:0:0:
215,241,4788,1,0,0:0:0:0:
215,241,4886,1,2,0:0:0:0:
321,118,5082,1,0,0:0:0:0:
162,88,5278,2,0,L|91:103,1,71.9999978027344,0|0,1:0|0:0,0:0:0:0:
232,149,5670,6,0,L|253:80,1,71.9999978027344,2|0,0:0|0:0,0:0:0:0:
144,179,6062,2,0,L|192:232,1,71.9999978027344,0|0,1:0|0:0,0:0:0:0:
232,324,6454,5,2,0:2:0:0:
257,332,6552,1,0,0:0:0:0:
284,333,6650,1,0,0:0:0:0:
310,326,6748,1,0,0:0:0:0:
334,312,6846,2,0,L|358:285,3,35.9999989013672,2|0|0|0,1:2|0:0|0:0|0:0,0:0:0:0:
366,211,7239,6,0,L|438:207,1,71.9999978027344,2|0,0:0|0:0,0:0:0:0:
303,141,7631,2,0,L|231:137,1,71.9999978027344,0|0,1:0|0:0,0:0:0:0:
395,121,8023,1,2,1:2:0:0:
274,231,8219,2,0,L|230:228,2,23.9999992675781,8|8|8,0:3|0:3|0:3,0:0:0:0:
290,232,8415,1,8,1:3:0:0:
231,137,8611,5,2,0:0:0:0:
109,279,9003,1,2,0:0:0:0:
109,279,9984,5,4,0:3:0:0:
109,279,10376,5,6,0:0:0:0:
157,213,10572,1,0,0:0:0:0:
190,287,10768,1,0,1:0:0:0:
76,204,10964,2,0,P|107:147|172:132,1,136.000002593994,2|0,0:0|0:0,0:0:0:0:
257,280,11552,2,0,L|190:287,1,68.0000012969971,0|0,1:0|0:0,0:0:0:0:
287,204,11945,5,2,0:0:0:0:
368,193,12141,1,0,0:0:0:0:
337,268,12337,1,0,1:0:0:0:
318,128,12533,2,0,P|381:112|436:148,1,136.000002593994,2|0,0:0|0:0,0:0:0:0:
287,204,13121,2,0,L|219:210,1,68.0000012969971,0|0,1:0|0:0,0:0:0:0:
91,154,13513,5,2,0:0:0:0:
139,220,13709,1,0,0:0:0:0:
125,80,13905,1,0,1:0:0:0:
11,163,14101,1,0,0:0:0:0:
171,145,14297,1,2,0:0:0:0:
43,88,14494,1,0,0:0:0:0:
57,228,14690,1,0,1:0:0:0:
91,154,14886,1,0,0:0:0:0:
105,294,15082,5,2,0:0:0:0:
206,213,15278,2,0,L|138:219,1,68.0000012969971,0|0,0:0|1:0,0:0:0:0:
259,151,15670,2,0,P|286:211|260:272,1,136.000002593994,2|0,0:0|0:0,0:0:0:0:
179,137,16258,1,8,1:3:0:0:
179,137,16356,1,8,0:3:0:0:
179,137,16454,2,0,L|181:103,1,34.0000006484985,4|0,0:3|0:0,0:0:0:0:
228,44,16650,6,0,P|261:55|294:55,1,68.0000012969971,6|0,0:0|0:0,0:0:0:0:
374,34,17043,1,0,1:0:0:0:
272,135,17239,2,0,L|265:270,1,136.000002593994,2|0,0:0|0:0,0:0:0:0:
204,325,17827,1,0,1:0:0:0:
282,349,18023,1,0,0:0:0:0:
188,244,18219,6,0,P|157:258|134:283,1,68.0000012969971,2|0,0:0|0:0,0:0:0:0:
204,325,18611,1,0,1:0:0:0:
63,323,18807,2,0,L|56:187,1,136.000002593994,2|0,0:0|0:0,0:0:0:0:
106,122,19396,1,0,1:0:0:0:
75,46,19592,1,0,0:0:0:0:
188,134,19788,6,0,L|255:130,1,68.0000012969971,2|0,0:0|0:0,0:0:0:0:
311,70,20180,1,0,1:0:0:0:
142,214,20376,2,0,L|277:207,1,136.000002593994,2|0,0:0|0:0,0:0:0:0:
311,70,20964,1,0,1:0:0:0:
188,134,21160,1,0,0:0:0:0:
335,149,21356,5,2,1:2:0:0:
368,147,21454,1,2,0:0:0:0:
402,145,21552,1,2,0:2:0:0:
188,134,21748,1,2,1:2:0:0:
311,70,21945,2,0,L|314:53,4,17.0000003242493,2|0|2|0|2,1:2|0:0|0:0|0:0|0:2,0:0:0:0:
277,207,22337,1,0,1:0:0:0:
435,143,22533,1,8,0:3:0:0:
411,311,22729,1,0,1:0:0:0:
411,311,22827,1,0,1:0:0:0:
411,311,22925,5,6,0:0:0:0:
481,249,23121,1,0,0:0:0:0:
499,341,23317,1,0,1:0:0:0:
393,219,23513,2,0,L|249:232,1,143.999995605469,2|0,0:0|0:0,0:0:0:0:
481,248,24101,2,0,P|486:213|477:178,1,71.9999978027344,0|0,1:0|0:0,0:0:0:0:
407,33,24494,5,2,0:0:0:0:
399,125,24690,1,0,0:0:0:0:
483,85,24886,1,0,1:0:0:0:
323,73,25082,2,0,L|179:86,1,143.999995605469,2|0,0:0|0:0,0:0:0:0:
177,238,25670,2,0,L|248:231,1,71.9999978027344,0|0,1:0|0:0,0:0:0:0:
337,260,26062,5,2,0:0:0:0:
267,333,26258,1,0,0:0:0:0:
318,168,26454,2,0,P|353:168|386:181,1,71.9999978027344,0|0,1:0|0:0,0:0:0:0:
248,230,26846,1,2,0:0:0:0:
230,139,27043,1,0,0:0:0:0:
74,172,27239,1,0,1:0:0:0:
161,201,27436,1,0,0:0:0:0:
143,110,27631,5,2,0:0:0:0:
92,263,27827,2,0,P|120:284|154:293,1,71.9999978027344,0|0,0:0|1:0,0:0:0:0:
391,218,28219,2,0,L|247:229,1,143.999995605469,2|0,0:0|0:0,0:0:0:0:
74,172,28807,1,8,1:3:0:0:
65,146,28905,1,8,0:3:0:0:
64,119,29003,1,4,0:3:0:0:
68,92,29101,1,4,0:3:0:0:
79,68,29199,6,0,L|151:63,1,71.9999978027344,6|0,0:0|0:0,0:0:0:0:
189,148,29592,1,0,1:0:0:0:
386,80,29788,2,0,L|242:70,1,143.999995605469,2|0,0:0|0:0,0:0:0:0:
230,233,30376,1,0,1:0:0:0:
189,148,30572,1,0,0:0:0:0:
177,312,30768,6,0,P|210:325|245:326,1,71.9999978027344,2|0,0:0|0:0,0:0:0:0:
230,233,31160,1,0,1:0:0:0:
426,163,31356,2,0,L|282:153,1,143.999995605469,2|0,0:0|0:0,0:0:0:0:
136,227,31945,1,0,1:0:0:0:
189,148,32141,1,0,0:0:0:0:
325,239,32337,6,0,L|396:243,1,71.9999978027344,2|0,0:0|0:0,0:0:0:0:
355,328,32729,1,0,1:0:0:0:
230,233,32925,2,0,L|240:89,1,143.999995605469,2|0,0:0|0:0,0:0:0:0:
312,149,33513,1,0,1:0:0:0:
150,122,33709,1,4,0:0:0:0:
320,171,33905,5,2,0:3:0:0:
239,89,34101,1,0,1:0:0:0:
237,71,34199,1,0,1:0:0:0:
236,53,34297,1,0,1:0:0:0:
147,158,34494,1,8,0:3:0:0:
148,140,34592,1,8,0:3:0:0:
150,122,34690,1,8,0:3:0:0:
239,227,34886,1,8,0:3:0:0:
238,209,34984,1,8,0:3:0:0:
236,191,35082,1,8,0:3:0:0:
147,296,35278,1,4,0:3:0:0:
236,191,35474,6,0,P|297:201|347:165,1,128,4|0,0:0|0:0,0:0:0:0:
278,119,36062,1,4,0:3:0:0:
195,119,36258,2,0,P|154:166|161:228,1,128,0|0,1:0|0:0,0:0:0:0:
230,273,36846,1,0,0:0:0:0:
236,191,37043,5,4,0:3:0:0:
155,310,37239,2,0,L|27:315,1,128,0|0,1:0|0:3,0:0:0:0:
230,273,37827,2,0,L|293:275,1,64,0|0,1:0|0:3,0:0:0:0:
161,228,38219,1,4,0:3:0:0:
236,191,38415,1,0,0:0:0:0:
236,191,38513,1,0,0:0:0:0:
236,191,38611,6,0,P|276:143|269:81,1,128,4|0,0:3|0:0,0:0:0:0:
200,36,39199,1,4,0:3:0:0:
195,119,39396,1,0,1:0:0:0:
269,81,39592,2,0,B|312:85|312:85|344:59|392:73,1,128
362,150,40180,5,4,0:3:0:0:
195,119,40376,2,0,L|67:105,1,128,0|0,1:0|0:3,0:0:0:0:
51,187,40964,1,0,1:0:0:0:
56,210,41062,1,0,1:0:0:0:
61,233,41160,1,0,1:0:0:0:
66,257,41258,1,0,1:0:0:0:
71,280,41356,2,0,L|103:281,3,32,8|8|8|0,0:3|0:3|0:3|0:0,0:0:0:0:
168,322,41748,6,0,B|190:280|169:243|169:243|168:197,1,128,4|0,0:0|0:0,0:0:0:0:
191,117,42337,1,4,0:3:0:0:
249,177,42533,2,0,P|311:169|350:121,1,128,0|0,1:0|0:0,0:0:0:0:
271,96,43121,1,0,0:0:0:0:
271,96,43219,1,0,0:0:0:0:
271,96,43317,5,4,0:3:0:0:
168,197,43513,2,0,L|40:200,1,128,0|0,1:0|0:0,0:0:0:0:
52,339,44101,1,0,1:0:0:0:
167,259,44297,1,0,0:0:0:0:
167,259,44396,1,0,1:0:0:0:
167,259,44494,2,0,P|172:227|167:196,1,64,0|4,1:0|0:3,0:0:0:0:
131,121,44886,6,0,L|258:117,1,128,4|0,0:3|0:0,0:0:0:0:
342,114,45474,1,4,0:3:0:0:
298,42,45670,1,0,1:0:0:0:
258,117,45866,2,0,L|261:181,1,64,0|0,0:0|0:0,0:0:0:0:
342,114,46258,1,0,0:0:0:0:
342,114,46356,1,0,0:0:0:0:
342,114,46454,5,4,0:3:0:0:
214,45,46650,2,0,L|86:48,1,128,0|0,1:0|0:0,0:0:0:0:
25,107,47239,1,0,1:0:0:0:
15,128,47337,1,0,1:0:0:0:
12,152,47435,1,0,1:0:0:0:
17,175,47533,1,0,1:0:0:0:
28,196,47631,2,0,L|60:196,3,32,8|8|8|0,0:3|0:3|0:3|0:0,0:0:0:0:
136,195,48023,5,4,1:2:0:0:
219,166,48219,1,2,0:0:0:0:
153,109,48415,1,2,0:0:0:0:
202,252,48611,2,0,P|267:240|305:186,1,136.000002593994,0|0,1:2|0:0,0:0:0:0:
219,166,49199,1,0,1:0:0:0:
136,195,49395,1,0,0:0:0:0:
133,53,49592,5,0,1:0:0:0:
217,78,49788,1,2,0:0:0:0:
219,166,49985,1,2,0:0:0:0:
82,125,50180,2,0,P|49:181|64:246,1,136.000002593994,0|0,1:0|0:0,0:0:0:0:
203,253,50768,1,0,1:0:0:0:
136,195,50964,1,0,0:0:0:0:
187,341,51160,5,0,1:0:0:0:
271,311,51356,1,2,0:0:0:0:
203,253,51552,1,2,0:0:0:0:
356,281,51748,2,0,L|352:145,1,136.000002593994,0|0,1:0|0:0,0:0:0:0:
292,79,52337,1,0,1:0:0:0:
264,163,52533,1,0,0:0:0:0:
117,114,52729,5,0,1:0:0:0:
89,199,52925,1,2,0:0:0:0:
149,266,53121,1,0,1:0:0:0:
236,248,53317,1,0,1:0:0:0:
204,95,53513,2,0,P|168:40|104:24,1,136.000002593994,2|0,0:0|1:0,0:0:0:0:
176,179,54101,1,0,0:0:0:0:
176,179,54199,1,0,0:0:0:0:
176,179,54297,6,0,L|249:168,1,71.9999978027344,6|0,0:0|0:0,0:0:0:0:
326,117,54690,1,0,1:0:0:0:
331,211,54886,1,0,1:0:0:0:
404,65,55082,2,0,P|380:40|347:25,1,71.9999978027344,2|0,0:0|0:0,0:0:0:0:
254,106,55474,2,0,L|325:116,1,71.9999978027344,0|0,1:0|0:0,0:0:0:0:
190,36,55866,5,2,0:0:0:0:
162,126,56062,1,0,0:0:0:0:
254,105,56258,2,0,P|275:77|283:42,1,71.9999978027344,0|0,1:0|0:0,0:0:0:0:
162,126,56650,2,0,P|176:158|201:183,1,71.9999978027344,2|0,0:2|0:0,0:0:0:0:
190,36,57043,2,0,P|154:31|120:41,1,71.9999978027344,0|0,1:0|0:0,0:0:0:0:
295,189,57435,6,0,P|331:194|365:184,1,71.9999978027344,2|0,0:0|0:3,0:0:0:0:
417,106,57827,1,0,1:0:0:0:
323,100,58023,1,0,1:0:0:0:
459,190,58219,2,0,L|459:262,1,71.9999978027344,2|0,0:0|0:0,0:0:0:0:
427,351,58611,1,0,1:0:0:0:
366,279,58807,1,0,0:0:0:0:
263,365,59003,6,0,L|335:368,1,71.9999978027344,2|0,0:0|0:0,0:0:0:0:
366,279,59395,2,0,L|294:276,1,71.9999978027344,0|0,1:0|0:0,0:0:0:0:
108,312,59788,1,0,3:0:0:0:
263,365,59984,1,0,3:0:0:0:
232,205,60180,1,0,3:0:0:0:
201,294,60376,1,0,3:0:0:0:
201,294,60474,1,0,3:0:0:0:
201,294,60572,5,4,0:0:0:0:
74,183,60964,6,0,P|62:138|74:92,1,96,2|0,0:0|0:0,0:0:0:0:
105,88,61356,6,0,L|176:89,1,71.9999978027344,2|0,0:0|0:0,0:0:0:0:
204,102,61748,6,0,P|221:24|296:49,1,180.000006866455,2|0,0:0|0:0,0:0:0:0:
280,127,62141,6,0,P|269:173|279:219,1,95.9999970703126,6|0,0:0|0:0,0:0:0:0:
360,270,62533,1,0,1:0:0:0:
365,174,62729,1,0,0:0:0:0:
365,174,62827,1,0,0:0:0:0:
365,174,62925,1,2,0:0:0:0:
276,315,63121,1,0,0:0:0:0:
276,315,63317,2,0,P|308:350|352:365,1,95.9999970703126,0|0,1:0|0:0,0:0:0:0:
455,273,63709,6,0,L|360:270,1,95.9999970703126,2|0,0:0|0:0,0:0:0:0:
195,264,64101,1,0,1:0:0:0:
279,219,64297,1,0,0:0:0:0:
279,219,64395,1,0,1:0:0:0:
279,219,64494,1,2,0:0:0:0:
192,360,64690,1,0,0:0:0:0:
192,360,64886,2,0,P|147:347|113:314,1,95.9999970703126,0|0,1:0|0:0,0:0:0:0:
187,168,65278,6,0,L|195:264,1,95.9999970703126,2|0,0:0|0:0,0:0:0:0:
249,95,65670,1,0,1:0:0:0:
154,78,65866,1,0,0:0:0:0:
154,78,65964,1,0,0:0:0:0:
154,78,66062,1,2,0:0:0:0:
282,185,66258,1,0,0:0:0:0:
311,21,66454,1,0,1:0:0:0:
282,185,66650,6,0,P|373:172|434:241,1,191.999994140625,2|0,0:0|0:0,0:0:0:0:
349,357,67239,2,0,L|340:262,1,95.9999970703126,0|0,1:0|0:0,0:0:0:0:
167,329,67631,2,0,L|254:368,1,95.9999970703126,2|0,0:0|0:0,0:0:0:0:
282,185,68023,2,0,L|203:240,1,95.9999970703126,0|0,1:0|0:0,0:0:0:0:
339,260,68415,6,0,P|376:176|325:100,1,191.999994140625,2|0,0:0|1:0,0:0:0:0:
230,105,69003,1,2,0:0:0:0:
282,185,69199,1,2,0:0:0:0:
273,20,69396,1,0,0:0:0:0:
135,111,69592,1,0,1:0:0:0:
325,100,69788,1,0,0:0:0:0:
325,100,69886,1,0,0:0:0:0:
325,100,69984,6,0,L|420:92,1,95.9999970703126,2|0,0:0|0:0,0:0:0:0:
376,259,70376,1,2,1:2:0:0:
282,185,70572,1,0,0:0:0:0:
376,259,70768,1,2,0:0:0:0:
388,354,70964,1,0,0:0:0:0:
299,316,71160,1,0,1:0:0:0:
465,297,71356,1,0,0:0:0:0:
299,316,71552,6,0,L|203:305,1,95.9999970703126,2|0,0:0|0:0,0:0:0:0:
108,292,71945,1,0,1:0:0:0:
144,381,72141,1,2,0:0:0:0:
144,381,72239,1,0,0:0:0:0:
144,381,72337,1,2,0:0:0:0:
167,216,72533,1,0,0:0:0:0:
13,279,72729,1,0,1:0:0:0:
144,381,72925,1,0,0:0:0:0:
167,216,73121,6,0,L|169:168,3,47.9999985351563,2|0|0|0,0:0|0:0|0:0|0:0,0:0:0:0:
170,92,73513,1,0,1:0:0:0:
170,92,73611,1,0,1:0:0:0:
170,92,73709,1,0,1:0:0:0:
86,138,73905,1,0,1:0:0:0:
86,138,74003,1,0,1:0:0:0:
86,138,74101,1,0,1:3:0:0:
88,42,74297,1,0,1:0:0:0:
88,42,74395,1,0,1:0:0:0:
88,42,74493,1,0,1:3:0:0:
167,215,74690,6,0,L|263:215,1,95.9999970703126,6|0,0:0|0:0,0:0:0:0:
359,215,75082,1,0,1:0:0:0:
311,299,75278,1,0,0:0:0:0:
311,299,75376,1,0,0:0:0:0:
311,299,75474,1,2,0:0:0:0:
311,131,75670,1,0,0:0:0:0:
311,131,75866,2,0,P|356:118|403:129,1,95.9999970703126,0|0,1:0|0:0,0:0:0:0:
263,215,76258,6,2,P|229:181|215:135,1,95.9999970703126,2|0,0:0|0:0,0:0:0:0:
259,49,76650,1,0,1:0:0:0:
311,131,76846,1,0,0:0:0:0:
311,131,76945,1,0,0:0:0:0:
311,131,77042,1,2,0:0:0:0:
163,53,77239,1,0,0:0:0:0:
163,53,77435,2,0,L|67:59,1,95.9999970703126,0|0,1:0|0:0,0:0:0:0:
215,135,77827,6,0,L|119:141,1,95.9999970703126,2|0,0:0|0:0,0:0:0:0:
22,145,78219,1,0,1:0:0:0:
67,59,78415,1,0,0:0:0:0:
67,59,78513,1,0,0:0:0:0:
67,59,78611,1,2,0:0:0:0:
74,227,78807,1,0,0:0:0:0:
67,59,79003,1,0,1:0:0:0:
74,226,79199,6,0,P|167:222|233:288,1,191.999994140625,2|0,0:0|0:0,0:0:0:0:
319,331,79788,2,0,L|413:316,1,95.9999970703126,0|0,1:0|0:0,0:0:0:0:
314,235,80180,2,0,L|408:220,1,95.9999970703126,2|0,0:0|0:0,0:0:0:0:
233,288,80572,1,0,1:0:0:0:
308,138,80768,1,0,0:0:0:0:
308,138,80866,1,0,0:0:0:0:
308,138,80964,6,0,L|402:123,1,95.9999970703126,2|0,0:0|0:0,0:0:0:0:
227,191,81356,2,0,L|132:176,1,95.9999970703126,0|0,1:0|0:0,0:0:0:0:
38,155,81748,1,2,0:0:0:0:
66,246,81945,1,0,0:0:0:0:
104,85,82141,1,0,1:0:0:0:
66,246,82337,6,0,P|107:269|155:270,1,95.9999970703126,2|0,0:0|0:0,0:0:0:0:
293,121,82729,2,0,P|251:97|203:96,1,95.9999970703126,2|0,0:0|1:0,0:0:0:0:
227,191,83121,1,2,0:0:0:0:
227,191,83219,1,0,0:0:0:0:
227,191,83317,1,2,0:0:0:0:
320,213,83513,1,0,0:0:0:0:
386,144,83709,2,0,P|385:96|362:54,1,95.9999970703126,0|0,1:0|0:0,0:0:0:0:
320,213,84101,6,0,L|323:260,3,47.9999985351563,2|0|0|0,0:0|0:0|0:0|0:0,0:0:0:0:
246,259,84494,2,0,L|249:306,3,47.9999985351563,2|0|0|0,1:2|0:0|0:0|0:0,0:0:0:0:
172,305,84886,1,8,0:3:0:0:
140,321,84984,1,8,0:3:0:0:
104,323,85082,1,8,0:3:0:0:
72,309,85180,1,8,0:3:0:0:
48,282,85278,1,4,0:3:0:0:
38,248,85376,1,4,0:3:0:0:
44,213,85474,1,4,0:3:0:0:
65,184,85572,1,4,0:3:0:0:
96,166,85670,5,4,0:3:0:0:
248,240,86062,1,0,0:0:0:0:
236,73,86454,2,0,L|296:62,1,60.0000022888184,2|0,0:0|0:0,0:0:0:0:
355,120,86846,2,0,L|415:109,1,60.0000022888184,2|0,0:0|0:0,0:0:0:0:
474,167,87239,6,0,B|504:231|466:295|466:295|402:264|334:301|334:301|266:331|193:288,1,420.000016021729,2|0,0:0|0:0,0:0:0:0:
