osu file format v14

[General]
AudioFilename: audio.MP3
AudioLeadIn: 0
PreviewTime: 60572
Countdown: 1
SampleSet: Soft
StackLeniency: 0.3
Mode: 0
LetterboxInBreaks: 0
WidescreenStoryboard: 0

[Editor]
Bookmarks: 964
DistanceSpacing: 1
BeatDivisor: 2
GridSize: 4
TimelineZoom: 1.5

[Metadata]
Title:Colorful. (AnimeVer.)
TitleUnicode:カラフル。(AnimeVer.)
Artist:Miku Sawai
ArtistUnicode:沢井美空
Creator:Neoskylove
Version:Normal
Source:冴えない彼女の育てかた
Tags:Saenai Heroine no Sodatekata tv size ending ed
BeatmapID:1128249
BeatmapSetID:529594

[Difficulty]
HPDrainRate:4
CircleSize:3.5
OverallDifficulty:4
ApproachRate:5
SliderMultiplier:1.2
SliderTickRate:1

[Events]
//Background and Video events
0,0,"BG.jpg",0,0
//Break Periods
//Storyboard Layer 0 (Background)
//Storyboard Layer 1 (Fail)
//Storyboard Layer 2 (Pass)
//Storyboard Layer 3 (Foreground)
//Storyboard Sound Samples

[TimingPoints]
-604,392.156862745098,4,2,0,40,1,0
964,-100,4,2,0,50,0,0
10376,-100,4,2,0,45,0,0
22925,-100,4,2,0,50,0,0
35474,-100,4,2,0,35,0,0
54297,-100,4,2,0,40,0,0
60964,-100,4,2,0,35,0,0
61258,-100,4,2,0,5,0,0
61356,-100,4,2,0,35,0,0
61650,-100,4,2,0,5,0,0
61748,-100,4,2,0,30,0,0
62043,-100,4,2,0,5,0,0
62141,-100,4,2,0,70,0,1
73513,-100,4,2,0,70,0,0
74690,-100,4,2,0,70,0,1
85670,-100,4,2,0,35,0,0
87239,-100,4,2,0,30,0,0
88611,-100,4,2,0,30,0,0

[Colours]
Combo1 : 210,164,253
Combo2 : 255,134,134
Combo3 : 169,255,98
Combo4 : 118,220,254

[HitObjects]
100,277,180,6,0,L|115:219,1,60,8|8,3:0|3:0,0:0:0:0:
176,208,572,2,0,L|160:150,1,60,8|8,3:0|3:0,0:0:0:0:
140,93,964,6,0,P|198:103|257:90,1,120,6|0,0:0|1:0,0:0:0:0:
309,62,1552,1,0,0:0:0:0:
309,62,1748,2,0,L|304:121,2,60,2|0|0,0:0|0:0|1:0,0:0:0:0:
429,60,2533,2,0,L|420:179,1,120,2|0,0:0|1:0,0:0:0:0:
420,239,3121,1,0,0:0:0:0:
420,239,3317,2,0,P|390:239|360:246,1,60,2|0,0:0|0:0,0:0:0:0:
318,290,3709,2,0,P|288:289|258:282,1,60,2|0,1:2|0:0,0:0:0:0:
200,268,4101,6,0,L|205:148,1,120,2|0,0:0|1:0,0:0:0:0:
172,98,4690,1,0,0:0:0:0:
172,98,4886,2,0,P|142:102|112:99,2,60,2|0|0,0:0|0:0|1:0,0:0:0:0:
286,61,5670,2,0,P|342:43|400:55,1,120,2|0,0:0|1:0,0:0:0:0:
472,150,6454,2,0,L|462:209,1,60,2|0,0:0|0:0,0:0:0:0:
402,215,6846,2,0,L|392:274,1,60,2|0,1:2|0:0,0:0:0:0:
370,331,7239,6,0,P|317:307|258:312,1,120,2|0,0:0|1:0,0:0:0:0:
142,277,8023,2,0,P|139:247|144:217,2,60,2|8|8,1:2|0:3|1:3,0:0:0:0:
143,337,8611,2,0,L|23:333,1,120,2|2,0:0|0:0,0:0:0:0:
266,158,9984,1,4,0:3:0:0:
180,74,10376,6,0,P|150:75|122:87,2,60,6|0|0,0:0|0:0|1:0,0:0:0:0:
239,62,10964,2,0,P|297:72|353:53,1,120,2|0,0:0|0:0,0:0:0:0:
408,30,11552,1,0,1:0:0:0:
450,142,11945,2,0,L|509:133,2,60,2|0|0,0:0|0:0|1:0,0:0:0:0:
390,138,12533,2,0,P|370:193|392:248,1,120,2|0,0:0|0:0,0:0:0:0:
427,296,13121,1,0,1:0:0:0:
307,310,13513,6,0,L|301:369,2,60,2|0|0,0:0|0:0|1:0,0:0:0:0:
208,241,14297,2,0,L|173:290,2,60,2|0|0,0:0|0:0|1:0,0:0:0:0:
156,131,15082,1,2,0:0:0:0:
156,131,15278,2,0,P|152:101|154:71,1,60,0|0,0:0|1:0,0:0:0:0:
201,33,15670,2,0,P|258:20|316:33,1,120,2|0,0:0|0:0,0:0:0:0:
368,68,16258,1,8,1:3:0:0:
463,139,16650,6,0,L|448:258,1,120,6|0,0:0|1:0,0:0:0:0:
478,310,17239,2,0,P|393:288|321:337,1,180,2|0,0:0|1:0,0:0:0:0:
201,324,18219,2,0,P|216:267|196:212,1,120,2|0,0:0|1:0,0:0:0:0:
146,178,18807,2,0,L|325:160,1,180,2|0,0:0|1:0,0:0:0:0:
240,75,19788,6,0,L|180:81,2,60,2|0|0,0:0|0:0|1:0,0:0:0:0:
276,27,20376,2,0,P|333:11|393:34,1,120,2|0,0:0|0:0,0:0:0:0:
443,56,20964,1,0,1:0:0:0:
456,174,21356,2,0,L|447:233,1,60,2|2,1:2|0:2,0:0:0:0:
392,258,21749,2,0,L|400:317,1,60,2|2,1:2|1:2,0:0:0:0:
373,371,22141,1,2,0:2:0:0:
373,371,22337,2,0,P|315:379|262:354,1,120,0|0,1:0|1:0,0:0:0:0:
252,295,22925,6,0,P|198:320|140:311,1,120,6|0,0:0|1:0,0:0:0:0:
81,297,23513,2,0,L|82:177,1,120,2|0,0:0|0:0,0:0:0:0:
87,117,24101,1,0,1:0:0:0:
203,86,24494,2,0,L|322:82,1,120,2|0,0:0|1:0,0:0:0:0:
372,50,25082,2,0,P|361:108|378:165,1,120,2|0,0:0|0:0,0:0:0:0:
420,208,25670,1,0,1:0:0:0:
352,307,26062,6,0,L|347:366,2,60,2|0|0,0:0|0:0|1:0,0:0:0:0:
256,235,26846,2,0,L|251:294,1,60,2|0,0:0|0:0,0:0:0:0:
227,350,27239,2,0,L|167:345,1,60,0|0,1:0|0:0,0:0:0:0:
107,350,27631,2,0,P|87:294|100:236,1,120,2|0,0:0|1:0,0:0:0:0:
157,217,28219,2,0,P|170:160|151:104,1,120,2|0,0:0|0:0,0:0:0:0:
106,64,28807,1,8,1:3:0:0:
223,39,29199,6,0,L|342:42,1,120,6|0,0:0|1:0,0:0:0:0:
398,19,29788,2,0,P|409:77|396:135,1,120,2|0,0:0|0:0,0:0:0:0:
362,185,30376,1,0,1:0:0:0:
263,251,30768,2,0,P|204:252|156:217,1,120,2|0,0:0|1:0,0:0:0:0:
147,158,31356,2,0,P|174:106|228:82,1,120,2|0,0:0|0:0,0:0:0:0:
286,98,31945,1,0,1:0:0:0:
384,166,32337,6,0,L|366:284,1,120,2|0,0:0|1:0,0:0:0:0:
318,321,32925,2,0,P|263:300|203:303,1,120,2|0,0:0|0:0,0:0:0:0:
145,317,33513,2,0,P|136:288|136:258,1,60,0|4,1:0|0:0,0:0:0:0:
159,203,33905,2,0,L|218:196,2,60,2|0|0,0:3|1:0|1:0,0:0:0:0:
109,168,34494,1,8,0:3:0:0:
124,110,34690,2,0,L|243:97,1,120,8|8,0:3|0:3,0:0:0:0:
356,56,35474,6,0,L|343:235,1,180,4|4,0:0|0:3,0:0:0:0:
384,278,36258,1,0,1:0:0:0:
284,346,36650,2,0,P|255:348|227:338,1,60,0|0,0:0|0:0,0:0:0:0:
181,300,37043,1,4,0:3:0:0:
181,300,37239,2,0,L|181:180,1,120,0|0,1:0|0:3,0:0:0:0:
181,120,37827,1,0,1:0:0:0:
228,9,38219,1,4,0:3:0:0:
295,107,38611,6,0,P|353:99|406:126,1,120,4|0,0:3|0:0,0:0:0:0:
449,167,39199,2,0,L|461:108,2,60,4|0|0,0:3|1:0|0:0,0:0:0:0:
368,256,39984,2,0,L|309:243,1,60,0|4,0:0|0:3,0:0:0:0:
251,255,40376,2,0,P|193:268|135:254,1,120,0|0,1:0|0:3,0:0:0:0:
82,225,40964,1,0,1:0:0:0:
160,134,41356,1,8,0:3:0:0:
89,35,41748,6,0,P|173:12|250:53,1,180,4|4,0:0|0:3,0:0:0:0:
289,99,42533,1,0,1:0:0:0:
394,155,42925,2,0,P|402:183|400:213,1,60,0|0,0:0|0:0,0:0:0:0:
368,263,43317,1,4,0:3:0:0:
368,263,43513,2,0,L|248:263,1,120,0|0,1:0|0:0,0:0:0:0:
191,244,44101,2,0,P|205:286|198:330,2,90,0|0|4,1:0|1:0|0:3,0:0:0:0:
137,215,44886,6,0,L|152:35,1,180,4|4,0:3|0:3,0:0:0:0:
207,59,45670,2,0,P|261:81|319:68,1,120,0|0,1:0|0:0,0:0:0:0:
434,101,46454,1,4,0:3:0:0:
434,101,46650,2,0,L|442:220,1,120,0|0,1:0|0:0,0:0:0:0:
448,280,47239,1,0,1:0:0:0:
330,257,47631,1,8,0:3:0:0:
234,328,48023,6,0,P|180:349|126:327,1,120,4|2,1:2|0:0,0:0:0:0:
111,269,48611,2,0,P|56:290|2:268,2,120,0|0|0,1:0|0:0|0:0,0:0:0:0:
156,229,49592,2,0,L|143:49,2,180,0|0|0,1:0|1:0|1:0,0:0:0:0:
274,245,51160,6,0,L|282:125,1,120,0|2,1:0|0:0,0:0:0:0:
324,83,51748,2,0,P|271:61|262:4,2,120,0|0|0,1:0|0:0|0:0,0:0:0:0:
379,107,52729,2,0,L|366:286,2,180,0|0|0,1:0|1:0|1:0,0:0:0:0:
261,79,54297,6,0,P|209:105|150:100,1,120,6|0,0:0|1:0,0:0:0:0:
99,67,54886,1,0,1:0:0:0:
99,67,55082,2,0,L|90:186,1,120,2|0,0:0|1:0,0:0:0:0:
105,305,55866,2,0,P|164:314|223:306,1,120,2|0,0:0|1:0,0:0:0:0:
332,256,56650,2,0,L|339:315,2,60,2|0|0,0:2|0:0|1:0,0:0:0:0:
380,145,57435,6,0,L|260:142,1,120,2|0,0:0|1:0,0:0:0:0:
213,179,58023,1,0,1:0:0:0:
212,179,58219,2,0,P|160:206|103:194,1,120,2|0,0:0|1:0,0:0:0:0:
14,113,59003,2,0,L|2:54,2,60,2|0|0,0:0|0:0|1:0,0:0:0:0:
24,232,59788,2,0,P|20:262|23:292,1,60,0|0,3:0|3:0,0:0:0:0:
75,320,60180,2,0,P|104:323|134:320,1,60,0|0,3:0|3:0,0:0:0:0:
184,286,60572,5,4,0:0:0:0:
290,340,60964,2,0,L|409:340,2,120,2|2|2,0:0|0:0|0:0,0:0:0:0:
184,286,62141,6,0,P|176:228|213:183,1,120,6|0,0:0|1:0,0:0:0:0:
256,141,62729,1,0,0:0:0:0:
256,141,62925,2,0,L|136:139,1,120,2|0,0:0|1:0,0:0:0:0:
82,112,63513,1,0,0:0:0:0:
82,112,63709,2,0,P|80:82|86:52,1,60,2|0,0:0|0:0,0:0:0:0:
139,25,64101,2,0,L|258:26,1,120,0|2,1:0|0:0,0:0:0:0:
379,39,64886,2,0,P|400:59|408:87,1,60,0|0,1:0|0:0,0:0:0:0:
386,144,65278,6,0,L|372:263,1,120,2|0,0:0|1:0,0:0:0:0:
400,315,65866,1,0,0:0:0:0:
400,315,66062,2,0,P|351:346|294:335,1,120,2|0,0:0|1:0,0:0:0:0:
257,288,66650,2,0,L|137:289,1,120,2|0,0:0|0:0,0:0:0:0:
78,304,67239,1,0,1:0:0:0:
34,192,67631,1,2,0:0:0:0:
78,80,68023,1,0,1:0:0:0:
145,178,68415,6,0,P|204:187|262:175,1,120,2|0,0:0|1:0,0:0:0:0:
307,135,69003,2,0,L|300:254,1,120,2|0,0:0|0:0,0:0:0:0:
336,303,69592,2,0,P|363:288|392:281,1,60,0|0,1:0|0:0,0:0:0:0:
440,316,69984,2,0,L|446:196,1,120,2|2,0:0|1:2,0:0:0:0:
427,139,70572,1,0,0:0:0:0:
427,139,70768,2,0,P|440:112|444:82,2,60,2|0|0,0:0|0:0|1:0,0:0:0:0:
306,134,71552,6,0,P|247:130|188:141,1,120,2|0,0:0|1:0,0:0:0:0:
135,169,72141,2,0,L|137:288,1,120,2|0,0:0|0:0,0:0:0:0:
181,330,72729,2,0,P|192:302|212:280,1,60,0|0,1:0|0:0,0:0:0:0:
260,244,73121,1,2,0:0:0:0:
379,231,73513,1,0,1:0:0:0:
331,340,73905,1,0,1:0:0:0:
260,244,74297,1,0,1:0:0:0:
379,230,74690,6,0,P|396:174|373:120,1,120,6|0,0:0|1:0,0:0:0:0:
329,80,75278,1,0,0:0:0:0:
329,80,75474,2,0,L|209:82,1,120,2|0,0:0|1:0,0:0:0:0:
150,73,76062,1,0,0:0:0:0:
150,73,76258,2,0,P|145:103|149:133,1,60,2|0,0:0|0:0,0:0:0:0:
181,183,76650,2,0,P|126:165|71:187,1,120,0|2,1:0|0:0,0:0:0:0:
41,303,77435,2,0,P|66:320|96:324,1,60,0|0,1:0|0:0,0:0:0:0:
154,312,77827,6,0,P|208:288|266:300,1,120,2|0,0:0|1:0,0:0:0:0:
320,324,78415,1,0,0:0:0:0:
320,324,78611,2,0,P|296:269|308:211,1,120,2|0,0:0|1:0,0:0:0:0:
365,195,79199,2,0,P|376:137|353:82,1,120,2|0,0:0|0:0,0:0:0:0:
311,39,79788,1,0,1:0:0:0:
191,30,80180,1,2,0:0:0:0:
244,139,80572,1,0,1:0:0:0:
124,130,80964,6,0,L|4:138,2,120,2|0|2,0:0|1:0|0:0,0:0:0:0:
191,30,82141,1,0,1:0:0:0:
191,30,82337,2,0,L|71:38,2,120,2|2|2,0:0|0:0|0:0,0:0:0:0:
305,66,83513,2,0,P|304:95|293:123,1,60,0|0,2:0|1:0,2:0:0:0:
178,156,84101,6,0,P|174:186|182:215,1,60,2|0,0:0|0:0,0:0:0:0:
228,254,84494,2,0,P|257:257|286:249,1,60,2|0,1:2|0:0,0:0:0:0:
345,236,84886,2,0,P|337:264|340:294,2,60,8|8|4,0:3|0:3|0:3,0:0:0:0:
446,171,85670,6,0,P|474:120|458:64,1,120,4|0,0:3|0:0,0:0:0:0:
341,38,86454,1,2,0:0:0:0:
263,129,86846,1,2,0:0:0:0:
188,34,87239,2,0,B|197:30|177:34|157:40|150:56|148:76|165:103|165:103|169:132|169:132|156:187|156:187|172:231|172:231|164:280|164:280|179:331|179:331|158:358|141:369|124:377|111:380|103:372,1,420,2|0,0:0|0:0,0:0:0:0:
