osu file format v14

[General]
AudioFilename: audio.MP3
AudioLeadIn: 0
PreviewTime: 60572
Countdown: 1
SampleSet: Soft
StackLeniency: 0.3
Mode: 0
LetterboxInBreaks: 0
WidescreenStoryboard: 0

[Editor]
Bookmarks: 964
DistanceSpacing: 0.9
BeatDivisor: 2
GridSize: 4
TimelineZoom: 1.5

[Metadata]
Title:Colorful. (AnimeVer.)
TitleUnicode:カラフル。(AnimeVer.)
Artist:Miku Sawai
ArtistUnicode:沢井美空
Creator:Neoskylove
Version:Easy
Source:冴えない彼女の育てかた
Tags:Saenai Heroine no Sodatekata tv size ending ed
BeatmapID:1128248
BeatmapSetID:529594

[Difficulty]
HPDrainRate:3
CircleSize:3
OverallDifficulty:3
ApproachRate:3.5
SliderMultiplier:1
SliderTickRate:1

[Events]
//Background and Video events
0,0,"BG.jpg",0,0
//Break Periods
//Storyboard Layer 0 (Background)
//Storyboard Layer 1 (Fail)
//Storyboard Layer 2 (Pass)
//Storyboard Layer 3 (Foreground)
//Storyboard Sound Samples

[TimingPoints]
-604,392.156862745098,4,2,0,40,1,0
964,-100,4,2,0,50,0,0
10376,-100,4,2,0,45,0,0
22925,-100,4,2,0,50,0,0
35474,-100,4,2,0,35,0,0
54297,-100,4,2,0,40,0,0
60964,-100,4,2,0,35,0,0
61258,-100,4,2,0,5,0,0
61356,-100,4,2,0,35,0,0
61650,-100,4,2,0,5,0,0
61748,-100,4,2,0,30,0,0
62043,-100,4,2,0,5,0,0
62141,-100,4,2,0,70,0,1
73513,-100,4,2,0,70,0,0
74690,-100,4,2,0,70,0,1
85670,-100,4,2,0,35,0,0
87239,-100,4,2,0,30,0,0
88611,-100,4,2,0,30,0,0

[Colours]
Combo1 : 210,164,253
Combo2 : 255,134,134
Combo3 : 169,255,98
Combo4 : 118,220,254

[HitObjects]
84,232,180,5,8,3:0:0:0:
146,167,572,1,8,3:0:0:0:
171,253,964,6,0,P|265:273|345:217,1,200,6|2,0:0|0:0,0:0:0:0:
402,148,2141,1,0,1:0:0:0:
453,73,2533,2,0,L|444:290,1,200,2|2,0:0|0:0,0:0:0:0:
389,344,3709,1,2,1:2:0:0:
327,275,4101,6,0,P|238:238|149:277,1,200,2|2,0:0|0:0,0:0:0:0:
83,338,5278,1,0,1:0:0:0:
41,258,5670,2,0,P|33:208|46:160,1,100,2|0,0:0|1:0,0:0:0:0:
108,95,6454,1,2,0:0:0:0:
176,153,6846,1,2,1:2:0:0:
246,96,7239,6,0,L|345:95,1,100,2|0,0:0|1:0,0:0:0:0:
404,26,8023,2,0,P|436:92|408:160,1,150,2|2,1:2|0:0,0:0:0:0:
335,213,9003,1,2,0:0:0:0:
118,274,9984,1,4,0:3:0:0:
165,198,10376,6,0,P|101:230|37:195,2,150,6|2|0,0:0|0:0|1:0,0:0:0:0:
240,147,11945,2,0,P|205:210|237:275,2,150,2|2|0,0:0|0:0|1:0,0:0:0:0:
325,119,13513,6,0,L|424:121,1,100,2|0,0:0|1:0,0:0:0:0:
403,34,14297,2,0,L|303:31,1,100,2|0,0:0|1:0,0:0:0:0:
218,60,15082,2,0,L|68:55,2,150,2|2|8,0:0|0:0|1:3,0:0:0:0:
240,147,16650,6,0,P|205:210|237:275,2,150,6|2|0,0:0|0:0|1:0,0:0:0:0:
308,87,18219,2,0,L|457:91,2,150,2|2|0,0:0|0:0|1:0,0:0:0:0:
228,44,19788,6,0,P|178:37|130:49,1,100,2|0,0:0|1:0,0:0:0:0:
86,127,20572,2,0,L|87:226,1,100,2|0,0:0|1:0,0:0:0:0:
72,316,21356,1,2,1:2:0:0:
154,352,21748,1,2,1:2:0:0:
243,340,22141,2,0,L|250:240,1,100,2|8,0:2|0:3,0:0:0:0:
332,203,22925,6,0,P|403:218|443:280,2,150,6|2|0,0:0|0:0|1:0,0:0:0:0:
294,120,24494,2,0,P|365:105|405:43,2,150,2|2|0,0:0|0:0|1:0,0:0:0:0:
204,131,26062,6,0,L|104:119,1,100,2|0,0:0|1:0,0:0:0:0:
67,201,26846,2,0,L|166:212,1,100,2|0,0:0|1:0,0:0:0:0:
251,243,27631,2,0,P|180:247|163:315,2,150,2|2|8,0:0|0:0|1:3,0:0:0:0:
340,231,29199,6,0,L|489:238,2,150,6|2|0,0:0|0:0|1:0,0:0:0:0:
286,160,30768,2,0,L|136:167,2,150,2|2|0,0:0|0:0|1:0,0:0:0:0:
340,89,32337,6,0,L|489:96,2,150,2|2|0,0:0|0:0|1:0,0:0:0:0:
260,46,33905,2,0,P|212:32|164:45,1,100,2|0,0:3|1:0,0:0:0:0:
88,92,34690,1,8,0:3:0:0:
111,178,35082,1,8,0:3:0:0:
35,226,35474,6,0,P|133:223|212:281,1,200,4|0,0:0|1:0,0:0:0:0:
276,344,36650,1,0,0:0:0:0:
359,309,37043,2,0,B|412:296|461:320|461:320|486:273|470:227,1,200,4|0,0:3|1:0,0:0:0:0:
448,141,38219,1,4,0:3:0:0:
408,60,38611,6,0,L|308:73,1,100,4|0,0:3|0:0,0:0:0:0:
221,95,39396,2,0,L|121:81,1,100,0|0,1:0|0:0,0:0:0:0:
53,139,40180,2,0,B|41:192|88:227|88:227|137:204|184:221,1,200,4|0,0:3|1:0,0:0:0:0:
256,276,41356,1,8,0:3:0:0:
327,221,41748,6,0,B|375:204|424:227|424:227|470:192|459:139,1,200,4|0,0:0|1:0,0:0:0:0:
391,79,42925,1,0,0:0:0:0:
310,38,43317,2,0,L|210:32,1,100,4|0,0:3|0:0,0:0:0:0:
126,63,44101,2,0,P|117:112|138:157,1,100,0|0,1:0|1:0,0:0:0:0:
207,213,44886,6,0,P|121:207|136:292,1,200,4|0,0:3|1:0,0:0:0:0:
219,328,46062,1,0,0:0:0:0:
292,273,46454,2,0,B|339:248|387:267|387:267|413:210|398:169,1,200,4|0,0:3|1:0,0:0:0:0:
326,113,47631,1,8,0:3:0:0:
259,52,48023,6,0,L|408:62,2,150,4|0|0,1:2|1:0|1:0,0:0:0:0:
187,107,49592,2,0,L|37:117,2,150,0|0|0,1:0|1:0|1:0,0:0:0:0:
259,162,51160,6,0,L|408:172,2,150,0|0|0,1:0|1:0|1:0,0:0:0:0:
178,205,52729,2,0,P|173:254|195:298,1,100,0|0,1:0|1:0,0:0:0:0:
271,347,53513,2,0,L|370:339,1,100,2|0,0:0|1:0,0:0:0:0:
388,251,54297,6,0,L|487:258,2,100,6|0|2,0:0|1:0|0:0,0:0:0:0:
332,180,55474,1,0,1:0:0:0:
276,251,55866,2,0,L|176:258,1,100,2|0,0:0|1:0,0:0:0:0:
97,301,56650,2,0,P|85:253|101:206,1,100,2|0,0:2|1:0,0:0:0:0:
93,116,57435,6,0,P|45:127|-1:111,2,100,2|0|2,0:0|1:0|0:0,0:0:0:0:
164,62,58611,1,0,1:0:0:0:
233,119,59003,2,0,L|220:218,1,100,2|0,0:0|1:0,0:0:0:0:
308,244,59788,2,0,L|320:144,1,100,0|0,3:0|3:0,0:0:0:0:
298,57,60572,5,4,0:0:0:0:
385,80,60964,2,0,P|432:66|482:67,2,100,2|2|2,0:0|0:0|0:0,0:0:0:0:
320,144,62141,6,0,L|308:244,1,100,6|0,0:0|1:0,0:0:0:0:
227,284,62925,2,0,L|214:184,1,100,2|0,0:0|1:0,0:0:0:0:
149,122,63709,2,0,P|103:141|54:133,2,100,2|0|2,0:0|1:0|0:0,0:0:0:0:
203,51,64886,1,0,1:0:0:0:
282,93,65278,6,0,L|382:93,1,100,2|0,0:0|1:0,0:0:0:0:
410,178,66062,2,0,L|310:178,1,100,2|0,0:0|1:0,0:0:0:0:
246,241,66846,2,0,P|256:289|250:338,2,100,2|0|2,0:0|1:0|0:0,0:0:0:0:
195,165,68023,1,0,1:0:0:0:
220,77,68415,6,0,P|148:87|106:146,2,150,2|2|0,0:0|0:0|1:0,0:0:0:0:
284,144,69984,2,0,P|325:170|374:167,1,100,2|2,0:0|1:2,0:0:0:0:
399,81,70768,2,0,P|357:54|308:57,1,100,2|0,0:0|1:0,0:0:0:0:
220,77,71552,6,0,B|182:59|141:68|141:68|115:50|75:48,2,150,2|2|0,0:0|0:0|1:0,0:0:0:0:
284,144,73121,2,0,P|297:191|282:238,1,100,2|0,0:0|1:0,0:0:0:0:
239,318,73905,1,0,1:0:0:0:
149,327,74297,1,0,1:0:0:0:
101,251,74690,6,0,L|1:255,2,100,6|0|2,0:0|1:0|0:0,0:0:0:0:
181,211,75866,1,0,1:0:0:0:
123,141,76258,2,0,P|110:93|121:44,1,100,2|0,0:0|1:0,0:0:0:0:
210,34,77043,2,0,L|309:37,1,100,2|0,0:0|1:0,0:0:0:0:
396,62,77827,6,0,L|395:161,1,100,2|0,0:0|1:0,0:0:0:0:
479,131,78611,2,0,L|478:230,1,100,2|0,0:0|1:0,0:0:0:0:
434,309,79396,2,0,P|482:318|512:356,2,100,2|0|2,0:0|1:0|0:0,0:0:0:0:
355,352,80572,1,0,1:0:0:0:
272,313,80964,6,0,P|263:265|273:216,1,100,2|0,0:0|1:0,0:0:0:0:
318,138,81748,2,0,P|254:173|186:148,1,150,2|2,0:0|0:0,0:0:0:0:
113,95,82729,1,2,0:0:0:0:
45,154,83121,2,0,L|57:303,1,150,2|0,0:0|1:0,0:0:0:0:
125,362,84101,6,0,P|144:316|180:281,1,100,2|2,0:0|1:2,0:0:0:0:
250,224,84886,1,8,0:3:0:0:
315,285,85278,1,4,0:3:0:0:
378,221,85670,6,0,B|431:203|477:224|477:224|506:163|485:129,1,200,4|2,0:3|0:0,0:0:0:0:
446,48,86846,1,2,0:0:0:0:
366,91,87239,2,0,B|342:97|342:97|306:93|306:93|275:98|275:98|241:90|241:90|203:95|203:95|170:89|170:89|144:95|144:95|118:87|118:87|83:95|83:95|55:91|55:91|24:96,1,350,2|0,0:0|0:0,0:0:0:0:
