osu file format v14

[General]
AudioFilename: colorful.mp3
AudioLeadIn: 0
PreviewTime: 60572
Countdown: 0
SampleSet: Soft
StackLeniency: 0.7
Mode: 0
LetterboxInBreaks: 0
WidescreenStoryboard: 1

[Editor]
DistanceSpacing: 0.8
BeatDivisor: 4
GridSize: 32
TimelineZoom: 2.2

[Metadata]
Title:Colorful. (AnimeVer.)
TitleUnicode:カラフル。(AnimeVer.)
Artist:Miku Sawai
ArtistUnicode:沢井美空
Creator:Agatsu
Version:Reflection
Source:冴えない彼女の育てかた
Tags:saenai heroine no sodate kata saekano ed ending tv size akitoshi corinn misure
BeatmapID:1170892
BeatmapSetID:552947

[Difficulty]
HPDrainRate:6
CircleSize:4
OverallDifficulty:7
ApproachRate:8.5
SliderMultiplier:1.6
SliderTickRate:1

[Events]
//Background and Video events
Video,0,"vid.avi"
0,0,"bg.jpg",0,0
//Break Periods
//Storyboard Layer 0 (Background)
//Storyboard Layer 1 (Fail)
//Storyboard Layer 2 (Pass)
//Storyboard Layer 3 (Foreground)
//Storyboard Sound Samples

[TimingPoints]
964,392.156862745098,4,2,1,60,1,0
10375,-111.111111111111,4,2,1,50,0,0
35473,-125,4,2,1,50,0,0
48022,-111.111111111111,4,2,1,50,0,0
54297,-100,4,2,1,60,0,0
62140,-100,4,2,1,75,0,1
73513,-100,4,2,1,75,0,0
74689,-100,4,2,1,75,0,1
84885,-100,4,2,1,60,0,1
85277,-100,4,2,1,50,0,1
85669,-133.333333333333,4,2,1,40,0,0

[Colours]
Combo1 : 167,160,252
Combo2 : 128,188,255
Combo3 : 255,147,147
Combo4 : 255,255,170
Combo5 : 155,238,157

[HitObjects]
147,105,179,6,0,L|154:64,3,40,10|2|2|2,0:0|0:0|0:0|0:0,0:0:0:0:
217,170,571,2,0,L|263:159,1,40,10|2,0:0|0:0,0:0:0:0:
144,232,767,2,0,L|83:222,1,40,8|0,0:0|0:0,0:0:0:0:
233,296,964,6,0,P|311:280|410:265,1,160,6|8,0:0|0:0,0:0:0:0:
462,120,1552,1,0,0:0:0:0:
357,161,1748,2,0,P|314:151|265:142,1,80,0|0,0:0|0:0,0:0:0:0:
179,283,2140,2,0,P|250:269|282:266,1,80,8|0,0:0|0:0,0:0:0:0:
332,69,2532,6,0,P|252:53|195:105,1,160,2|8,0:0|0:0,0:0:0:0:
152,218,3120,1,0,0:0:0:0:
152,218,3218,1,8,0:0:0:0:
152,218,3316,2,0,L|197:228,3,40,2|0|0|0,0:0|0:0|0:0|0:0,0:0:0:0:
147,319,3709,2,0,L|101:330,3,40,10|0|0|0,0:0|0:0|0:0|0:0,0:0:0:0:
49,188,4101,6,0,P|140:174|231:163,1,160,2|8,0:0|0:0,0:0:0:0:
265,73,4689,1,0,0:0:0:0:
337,187,4885,2,0,P|344:226|351:265,1,80
190,334,5277,2,0,P|197:270|203:235,1,80,8|0,0:0|0:0,0:0:0:0:
265,73,5669,5,2,0:0:0:0:
337,187,5865,1,0,0:0:0:0:
181,152,6062,2,0,P|121:142|75:135,1,80,8|0,0:0|0:0,0:0:0:0:
44,265,6454,1,2,0:0:0:0:
69,285,6552,1,0,0:0:0:0:
100,293,6650,1,0,0:0:0:0:
131,288,6748,1,0,0:0:0:0:
159,273,6846,2,0,L|208:262,1,40,10|0,0:0|0:0,0:0:0:0:
271,324,7042,2,0,L|319:332,1,40,0|0,0:0|0:0,0:0:0:0:
421,254,7238,6,0,P|454:181|400:110,1,160,6|8,0:0|0:0,0:0:0:0:
330,173,7826,1,0,0:0:0:0:
470,33,8022,1,8,0:0:0:0:
309,67,8218,2,0,L|265:58,3,26.6666666666667,8|8|8|8,0:0|0:0|0:0|0:0,0:0:0:0:
135,163,8611,6,0,L|140:193,1,20,2|0,0:0|0:0,0:0:0:0:
345,284,9003,2,0,L|341:306,1,20,2|0,0:0|0:0,0:0:0:0:
155,86,9983,6,0,P|203:58|270:69,1,120,4|0,0:3|0:0,0:0:0:0:
296,90,10375,6,0,P|285:139|276:178,1,71.9999978027344,6|0,0:0|0:0,0:0:0:0:
365,262,10767,1,8,0:0:0:0:
287,323,10964,2,0,P|216:308|123:306,1,143.999995605469,2|0,0:0|0:0,0:0:0:0:
33,248,11552,2,0,P|35:209|50:168,1,71.9999978027344,8|0,0:0|0:0,0:0:0:0:
159,109,11944,5,2,0:0:0:0:
274,168,12140,1,0,0:0:0:0:
140,243,12336,1,8,0:0:0:0:
274,168,12532,2,0,P|350:162|437:151,1,143.999995605469,2|0,0:0|0:0,0:0:0:0:
472,284,13120,2,0,P|438:278|386:272,1,71.9999978027344,8|0,0:0|0:0,0:0:0:0:
238,247,13513,5,2,0:0:0:0:
315,340,13709,1,0,0:0:0:0:
337,190,13905,2,0,P|330:146|322:100,1,71.9999978027344,8|0,0:0|0:0,0:0:0:0:
190,58,14297,1,2,0:0:0:0:
296,17,14493,1,0,0:0:0:0:
201,151,14689,2,0,P|145:141|112:136,1,71.9999978027344,8|0,0:0|0:0,0:0:0:0:
325,118,15081,5,2,0:0:0:0:
279,241,15277,2,0,P|272:283|267:323,1,71.9999978027344,0|8,0:0|0:0,0:0:0:0:
155,207,15669,2,0,P|149:113|137:35,1,143.999995605469,2|0,0:0|0:0,0:0:0:0:
271,143,16258,1,8,0:0:0:0:
295,157,16356,1,8,0:0:0:0:
323,160,16454,1,0,0:0:0:0:
350,153,16552,1,0,0:0:0:0:
373,136,16650,6,0,P|382:199|386:229,1,71.9999978027344,6|0,0:0|0:0,0:0:0:0:
341,333,17042,1,8,0:0:0:0:
253,271,17238,2,0,B|184:285|185:235|98:255,1,143.999995605469,2|0,0:0|0:0,0:0:0:0:
225,114,17826,2,0,P|235:153|233:188,1,71.9999978027344,8|0,0:0|0:0,0:0:0:0:
356,229,18218,6,0,P|408:217|438:212,1,71.9999978027344,2|0,0:0|0:0,0:0:0:0:
340,344,18611,1,8,0:0:0:0:
244,256,18807,2,0,P|234:177|223:104,1,143.999995605469,2|0,0:0|0:0,0:0:0:0:
418,147,19395,1,8,0:0:0:0:
332,200,19591,1,0,0:0:0:0:
364,59,19787,6,0,P|430:48|464:44,1,71.9999978027344,2|0,0:0|0:0,0:0:0:0:
332,200,20179,1,8,0:0:0:0:
232,125,20375,2,0,B|159:110|174:162|74:140,1,143.999995605469,2|0,0:0|0:0,0:0:0:0:
249,302,20964,1,8,0:0:0:0:
212,208,21160,1,0,0:0:0:0:
124,329,21356,6,0,L|159:337,3,35.9999989013672,10|0|8|0,0:0|0:0|0:0|0:0,0:0:0:0:
249,302,21748,2,0,L|288:288,3,35.9999989013672,8|0|0|0,0:0|0:0|0:0|0:0,0:0:0:0:
383,315,22140,1,8,0:0:0:0:
383,315,22238,1,0,0:0:0:0:
383,315,22336,6,0,P|391:259|402:220,1,71.9999978027344,6|8,0:0|0:0,0:0:0:0:
331,133,22728,1,0,0:0:0:0:
331,133,22826,1,0,0:0:0:0:
331,133,22924,6,0,P|271:145|235:153,1,71.9999978027344,6|0,0:0|0:0,0:0:0:0:
183,36,23316,1,8,0:0:0:0:
93,88,23513,2,0,P|58:145|91:226,1,143.999995605469,2|0,0:0|0:0,0:0:0:0:
225,169,24101,2,0,P|183:161|130:154,1,71.9999978027344,8|0,0:0|0:0,0:0:0:0:
243,301,24493,6,0,P|292:288|325:284,1,71.9999978027344,2|0,0:0|0:0,0:0:0:0:
431,340,24885,1,8,0:0:0:0:
490,258,25081,2,0,P|509:197|460:128,1,143.999995605469,2|0,0:0|0:0,0:0:0:0:
315,194,25669,2,0,P|375:202|411:209,1,71.9999978027344,8|0,0:0|0:0,0:0:0:0:
248,96,26062,5,2,0:0:0:0:
350,56,26258,1,0,0:0:0:0:
315,194,26454,2,0,P|307:239|302:280,1,71.9999978027344,8|0,0:0|0:0,0:0:0:0:
451,332,26846,1,2,0:0:0:0:
399,245,27042,1,0,0:0:0:0:
327,356,27238,2,0,P|295:362|250:369,1,71.9999978027344,8|0,0:0|0:0,0:0:0:0:
153,247,27630,6,0,P|150:206|139:157,1,71.9999978027344,2|0,0:0|0:0,0:0:0:0:
106,45,28022,1,8,0:0:0:0:
206,68,28218,2,0,B|287:82|275:34|365:53,1,143.999995605469,2|0,0:0|0:0,0:0:0:0:
441,133,28807,1,8,0:0:0:0:
437,161,28905,1,0,0:0:0:0:
432,189,29003,1,0,0:0:0:0:
428,217,29101,1,0,0:0:0:0:
424,245,29199,6,0,P|378:251|341:261,1,71.9999978027344,6|0,0:0|0:0,0:0:0:0:
239,322,29591,1,8,0:0:0:0:
180,240,29787,2,0,P|192:150|202:82,1,143.999995605469,2|0,0:0|0:0,0:0:0:0:
333,38,30375,2,0,P|342:81|351:123,1,71.9999978027344,8|0,0:0|0:0,0:0:0:0:
286,222,30767,6,0,P|236:212|198:206,1,71.9999978027344,2|0,0:0|0:0,0:0:0:0:
325,328,31160,1,8,0:0:0:0:
406,256,31356,2,0,P|433:193|396:122,1,143.999995605469,2|0,0:0|0:0,0:0:0:0:
236,61,31944,1,8,0:0:0:0:
328,25,32140,1,0,0:0:0:0:
292,158,32336,6,0,P|282:209|277:252,1,71.9999978027344,6|0,0:0|0:0,0:0:0:0:
336,341,32728,1,8,0:0:0:0:
239,372,32924,2,0,B|169:376|172:324|89:335,1,143.999995605469,2|0,0:0|0:0,0:0:0:0:
177,201,33513,1,8,0:0:0:0:
71,166,33709,6,0,P|35:170|0:177,1,71.9999978027344,4|2,0:0|0:0,0:0:0:0:
142,79,34101,1,8,0:0:0:0:
142,79,34199,1,8,0:0:0:0:
142,79,34297,1,8,0:0:0:0:
245,142,34493,1,0,0:0:0:0:
245,142,34591,1,0,0:0:0:0:
245,142,34689,2,0,P|288:131|330:126,1,71.9999978027344,4|0,0:3|0:0,0:0:0:0:
330,137,34983,1,0,0:0:0:0:
342,151,35081,2,0,P|382:164|415:170,1,71.9999978027344,8|0,0:3|0:0,0:0:0:0:
351,275,35473,6,0,L|199:255,1,128,6|0,0:0|0:0,0:0:0:0:
148,304,36062,1,0,0:0:0:0:
57,222,36258,2,0,P|40:168|81:102,1,128,8|0,0:0|0:0,0:0:0:0:
164,69,36846,1,0,0:0:0:0:
254,154,37042,6,0,L|271:247,1,64,2|8,0:0|0:0,0:0:0:0:
322,333,37434,1,0,0:0:0:0:
227,316,37630,1,0,0:0:0:0:
362,241,37826,2,0,L|433:252,1,64,8|0,0:0|0:0,0:0:0:0:
367,124,38218,1,0,0:0:0:0:
277,176,38414,1,0,0:0:0:0:
277,176,38513,1,0,0:0:0:0:
277,176,38611,6,0,P|212:197|153:156,1,128,2|0,0:0|0:0,0:0:0:0:
100,93,39199,1,0,0:0:0:0:
212,26,39395,1,8,0:0:0:0:
226,111,39591,2,0,L|79:90,1,128
112,261,40179,6,0,L|175:249,1,64,2|8,0:0|0:0,0:0:0:0:
279,184,40571,1,0,0:0:0:0:
226,111,40767,1,0,0:0:0:0:
349,58,40964,2,0,L|362:138,1,64,8|0,0:0|0:0,0:0:0:0:
375,141,41258,1,0,0:0:0:0:
374,141,41356,2,0,L|366:222,1,64,0|0,0:0|0:0,0:0:0:0:
224,321,41748,6,0,L|201:174,1,128,6|0,0:0|0:0,0:0:0:0:
124,136,42336,1,0,0:0:0:0:
207,36,42532,2,0,P|247:12|334:32,1,128,8|0,0:0|0:0,0:0:0:0:
342,155,43120,1,0,0:0:0:0:
342,155,43218,1,0,0:0:0:0:
342,155,43316,6,0,L|332:224,1,64,2|8,0:0|0:0,0:0:0:0:
418,309,43709,1,0,0:0:0:0:
433,216,43905,1,0,0:0:0:0:
321,332,44101,2,0,L|232:315,1,64,8|0,0:0|0:0,0:0:0:0:
234,310,44395,2,0,L|177:321,1,32,8|0,0:0|0:0,0:0:0:0:
135,149,44689,1,0,0:0:0:0:
66,202,44885,6,0,P|105:230|192:216,1,128,6|0,0:0|0:0,0:0:0:0:
239,143,45473,1,0,0:0:0:0:
349,199,45669,2,0,L|340:274,1,64,8|0,0:0|0:0,0:0:0:0:
251,371,46062,1,0,0:0:0:0:
350,348,46258,1,0,0:0:0:0:
224,260,46454,6,0,L|213:184,1,64,2|8,0:0|0:0,0:0:0:0:
128,62,46846,1,0,0:0:0:0:
115,159,47042,1,0,0:0:0:0:
244,79,47238,5,8,0:0:0:0:
244,79,47336,1,8,0:0:0:0:
244,79,47434,1,8,0:0:0:0:
308,154,47630,1,8,0:0:0:0:
330,165,47728,1,8,0:0:0:0:
355,165,47826,1,8,0:0:0:0:
379,157,47924,1,8,0:0:0:0:
402,139,48022,6,0,P|411:187|418:225,1,71.9999978027344,6|0,0:0|0:0,0:0:0:0:
354,291,48414,1,0,0:0:0:0:
245,227,48611,2,0,P|199:210|117:250,1,143.999995605469,8|0,0:0|0:0,0:0:0:0:
188,372,49199,2,0,P|196:336|191:290,1,71.9999978027344,8|0,0:0|0:0,0:0:0:0:
89,164,49591,6,0,P|145:159|178:153,1,71.9999978027344,2|0,0:0|0:0,0:0:0:0:
238,83,49983,1,0,0:0:0:0:
314,194,50179,2,0,P|306:253|294:339,1,143.999995605469,8|0,0:0|0:0,0:0:0:0:
432,235,50767,2,0,P|437:187|418:154,1,71.9999978027344,8|0,0:0|0:0,0:0:0:0:
335,50,51160,6,0,P|296:54|249:58,1,71.9999978027344,2|0,0:0|0:0,0:0:0:0:
157,75,51552,1,0,0:0:0:0:
194,198,51748,2,0,P|248:218|325:183,1,143.999995605469,8|0,0:0|0:0,0:0:0:0:
264,57,52336,2,0,P|251:101|257:143,1,71.9999978027344,8|0,0:0|0:0,0:0:0:0:
396,261,52728,6,0,P|448:255|477:254,1,71.9999978027344,2|0,0:0|0:0,0:0:0:0:
380,163,53120,1,8,0:0:0:0:
299,276,53316,1,0,0:0:0:0:
380,163,53513,2,0,P|372:111|362:74,1,71.9999978027344
251,25,53905,1,8,0:0:0:0:
198,151,54101,1,8,0:0:0:0:
198,151,54199,1,8,0:0:0:0:
198,151,54297,6,0,P|251:142|282:140,1,80,6|0,0:0|0:0,0:0:0:0:
366,216,54689,1,8,0:0:0:0:
448,134,54885,2,0,P|491:189|444:293,1,160,8|0,0:0|0:0,0:0:0:0:
366,341,55473,2,0,P|325:333|267:322,1,80,8|0,0:0|0:0,0:0:0:0:
306,124,55865,5,2,0:0:0:0:
209,182,56062,1,0,0:0:0:0:
340,221,56258,2,0,P|388:215|435:213,1,80,8|0,0:0|0:0,0:0:0:0:
488,64,56650,2,0,P|430:56|383:48,1,80,0|0,0:0|0:0,0:0:0:0:
306,124,57042,1,8,0:0:0:0:
299,24,57238,1,0,0:0:0:0:
186,87,57434,6,0,P|167:128|169:169,1,80,6|0,0:0|0:0,0:0:0:0:
266,240,57826,1,8,0:0:0:0:
365,181,58022,2,0,P|404:256|355:334,1,160,8|0,0:0|0:0,0:0:0:0:
255,365,58611,2,0,P|194:351|151:344,1,80,8|0,0:0|0:0,0:0:0:0:
33,219,59003,6,0,P|42:270|48:316,1,80,2|0,0:0|0:0,0:0:0:0:
191,242,59395,2,0,P|199:181|208:135,1,80,8|0,0:0|0:0,0:0:0:0:
382,66,59787,5,2,0:0:0:0:
328,224,59983,1,0,0:0:0:0:
259,47,60179,1,8,0:0:0:0:
433,170,60375,1,8,0:0:0:0:
433,170,60473,1,8,0:0:0:0:
433,170,60571,5,2,0:0:0:0:
256,192,60669,12,8,61748,0:0:0:0:
90,173,62140,6,0,P|144:131|235:151,1,160,6|8,0:0|0:0,0:0:0:0:
288,267,62728,1,0,0:0:0:0:
164,314,62924,2,0,P|169:255|180:212,1,80,0|0,0:0|0:0,0:0:0:0:
229,146,63316,1,8,0:0:0:0:
350,202,63513,1,0,0:0:0:0:
350,202,63611,1,0,0:0:0:0:
350,202,63709,6,0,P|408:192|435:187,1,80,2|0,0:0|0:0,0:0:0:0:
334,78,64101,1,8,0:0:0:0:
229,146,64297,1,0,0:0:0:0:
229,146,64395,1,8,0:0:0:0:
229,146,64493,2,0,P|218:202|213:248,1,80,0|0,0:0|0:0,0:0:0:0:
370,327,64885,1,8,0:0:0:0:
321,226,65081,1,0,0:0:0:0:
233,336,65277,6,0,P|192:330|149:320,1,80,2|0,0:0|0:0,0:0:0:0:
55,189,65669,1,8,0:0:0:0:
36,299,65865,1,0,0:0:0:0:
157,201,66062,2,0,P|149:147|139:111,1,80,0|0,0:0|0:0,0:0:0:0:
292,42,66454,1,8,0:0:0:0:
187,0,66650,1,2,0:0:0:0:
268,141,66846,6,0,P|317:140|357:121,1,80
453,288,67238,2,0,P|407:268|350:271,1,80,8|0,0:0|0:0,0:0:0:0:
201,330,67630,1,0,0:0:0:0:
278,223,67826,1,0,0:0:0:0:
305,363,68022,1,8,0:0:0:0:
191,225,68218,1,8,0:0:0:0:
191,225,68316,1,8,0:0:0:0:
191,225,68414,6,0,P|138:214|101:209,1,80,2|0,0:0|0:0,0:0:0:0:
230,116,68807,1,8,0:0:0:0:
335,191,69003,2,0,P|366:130|325:53,1,160,0|0,0:0|0:0,0:0:0:0:
220,15,69591,1,8,0:0:0:0:
175,155,69787,1,0,0:0:0:0:
175,155,69885,1,0,0:0:0:0:
175,155,69983,6,0,P|218:148|256:144,1,80,2|0,0:0|0:0,0:0:0:0:
422,223,70375,1,8,0:0:0:0:
363,127,70571,1,0,0:0:0:0:
306,248,70767,2,0,P|300:309|294:350,1,80,0|0,0:0|0:0,0:0:0:0:
147,368,71160,2,0,P|139:322|134:286,1,80,8|0,0:0|0:0,0:0:0:0:
192,119,71552,6,0,P|242:124|288:135,1,80,2|0,0:0|0:0,0:0:0:0:
183,13,71944,1,8,0:0:0:0:
90,99,72140,2,0,P|64:162|101:222,1,120,0|0,0:0|0:0,0:0:0:0:
112,233,72532,1,0,0:0:0:0:
192,119,72728,1,8,0:0:0:0:
289,238,72924,1,0,0:0:0:0:
289,238,73022,1,8,0:0:0:0:
289,238,73120,6,0,P|235:226|202:221,1,80,2|8,0:0|0:0,0:0:0:0:
280,73,73513,2,0,L|271:25,2,40,8|8|8,0:0|0:0|0:0,0:0:0:0:
406,138,73905,1,8,0:0:0:0:
406,138,74003,1,8,0:0:0:0:
406,138,74101,1,0,0:0:0:0:
383,277,74297,5,8,0:0:0:0:
354,262,74395,1,8,0:0:0:0:
322,262,74493,1,0,0:0:0:0:
292,273,74591,1,0,0:0:0:0:
264,289,74689,6,0,P|188:301|131:239,1,160,6|8,0:0|0:0,0:0:0:0:
101,121,75277,1,0,0:0:0:0:
228,195,75473,2,0,P|282:187|318:182,1,80,0|0,0:0|0:0,0:0:0:0:
438,142,75865,1,8,0:0:0:0:
420,313,76062,1,0,0:0:0:0:
420,313,76160,1,0,0:0:0:0:
420,313,76258,6,0,P|371:301|308:291,1,80,2|0,0:0|0:0,0:0:0:0:
228,195,76650,2,0,P|220:234|214:273,1,80,8|0,0:0|0:0,0:0:0:0:
356,176,77042,2,0,P|378:118|317:39,1,160,0|8,0:0|0:0,0:0:0:0:
232,5,77630,1,0,0:0:0:0:
195,139,77826,6,0,P|255:128|293:126,1,80,2|0,0:0|0:0,0:0:0:0:
458,216,78218,1,8,0:0:0:0:
402,118,78414,1,0,0:0:0:0:
351,248,78611,2,0,P|360:303|367:350,1,80,0|0,0:0|0:0,0:0:0:0:
228,236,79003,1,8,0:0:0:0:
266,340,79199,1,2,0:0:0:0:
138,293,79395,6,0,P|95:286|49:279,1,80,0|0,0:0|0:0,0:0:0:0:
36,127,79787,2,0,P|74:122|120:119,1,80,8|0,0:0|0:0,0:0:0:0:
276,164,80179,1,0,0:0:0:0:
186,57,80375,1,0,0:0:0:0:
201,232,80571,1,8,0:0:0:0:
282,77,80767,1,8,0:0:0:0:
282,77,80865,1,8,0:0:0:0:
282,77,80963,6,0,P|331:84|372:93,1,80,6|0,0:0|0:0,0:0:0:0:
494,143,81356,2,0,P|485:96|475:44,1,80,8|0,0:0|0:0,0:0:0:0:
376,188,81748,2,0,P|420:249|375:337,1,160,0|8,0:0|0:0,0:0:0:0:
242,274,82336,6,0,P|287:265|328:260,1,80,0|2,0:0|0:0,0:0:0:0:
359,100,82728,2,0,P|314:109|273:114,1,80,0|8,0:0|0:0,0:0:0:0:
126,53,83120,2,0,P|168:32|221:39,1,80
127,170,83513,1,0,0:0:0:0:
280,113,83709,1,8,0:0:0:0:
226,232,83905,1,0,0:0:0:0:
226,232,84003,1,0,0:0:0:0:
226,232,84101,6,0,P|214:287|210:317,1,80,2|0,0:0|0:0,0:0:0:0:
392,165,84493,1,8,0:0:0:0:
347,267,84689,1,0,0:0:0:0:
280,113,84885,5,8,0:0:0:0:
254,93,84983,1,8,0:0:0:0:
224,81,85081,1,8,0:3:0:0:
192,79,85179,1,8,0:3:0:0:
161,86,85277,1,4,0:3:0:0:
133,102,85375,1,4,0:3:0:0:
111,125,85473,1,4,0:3:0:0:
98,154,85571,1,4,0:3:0:0:
92,185,85669,6,0,P|109:239|120:307,2,120.000004577637,2|0|0,0:0|0:0|0:0,0:0:0:0:
42,102,86650,1,0,0:0:0:0:
130,57,86846,2,0,P|173:58|211:74,1,60.0000022888184,0|0,0:0|0:0,0:0:0:0:
299,144,87238,5,2,0:0:0:0:
